osu file format v12

[General]
AudioFilename: te-yut-te.mp3
AudioLeadIn: 2000
PreviewTime: 46547
Countdown: 0
SampleSet: Soft
StackLeniency: 0.7
Mode: 0
LetterboxInBreaks: 0
CountdownOffset: 3
WidescreenStoryboard: 0

[Editor]
Bookmarks: 69047
DistanceSpacing: 0.5
BeatDivisor: 4
GridSize: 4
TimelineZoom: 1

[Metadata]
Title:te-yut-te
TitleUnicode:te-yut-te
Artist:Miyasuke
ArtistUnicode:宮助
Creator:yy-JUnKi
Version:Easy
Source:
Tags:kagamine rin [ Yuzuriha Inori ] FeiP
BeatmapID:392636
BeatmapSetID:160320

[Difficulty]
HPDrainRate:2
CircleSize:3
OverallDifficulty:2
ApproachRate:2
SliderMultiplier:0.8
SliderTickRate:1

[Events]
//Background and Video events
0,0,"kagamine rin.jpg",0,0
Video,0,"te-yut-te.avi"
//Break Periods
//Storyboard Layer 0 (Background)
//Storyboard Layer 1 (Fail)
//Storyboard Layer 2 (Pass)
//Storyboard Layer 3 (Foreground)
//Storyboard Sound Samples
//Background Colour Transformations
3,100,163,162,255

[TimingPoints]
690,428.571428571429,4,2,0,100,1,0
55761,-100,4,2,0,100,0,1
69047,285.714285714286,4,2,0,100,1,0
69332,375,4,2,0,100,1,0
69707,352.941428571429,4,2,0,100,1,0
72530,508.474576271186,4,2,0,100,1,0
76597,487.80487804878,4,2,0,100,1,0

[Colours]
Combo1 : 255,0,255
Combo2 : 95,107,255
Combo3 : 255,128,64
Combo4 : 95,255,95

[HitObjects]
351,98,1118,6,0,P|308:153|141:131,1,240
180,112,2832,2,0,P|246:148|275:301,1,240
244,324,4547,1,0,0:0:0:0:
168,304,5404,1,0,0:0:0:0:
104,256,6261,1,0,0:0:0:0:
72,184,7118,1,0,0:0:0:0:
128,128,7975,6,0,P|174:163|174:337,1,240
148,308,9690,2,0,P|217:278|378:342,1,240
400,348,11404,1,0,0:0:0:0:
420,272,12261,1,0,0:0:0:0:
412,192,13118,1,0,0:0:0:0:
388,116,13975,1,0,0:0:0:0:
316,80,14832,6,0,B|286:128|315:177|363:192|363:192|354:308,1,240
320,312,16547,2,0,L|223:314,2,80
336,232,18261,6,0,P|407:205|436:52,1,240
400,56,19975,2,0,L|304:58,2,80
388,136,21690,2,0,L|292:137,2,80
372,216,23404,1,0,0:0:0:0:
332,284,24261,1,0,0:0:0:0:
256,304,25118,1,0,0:0:0:0:
180,280,25975,6,0,P|129:237|99:135,1,160
176,128,27690,2,0,L|270:128,2,80
256,192,28975,12,0,31118,0:0:0:0:
321,122,31975,6,0,B|414:81|436:166|436:166|436:266,1,240
408,288,33690,1,0,0:0:0:0:
340,332,34547,1,0,0:0:0:0:
272,288,35404,2,0,B|211:245|165:267|130:213,2,160
328,232,37975,1,0,0:0:0:0:
404,204,38832,6,0,B|363:119|265:169|265:169|191:168,1,240
156,188,40547,1,0,0:0:0:0:
108,124,41404,1,0,0:0:0:0:
156,60,42261,2,0,P|181:94|57:188,1,240
256,192,43975,12,0,45690,0:0:0:0:
254,57,46547,5,0,0:0:0:0:
256,136,47404,1,0,0:0:0:0:
256,216,48261,1,0,0:0:0:0:
180,244,49118,6,0,B|164:177|224:140|224:140|225:94|331:70,1,240
352,76,50832,1,0,0:0:0:0:
396,144,51690,1,0,0:0:0:0:
332,192,52547,1,0,0:0:0:0:
256,220,53404,2,0,L|255:343,2,120
260,180,55118,1,0,0:0:0:0:
216,112,55975,6,0,P|187:147|222:250,1,160
292,272,57690,2,0,L|384:271,2,80
228,316,59403,1,0,0:0:0:0:
148,316,60261,1,0,0:0:0:0:
80,272,61118,2,0,L|80:103,1,160
148,68,62832,6,0,B|203:37|243:94|308:59,2,160
120,144,65404,1,0,0:0:0:0:
184,192,66261,1,0,0:0:0:0:
256,228,67118,1,0,0:0:0:0:
328,192,67975,2,0,L|387:121,2,80
256,192,69332,12,0,71118,0:0:0:0:
132,113,72530,6,0,B|193:111|193:111|193:37|317:35|318:116|318:116|390:117,1,320
416,192,75580,1,0,0:0:0:0:
376,192,76089,1,0,0:0:0:0:
296,192,77084,5,0,0:0:0:0:
256,192,77572,1,0,0:0:0:0:
