osu file format v14

[General]
AudioFilename: Miyano Mamoru - Orpheus (TV Size).mp3
AudioLeadIn: 2000
PreviewTime: 57634
Countdown: 0
SampleSet: Soft
StackLeniency: 0.7
Mode: 0
LetterboxInBreaks: 0
WidescreenStoryboard: 0

[Editor]
Bookmarks: 61304
DistanceSpacing: 1.2
BeatDivisor: 4
GridSize: 8
TimelineZoom: 3.599998

[Metadata]
Title:Orpheus
TitleUnicode:オルフェ
Artist:Miyano Mamoru
ArtistUnicode:宮野真守
Creator:F D Flourite
Version:Hard
Source:うたの☆プリンスさまっ♪ マジLOVE1000%
Tags:tv size otome regraz utapri ichinose tokiya habiholic
BeatmapID:706374
BeatmapSetID:316903

[Difficulty]
HPDrainRate:6
CircleSize:3.9
OverallDifficulty:6
ApproachRate:8
SliderMultiplier:1.4
SliderTickRate:1

[Events]
//Background and Video events
0,0,"bg.jpg",0,0
Video,-120,"optc.flv"
//Break Periods
//Storyboard Layer 0 (Background)
//Storyboard Layer 1 (Fail)
//Storyboard Layer 2 (Pass)
//Storyboard Layer 3 (Foreground)
//Storyboard Sound Samples

[TimingPoints]
-244,326.076956521739,4,2,3,60,1,0
408,-133.333333333333,4,2,3,60,0,0
5625,-133.333333333333,4,2,3,60,0,0
8886,-133.333333333333,4,2,1,60,0,0
10190,-133.333333333333,4,2,3,70,0,0
10679,-133.333333333333,4,2,1,70,0,0
11494,-100,4,2,2,70,0,0
24537,-100,4,2,2,55,0,0
42798,-100,4,2,2,40,0,0
42961,-100,4,2,2,45,0,0
43124,-100,4,2,2,50,0,0
43287,-100,4,2,2,55,0,0
43450,-100,4,2,2,60,0,0
44102,-100,4,2,4,50,0,0
44428,-100,4,2,1,55,0,0
45406,-133.333333333333,4,2,1,60,0,0
52906,-133.333333333333,4,2,2,50,0,0
53069,-133.333333333333,4,2,1,60,0,0
53232,-100,4,2,2,60,0,0
55352,-100,4,2,3,80,0,0
55841,-100,4,2,2,60,0,0
57634,-100,4,2,1,70,0,0
58449,-90.9090909090909,4,2,2,80,0,1
64971,-90.9090909090909,4,2,2,80,0,1
66275,-100,4,2,2,80,0,1
67580,-100,4,2,2,80,0,0
68884,-90.9090909090909,4,2,2,80,0,1
74101,-100,4,2,2,65,0,0
78666,-100,4,2,2,45,0,0
79318,-100,4,2,2,68,0,0
83231,-90.9090909090909,4,2,2,80,0,1
85025,-100,4,2,2,80,0,0
89753,-100,4,2,3,70,0,0

[Colours]
Combo1 : 45,240,216
Combo2 : 142,240,167
Combo3 : 15,163,251
Combo4 : 128,128,255

[HitObjects]
61,62,408,6,0,L|69:102,3,26.2500010013581
62,124,734,2,0,L|70:164,3,26.2500010013581
85,181,1060,6,0,P|117:205|189:197,1,105.000004005432,4|2,0:0|0:0,0:0:0:0:
241,162,1549,1,0,0:0:0:0:
302,295,1875,2,0,L|293:358,2,52.5000020027161,0|2|0,0:0|0:0|0:0,0:0:0:0:
358,248,2364,5,0,0:0:0:0:
404,191,2527,2,0,P|412:164|406:128,1,52.5000020027161,0|2,0:0|0:0,0:0:0:0:
451,47,2853,2,0,P|425:52|403:67,1,52.5000020027161,0|0,2:0|2:0,2:0:0:0:
301,78,3179,2,0,P|318:97|342:108,2,52.5000020027161,0|2|0,2:0|2:0|2:0,2:0:0:0:
253,22,3668,5,0,0:0:0:0:
256,192,3750,12,0,4973,0:0:0:0:
199,83,5625,6,0,L|162:87,3,26.2500010013581
137,74,5951,2,0,L|115:113,3,26.2500010013581
88,106,6277,6,0,L|99:222,1,105.000004005432,4|2,0:0|0:0,0:0:0:0:
104,283,6766,1,0,0:0:0:0:
246,248,7092,2,0,P|294:241|316:246,1,52.5000020027161,0|2,0:0|0:0,0:0:0:0:
368,261,7418,1,0,0:0:0:0:
431,224,7581,6,0,L|440:160,1,52.5000020027161
392,114,7907,2,0,P|357:102|326:109,1,52.5000020027161,2|0,0:0|0:0,0:0:0:0:
278,141,8234,2,0,P|239:140|213:120,1,52.5000020027161
260,66,8560,2,0,L|270:9,1,52.5000020027161,2|0,0:0|0:0,0:0:0:0:
278,141,8886,5,0,0:0:0:0:
256,192,8967,12,0,10190,0:0:0:0:
37,126,10842,6,0,L|76:129,3,26.2500010013581
97,105,11168,2,0,L|145:107,3,26.2500010013581
158,137,11494,6,0,P|197:162|243:158,1,70
295,113,11820,1,8,0:0:0:0:
380,145,11983,2,0,P|419:210|372:286,1,140
308,252,12473,2,0,L|231:249,1,70,8|0,0:0|0:0,0:0:0:0:
48,205,12962,6,0,L|65:118,1,70,0|8,0:0|0:0,0:0:0:0:
147,107,13288,1,0,0:0:0:0:
228,148,13451,2,0,L|245:61,1,70
327,50,13777,1,8,0:0:0:0:
414,136,13940,6,0,P|433:198|363:255,1,140
297,242,14429,2,0,B|241:237|241:237|194:246|194:246|211:200,1,140,8|0,0:0|0:0,0:0:0:0:
232,125,14918,1,0,0:0:0:0:
139,37,15081,2,0,L|147:113,1,70,8|0,0:0|0:0,0:0:0:0:
57,245,15570,6,0,L|65:321,1,70,0|8,0:0|0:0,0:0:0:0:
154,345,15896,1,0,0:0:0:0:
242,317,16059,2,0,L|294:324,3,35
315,292,16385,2,0,L|362:297,3,35,8|0|0|0,0:0|0:0|0:0|0:0,0:0:0:0:
396,278,16712,6,0,P|423:231|414:188,1,70
417,132,17038,1,8,0:0:0:0:
314,79,17201,2,0,L|336:238,1,140
242,211,17690,2,0,L|230:137,1,70,8|0,0:0|0:0,0:0:0:0:
9,159,18179,5,0,0:0:0:0:
9,159,18342,2,0,P|55:182|93:172,1,70,8|0,0:0|0:0,0:0:0:0:
150,146,18668,1,0,0:0:0:0:
150,146,18831,2,0,B|160:226|160:226|134:289,1,140
55,323,19320,6,0,P|109:305|185:363,1,140,0|8,0:0|0:0,0:0:0:0:
254,377,19809,1,0,0:0:0:0:
301,307,19972,2,0,P|302:264|290:228,1,70
339,383,20298,1,8,0:0:0:0:
420,160,20624,6,0,L|340:167,1,70
279,120,20951,1,8,0:0:0:0:
235,191,21114,1,0,0:0:0:0:
235,191,21195,1,0,0:0:0:0:
235,191,21277,2,0,P|190:189|152:155,1,70
132,101,21603,1,8,0:0:0:0:
65,255,21929,6,0,P|86:311|47:382,1,140,0|8,0:0|0:0,0:0:0:0:
128,346,22418,1,0,0:0:0:0:
207,317,22581,2,0,B|255:300|255:300|363:324,1,140,0|8,0:0|0:0,0:0:0:0:
423,337,23070,1,0,0:0:0:0:
474,231,23233,6,0,P|479:188|473:150,1,70
381,131,23559,2,0,P|377:165|382:200,1,70,8|0,0:0|0:0,0:0:0:0:
288,172,23885,2,0,P|293:129|287:91,1,70
208,81,24211,1,8,0:0:0:0:
208,81,24293,1,0,0:0:0:0:
208,81,24374,2,0,L|152:80,2,35
203,164,24700,6,0,P|140:166|124:164,1,70,0|8,0:0|0:0,0:0:0:0:
55,134,25026,1,0,0:0:0:0:
41,217,25190,2,0,P|33:265|43:297,1,70
78,358,25516,1,0,0:0:0:0:
187,309,25679,6,0,P|259:292|316:347,1,140,8|0,0:0|0:0,0:0:0:0:
384,364,26168,2,0,P|423:362|457:329,1,70,8|0,0:0|0:0,0:0:0:0:
467,308,26412,1,0,0:0:0:0:
467,308,26494,2,0,L|462:233,1,70
397,185,26820,1,8,0:0:0:0:
256,200,26983,6,0,B|192:200|192:200|176:208|176:208|88:208,1,140
48,161,27472,2,0,P|34:105|62:47,1,105,8|8,0:0|0:0,0:0:0:0:
88,45,27798,2,0,L|168:41,2,70,0|0|8,0:0|0:0|0:0,0:0:0:0:
178,125,28287,6,0,P|225:95|239:8,1,140
319,47,28776,2,0,P|378:52|415:31,1,70,8|0,0:0|0:0,0:0:0:0:
428,39,29021,1,0,0:0:0:0:
428,39,29102,2,0,L|421:115,1,70
431,192,29429,1,8,0:0:0:0:
431,192,29510,1,0,0:0:0:0:
431,192,29592,2,0,L|467:214,2,35
315,174,29918,6,0,L|236:175,1,70,0|8,0:0|0:0,0:0:0:0:
172,133,30244,1,0,0:0:0:0:
108,188,30407,2,0,L|113:261,1,70
188,293,30733,1,8,0:0:0:0:
339,249,30896,6,0,P|378:221|378:126,1,140
310,93,31385,2,0,L|236:84,1,70,8|0,0:0|0:0,0:0:0:0:
172,133,31711,2,0,L|91:122,1,70
35,73,32037,1,8,0:0:0:0:
18,215,32200,6,0,P|20:297|84:309,1,140
147,298,32689,2,0,B|236:281,1,70,8|0,0:0|0:0,0:0:0:0:
269,349,33015,2,0,P|318:336|339:306,1,70
365,246,33341,1,8,0:0:0:0:
435,124,33504,6,0,L|458:282,1,140
396,323,33994,2,0,P|362:331|329:322,1,70,8|0,0:0|0:0,0:0:0:0:
267,195,34320,2,0,P|317:182|365:245,2,140,0|8|0,0:0|0:0|0:0,0:0:0:0:
158,281,35135,6,0,P|110:289|78:273,1,70,0|8,0:0|0:0,0:0:0:0:
24,230,35461,1,0,0:0:0:0:
74,163,35624,2,0,P|80:123|74:87,1,70
64,10,35950,1,0,0:0:0:0:
200,55,36113,6,0,B|268:72|268:72|307:44|366:59,1,140,8|0,0:0|0:0,0:0:0:0:
408,93,36602,2,0,P|415:135|408:164,1,70,8|0,0:0|0:0,0:0:0:0:
340,209,36928,2,0,L|268:206,1,70
193,172,37254,1,8,0:0:0:0:
84,247,37417,6,0,P|76:307|163:326,1,140
218,308,37907,2,0,B|248:263|248:263|240:166,2,140,8|0|8,0:0|0:0|0:0,0:0:0:0:
266,376,38722,6,0,B|297:329|297:329|328:366|384:356,1,140
362,274,39211,2,0,P|368:211|366:175,1,70,8|0,0:0|0:0,0:0:0:0:
368,187,39455,1,0,0:0:0:0:
368,187,39537,2,0,P|363:125|367:92,1,70
405,44,39863,1,8,0:0:0:0:
405,44,39944,1,0,0:0:0:0:
405,44,40026,2,0,P|428:41|447:43,2,35
286,55,40352,6,0,P|233:59|201:52,1,70,0|8,0:0|0:0,0:0:0:0:
146,103,40678,1,0,0:0:0:0:
87,163,40841,2,0,P|59:107|68:72,1,70
103,30,41167,1,8,0:0:0:0:
166,184,41330,6,0,B|179:268|179:268|151:328,1,140
73,303,41819,2,0,P|59:262|77:217,1,70,8|0,0:0|0:0,0:0:0:0:
91,156,42146,2,0,P|148:105|228:137,2,140,8|8|0,0:0|0:0|0:0,0:0:0:0:
256,192,42879,12,0,44102,0:0:0:0:
66,195,45406,6,0,L|176:187,1,105.000004005432
237,156,45895,2,0,B|282:152|282:152|300:158|300:158|354:154,1,105.000004005432
409,182,46385,2,0,P|425:242|404:289,1,105.000004005432,8|0,0:0|0:0,0:0:0:0:
305,304,46874,6,0,P|242:300|188:329,1,105.000004005432
133,295,47363,2,0,L|120:229,1,52.5000020027161,8|0,0:0|0:0,0:0:0:0:
50,255,47689,2,0,L|37:189,1,52.5000020027161
109,125,48015,6,0,P|168:125|207:96,1,105.000004005432
242,36,48504,2,0,L|235:163,1,105.000004005432
230,214,48993,1,8,0:0:0:0:
347,302,49319,6,0,L|413:297,1,52.5000020027161
365,136,49808,1,0,0:0:0:0:
365,136,49890,1,0,0:0:0:0:
365,136,49971,2,0,P|299:136|291:137,1,52.5000020027161,8|0,0:0|0:0,0:0:0:0:
240,118,50297,1,0,0:0:0:0:
129,215,50624,6,0,P|121:254|125:278,2,52.5000020027161
194,249,51113,2,0,P|189:296|174:317,2,52.5000020027161
266,235,51602,2,0,P|323:213|370:230,1,105.000004005432,8|0,0:0|0:0,0:0:0:0:
427,260,52091,2,0,P|483:265|501:212,1,105.000004005432
501,191,52498,1,0,0:0:0:0:
501,191,52580,6,0,L|502:128,1,52.5000020027161,8|0,0:0|0:0,0:0:0:0:
408,88,52906,2,0,L|411:155,1,52.5000020027161
321,198,53232,5,0,0:0:0:0:
220,167,53395,1,0,0:0:0:0:
220,167,53721,1,0,0:0:0:0:
166,257,53884,1,0,0:0:0:0:
166,257,54210,2,0,P|224:256|256:264,1,70
376,256,54536,6,0,P|399:218|400:183,1,70
358,96,54863,1,0,0:0:0:0:
358,96,55026,1,0,0:0:0:0:
149,122,55352,2,0,P|110:120|75:102,2,70,2|4|0,0:0|0:0|0:0,0:0:0:0:
229,99,55841,6,0,L|219:187,1,70
339,287,56330,2,0,P|356:226|285:179,1,140
254,246,56819,2,0,P|206:248|167:242,1,70
101,232,57145,5,0,0:0:0:0:
101,232,57308,1,0,0:0:0:0:
101,232,57634,5,0,0:0:0:0:
25,226,57797,1,0,0:0:0:0:
4,150,57960,1,0,0:0:0:0:
70,109,58123,2,0,L|157:109,1,70
256,65,58449,6,0,P|321:36|394:76,1,154.000004699707,4|8,0:1|0:0,0:0:0:0:
453,129,58938,1,0,0:0:0:0:
386,184,59102,2,0,P|321:213|248:173,1,154.000004699707,0|8,0:0|0:0,0:0:0:0:
322,125,59591,1,0,0:0:0:0:
453,129,59754,6,0,L|468:228,1,77.0000023498536
419,285,60080,1,8,0:0:0:0:
333,319,60243,2,0,P|260:336|205:267,1,154.000004699707
150,213,60732,2,0,P|98:210|51:243,1,77.0000023498536,8|0,0:0|0:0,0:0:0:0:
241,197,61058,6,0,P|283:166|266:68,1,154.000004699707,0|8,0:0|0:0,0:0:0:0:
187,38,61547,1,0,0:0:0:0:
187,38,61710,2,0,B|291:53|291:53|367:42,1,154.000004699707,0|8,0:0|0:0,0:0:0:0:
429,27,62199,1,0,0:0:0:0:
383,179,62362,6,0,P|372:225|388:267,1,77.0000023498536
465,221,62688,1,8,0:0:0:0:
460,128,62851,2,0,L|299:147,1,154.000004699707
233,202,63341,2,0,P|209:145|217:118,1,77.0000023498536,8|0,0:0|0:0,0:0:0:0:
285,20,63667,6,0,L|367:28,1,77.0000023498536
386,116,63993,2,0,L|468:124,1,77.0000023498536,8|0,0:0|0:0,0:0:0:0:
494,210,64319,2,0,B|511:269|511:269|491:375,1,154.000004699707,0|8,0:0|0:0,0:0:0:0:
402,373,64808,1,0,0:0:0:0:
252,327,64971,6,0,P|216:281|247:182,1,154.000004699707,0|8,0:0|0:0,0:0:0:0:
347,46,65623,2,0,P|384:97|355:193,1,154.000004699707,0|8,0:0|0:0,0:0:0:0:
273,190,66112,2,0,L|211:194,1,38.5000011749268
184,184,66275,6,0,P|136:232|68:223,1,140,4|8,0:1|0:0,0:0:0:0:
110,155,66764,2,0,B|165:298,1,140
224,344,67253,1,8,0:0:0:0:
304,312,67416,2,0,P|338:272|342:245,1,70,0|4,0:0|0:1,0:0:0:0:
98,62,68069,6,0,L|189:68,1,70
245,99,68395,2,0,P|300:97|325:73,1,70,0|8,0:0|0:0,0:0:0:0:
365,26,68721,1,0,0:0:0:0:
365,26,68884,6,0,B|354:121|354:121|372:193,1,154.000004699707,4|8,0:1|0:0,0:0:0:0:
452,214,69373,1,0,0:0:0:0:
452,214,69536,2,0,P|404:262|318:251,1,154.000004699707,0|8,0:0|0:0,0:0:0:0:
193,123,70188,6,0,L|186:208,1,77.0000023498536
121,265,70514,1,8,0:0:0:0:
41,218,70677,2,0,L|53:64,1,154.000004699707
145,51,71166,2,0,P|199:36|239:53,1,77.0000023498536,8|0,0:0|0:0,0:0:0:0:
314,88,71492,5,4,0:1:0:0:
435,228,71819,1,0,0:0:0:0:
407,316,71982,1,4,0:1:0:0:
289,173,72308,1,0,0:0:0:0:
261,261,72471,1,4,0:1:0:0:
134,126,72797,6,0,L|227:119,1,77.0000023498536,0|4,0:0|0:1,0:0:0:0:
337,255,73286,2,0,L|260:260,1,77.0000023498536,0|4,0:0|0:1,0:0:0:0:
142,268,73612,1,4,0:1:0:0:
361,144,74101,6,0,P|384:200|316:257,1,140
253,250,74590,1,0,0:0:0:0:
253,250,74753,2,0,B|225:192|225:192|230:139,2,105,8|0|0,0:0|0:0|0:0,0:0:0:0:
253,250,75568,6,0,P|264:300|193:364,1,140
117,287,76058,2,0,L|204:289,1,70,8|0,0:0|0:0,0:0:0:0:
63,347,76384,2,0,P|36:293|72:219,1,140
139,153,76873,6,0,P|146:105|143:73,1,70
71,42,77199,1,0,0:0:0:0:
71,42,77362,2,0,L|227:50,1,140,8|0,0:0|0:0,0:0:0:0:
293,36,77851,1,0,0:0:0:0:
370,120,78014,6,0,P|388:170|358:244,2,105
294,175,78666,2,0,L|449:162,1,140
338,303,79318,6,0,L|198:314,1,140,0|8,0:0|0:0,0:0:0:0:
50,235,79970,2,0,P|34:189|63:120,2,105
119,186,80623,2,0,B|191:178|191:178|226:156,2,105
117,102,81275,2,0,P|65:60|9:71,2,105
208,54,81927,6,0,L|366:61,1,140,0|8,0:0|0:0,0:0:0:0:
418,104,82416,1,0,0:0:0:0:
437,185,82579,2,0,P|437:226|429:269,1,70
354,285,82905,2,0,P|354:244|362:201,1,70,8|0,0:0|0:0,0:0:0:0:
235,104,83231,6,0,P|162:95|133:114,1,77.0000023498536
240,259,83557,2,0,P|284:200|282:165,1,77.0000023498536,8|0,0:0|0:0,0:0:0:0:
104,186,83883,2,0,P|132:253|163:269,1,77.0000023498536
195,185,84209,1,8,0:0:0:0:
197,165,84291,1,0,0:0:0:0:
198,145,84372,1,0,0:0:0:0:
199,125,84454,1,0,0:0:0:0:
201,105,84536,5,4,0:1:0:0:
311,279,85025,1,4,0:1:0:0:
256,192,85106,12,0,89753,0:0:0:0:
