osu file format v13

[General]
AudioFilename: Miyano Mamoru - Kanon.mp3
AudioLeadIn: 0
PreviewTime: 27105
Countdown: 0
SampleSet: Soft
StackLeniency: 0.7
Mode: 0
LetterboxInBreaks: 0
WidescreenStoryboard: 0

[Editor]
Bookmarks: 10400,44006,46169,60015,67227
DistanceSpacing: 1.2
BeatDivisor: 4
GridSize: 4
TimelineZoom: 2.2

[Metadata]
Title:Canon
TitleUnicode:カノン
Artist:Miyano Mamoru
ArtistUnicode:宮野真守
Creator:F D Flourite
Version:Hard
Source:うたの☆プリンスさまっ♪ マジLOVE2000%
Tags:yf_bmp Otome Ichinose Tokiya Uta no Prince sama
BeatmapID:433345
BeatmapSetID:180319

[Difficulty]
HPDrainRate:5
CircleSize:4
OverallDifficulty:6
ApproachRate:8
SliderMultiplier:1.3
SliderTickRate:2

[Events]
//Background and Video events
0,0,"BG.jpg",0,0
Video,-30,"180319.flv"
//Break Periods
//Storyboard Layer 0 (Background)
//Storyboard Layer 1 (Fail)
//Storyboard Layer 2 (Pass)
//Storyboard Layer 3 (Foreground)
//Storyboard Sound Samples
//Background Colour Transformations
3,100,163,162,255

[TimingPoints]
1173,288.461538461538,4,2,1,50,1,0
1173,-133.333333333333,4,2,0,50,0,0
8096,-133.333333333333,4,2,3,50,0,0
10115,-133.333333333333,4,3,1,50,0,0
10187,-133.333333333333,4,2,3,50,0,0
12134,-81.3008130081301,4,2,1,50,0,0
12567,-86.9565217391304,4,2,1,60,0,0
16029,-86.9565217391304,4,2,1,68,0,0
17038,-86.9565217391304,4,2,1,72,0,0
26557,-166.666666666667,4,2,2,35,0,0
32327,-166.666666666667,4,2,2,15,0,0
32904,-166.666666666667,4,2,2,35,0,0
33480,-133.333333333333,4,2,3,35,0,0
34346,-133.333333333333,4,2,3,30,0,0
35212,-133.333333333333,4,2,3,35,0,0
35788,-100,4,2,1,60,0,0
40115,-100,4,2,1,60,0,0
42855,-81.3008130081301,4,2,1,60,0,0
45019,-100,4,2,1,55,0,0
58865,-100,4,2,1,60,0,0
63481,-100,4,2,1,50,0,0
66076,-86.9565217391304,4,2,1,80,0,1
73144,-86.9565217391304,4,2,1,80,0,1
73216,-86.9565217391304,4,2,1,80,0,1
73721,-76.9230769230769,4,2,1,80,0,1
74153,-86.9565217391304,4,2,1,80,0,1
77183,-86.9565217391304,4,2,1,80,0,1
79634,-111.111111111111,4,2,1,70,0,0
84249,-86.9565217391304,4,2,1,80,0,1
89153,-86.9565217391304,4,2,0,60,0,0
90019,-86.9565217391304,4,2,1,80,0,0
90596,-133.333333333333,4,2,1,80,0,0
91172,-86.9565217391304,4,2,1,75,0,1
94490,-86.9565217391304,4,2,1,75,0,0
95644,-133.333333333333,4,2,2,45,0,0
102134,-133.333333333333,4,2,2,5,0,0

[Colours]
Combo1 : 91,85,217
Combo2 : 95,164,220
Combo3 : 38,38,255
Combo4 : 39,224,201

[HitObjects]
112,200,1173,6,0,L|224:216,1,97.50000371933,2|0,0:0|0:0,0:0:0:0:
280,152,1605,1,0,0:0:0:0:
352,208,1749,2,0,P|360:248|352:272,1,48.750001859665,0|0,0:0|0:0,0:0:0:0:
208,104,2182,2,0,P|288:64|336:88,1,146.250005578995,2|0,0:0|0:0,0:0:0:0:
464,176,2903,6,0,L|472:240,1,48.750001859665,2|0,0:0|0:0,0:0:0:0:
432,312,3192,1,0,0:0:0:0:
344,344,3336,2,0,P|280:360|232:344,1,97.50000371933
160,336,3769,1,0,0:0:0:0:
152,152,4057,6,0,L|160:200,1,48.750001859665,2|0,0:0|0:0,0:0:0:0:
304,240,4490,1,0,0:0:0:0:
304,240,4634,2,0,P|344:184|344:144,1,97.50000371933
194,69,5211,2,0,P|161:104|152:152,1,97.50000371933
192,320,5788,5,2,0:0:0:0:
304,240,6076,2,0,L|408:232,2,97.50000371933
240,128,6942,2,0,L|80:136,1,146.250005578995,2|0,0:0|0:0,0:0:0:0:
56,224,7519,2,0,L|202:216,1,146.250005578995
296,208,8096,5,0,0:0:0:0:
296,208,8240,1,0,0:0:0:0:
296,208,8384,1,0,0:0:0:0:
416,304,8673,1,0,0:0:0:0:
136,280,9105,5,0,0:0:0:0:
136,280,9249,1,0,0:0:0:0:
224,336,9394,2,0,L|232:376,2,24.3750009298325,0|0|0,0:0|0:0|0:0,0:0:0:0:
224,232,9682,2,0,L|208:120,1,97.50000371933
288,48,10115,2,0,L|296:104,1,48.750001859665,2|0,0:3|0:0,0:0:0:0:
336,176,10403,5,0,0:0:0:0:
416,224,10548,1,0,0:0:0:0:
504,192,10692,1,0,0:0:0:0:
328,272,10980,2,0,P|312:304|328:368,1,97.50000371933
323,362,11413,1,0,0:0:0:0:
232,320,11557,2,0,L|200:320,3,24.3750009298325
176,320,11846,2,0,L|144:320,3,24.3750009298325
120,320,12134,6,0,P|64:288|48:240,1,79.9500012199402,0|0,0:3|0:0,0:0:0:0:
48,184,12423,1,8,0:0:0:0:
104,108,12567,6,0,P|160:76|228:132,1,149.500002851486
272,200,12999,2,0,L|352:208,1,74.7500014257431,8|0,0:0|0:0,0:0:0:0:
472,112,13288,2,0,L|425:177,1,74.7500014257431
448,328,13576,2,0,L|414:254,1,74.7500014257431,8|4,0:0|0:0,0:0:0:0:
360,120,13865,1,0,0:0:0:0:
280,72,14009,2,0,L|192:80,1,74.7500014257431,0|8,0:0|0:0,0:0:0:0:
176,168,14298,1,0,0:0:0:0:
96,120,14442,2,0,L|8:128,2,74.7500014257431,0|0|8,0:0|0:0|0:0,0:0:0:0:
264,152,14874,6,0,P|256:208|168:260,1,149.500002851486,4|0,0:0|0:0,0:0:0:0:
112,216,15307,2,0,P|56:200|24:216,2,74.7500014257431,8|0|0,0:0|0:0|0:0,0:0:0:0:
104,304,15740,2,0,P|118:360|148:380,1,74.7500014257431,0|8,0:0|0:0,0:0:0:0:
216,336,16028,6,0,B|328:304|328:304|360:312,1,149.500002851486,4|0,0:0|0:0,0:0:0:0:
448,144,16605,2,0,B|336:176|336:176|304:168,1,149.500002851486
224,128,17038,1,8,0:0:0:0:
136,136,17182,6,0,B|112:176|112:176|128:296,1,149.500002851486
208,312,17615,2,0,P|256:312|296:280,1,74.7500014257431,8|0,0:0|0:0,0:0:0:0:
344,360,17903,2,0,P|368:318|360:267,1,74.7500014257431
456,264,18192,2,0,P|432:222|384:203,1,74.7500014257431,8|4,0:0|0:0,0:0:0:0:
328,176,18480,6,0,L|248:184,1,74.7500014257431
152,184,18769,2,0,L|198:249,1,74.7500014257431,8|0,0:0|0:0,0:0:0:0:
248,336,19057,2,0,L|281:262,1,74.7500014257431
328,176,19346,1,8,0:0:0:0:
385,89,19490,6,0,P|323:70|243:118,1,149.500002851486,4|0,0:0|0:0,0:0:0:0:
168,80,19923,2,0,L|80:88,1,74.7500014257431,8|0,0:0|0:0,0:0:0:0:
32,176,20211,2,0,L|106:169,2,74.7500014257431,0|0|8,0:0|0:0|0:0,0:0:0:0:
96,256,20644,6,0,P|192:264|248:280,1,149.500002851486,4|0,0:0|0:0,0:0:0:0:
312,336,21076,1,8,0:0:0:0:
360,256,21221,2,0,P|376:192|376:160,1,74.7500014257431
360,88,21509,2,0,P|288:144|284:200,1,149.500002851486,0|4,0:0|0:0,0:0:0:0:
160,320,22086,5,0,0:0:0:0:
96,256,22230,2,0,P|88:176|96:104,1,149.500002851486,8|0,0:0|0:0,0:0:0:0:
168,56,22663,1,0,0:0:0:0:
232,120,22807,2,0,P|272:128|320:112,1,74.7500014257431,8|0,0:0|0:0,0:0:0:0:
376,64,23096,1,0,0:0:0:0:
432,136,23240,1,0,0:0:0:0:
368,200,23384,2,0,L|382:273,1,74.7500014257431,8|0,0:0|0:0,0:0:0:0:
320,336,23673,2,0,P|264:328|232:336,1,74.7500014257431
168,368,23961,2,0,P|160:320|176:280,1,74.7500014257431,8|0,0:0|0:0,0:0:0:0:
120,144,24249,6,0,L|168:200,1,74.7500014257431,4|0,0:0|0:0,0:0:0:0:
256,248,24538,1,8,0:0:0:0:
256,248,24610,1,0,0:0:0:0:
256,248,24682,2,0,L|304:248,2,37.3750007128716,0|0|8,0:0|0:0|0:0,0:0:0:0:
464,208,25115,6,0,P|408:192|384:168,1,74.7500014257431,0|8,0:0|0:0,0:0:0:0:
320,48,25403,2,0,P|334:104|325:137,1,74.7500014257431,0|8,0:0|0:0,0:0:0:0:
256,248,25692,2,0,P|297:207|330:198,1,74.7500014257431,0|8,0:0|0:0,0:0:0:0:
428,28,26124,1,0,0:0:0:0:
320,48,26269,2,0,L|272:48,3,37.3750007128716,8|0|0|0,0:0|0:0|0:0|0:0,0:0:0:0:
260,60,26557,6,0,L|183:61,1,77.999997619629
88,232,27134,2,0,P|112:272|144:288,1,77.999997619629,2|0,0:0|0:0,0:0:0:0:
280,232,27711,2,0,P|336:216|368:224,1,77.999997619629
424,272,28144,2,0,L|448:352,1,77.999997619629,2|0,0:0|0:0,0:0:0:0:
432,184,28576,1,0,0:0:0:0:
328,104,28865,6,0,P|304:96|240:112,1,77.999997619629,0|0,0:0|0:0,0:0:0:0:
104,152,29298,2,0,P|128:160|192:144,1,77.999997619629,2|0,0:0|0:0,0:0:0:0:
256,192,29730,2,0,L|272:240,1,38.9999988098145
160,352,30163,2,0,L|147:315,1,38.9999988098145
99,241,30451,1,0,0:0:0:0:
104,152,30596,1,0,0:0:0:0:
240,72,30884,6,0,L|296:80,1,38.9999988098145
376,96,31173,1,2,0:0:0:0:
256,192,31245,12,0,32327,0:0:0:0:
336,152,32903,6,0,L|312:240,1,77.999997619629,0|2,0:0|0:0,0:0:0:0:
240,272,33336,1,0,0:0:0:0:
152,264,33480,6,0,L|104:216,2,48.750001859665
200,184,33913,2,0,L|182:118,2,48.750001859665,0|0|0,0:0|0:0|0:0,0:0:0:0:
280,136,34346,2,0,L|297:70,2,48.750001859665,0|0|0,0:0|0:0|0:0,0:0:0:0:
374,130,34778,2,0,L|422:81,2,48.750001859665,0|0|0,0:0|0:0|0:0,0:0:0:0:
456,176,35211,2,0,L|521:158,1,48.750001859665
424,256,35499,2,0,L|376:268,1,48.750001859665
304,336,35788,6,0,P|280:296|308:196,1,130,4|8,0:0|0:0,0:0:0:0:
344,144,36221,1,0,0:0:0:0:
288,72,36365,2,0,L|224:64,1,65
160,136,36653,2,0,L|224:144,1,65,8|0,0:0|0:0,0:0:0:0:
256,232,36942,6,0,B|272:288|240:304|256:360,1,130,4|8,0:0|0:0,0:0:0:0:
344,336,37374,1,0,0:0:0:0:
344,336,37519,2,0,L|408:336,1,65
456,256,37807,2,0,L|392:256,1,65,8|0,0:0|0:0,0:0:0:0:
336,176,38096,6,0,P|312:104|360:48,1,130,4|0,0:0|0:0,0:0:0:0:
392,120,38528,2,0,L|232:120,1,130
184,72,38961,1,8,0:0:0:0:
104,112,39105,1,4,0:0:0:0:
96,200,39249,6,0,L|104:264,1,65
184,192,39538,1,8,0:0:0:0:
184,192,39682,2,0,L|203:332,1,130
272,368,40115,6,0,P|312:368|344:344,1,65,8|0,0:0|0:0,0:0:0:0:
368,272,40403,1,4,0:0:0:0:
448,312,40548,1,0,0:0:0:0:
488,232,40692,2,0,P|496:200|480:152,1,65,8|0,0:0|0:0,0:0:0:0:
408,128,40980,2,0,L|336:136,1,65
280,200,41269,1,8,0:0:0:0:
224,128,41413,2,0,P|240:72|304:24,1,130,4|0,0:0|0:0,0:0:0:0:
408,128,41846,2,0,L|344:136,1,65,8|0,0:0|0:0,0:0:0:0:
184,208,42134,6,0,P|128:208|104:192,1,65
48,152,42423,1,8,0:0:0:0:
128,112,42567,1,4,0:0:0:0:
336,211,42855,6,0,L|431:222,1,79.9500012199402
208,300,43288,2,0,L|303:311,1,79.9500012199402
192,196,43721,2,0,L|101:184,1,79.9500012199402
312,104,44153,2,0,L|221:92,1,79.9500012199402
336,211,44586,2,0,L|431:222,1,79.9500012199402,0|8,0:0|0:0,0:0:0:0:
456,120,44874,1,0,0:0:0:0:
440,112,44947,1,0,0:0:0:0:
424,104,45019,6,0,L|352:96,1,65,4|0,0:0|0:0,0:0:0:0:
280,56,45307,1,8,0:0:0:0:
216,120,45451,2,0,P|176:128|136:112,1,65,0|0,0:0|0:0,0:0:0:0:
72,88,45740,1,0,0:0:0:0:
80,176,45884,1,8,0:0:0:0:
80,176,46028,6,0,P|56:224|88:304,1,130
160,328,46461,1,8,0:0:0:0:
242,293,46605,2,0,P|264:234|240:176,1,130
160,112,47038,2,0,L|160:40,2,65,8|0|0,0:0|0:0|0:0,0:0:0:0:
316,144,47615,1,8,0:0:0:0:
336,224,47759,5,4,0:0:0:0:
336,224,47831,1,0,0:0:0:0:
336,224,47903,2,0,L|400:224,1,65
448,144,48192,2,0,L|383:144,1,65,8|0,0:0|0:0,0:0:0:0:
304,104,48480,2,0,P|344:64|376:56,2,86.6666666666667
224,160,49057,2,0,L|160:144,1,65,4|0,0:0|0:0,0:0:0:0:
104,216,49346,2,0,L|230:247,1,130,8|4,0:0|0:0,0:0:0:0:
392,288,49923,6,0,L|400:368,1,65,8|0,0:0|0:0,0:0:0:0:
448,160,50211,2,0,L|456:240,1,65,0|0,0:0|0:0,0:0:0:0:
392,288,50499,1,8,0:0:0:0:
304,272,50644,2,0,P|240:232|232:176,1,130
296,120,51076,1,8,0:0:0:0:
384,120,51221,2,0,P|367:59|310:30,1,130
224,64,51653,2,0,L|144:56,1,65,8|0,0:0|0:0,0:0:0:0:
48,104,51942,5,4,0:0:0:0:
48,200,52086,1,0,0:0:0:0:
136,152,52230,1,8,0:0:0:0:
272,240,52519,2,0,B|368:248|368:248|400:288,1,130,0|8,0:0|0:0,0:0:0:0:
360,360,52951,1,0,0:0:0:0:
272,328,53096,2,0,L|144:320,2,97.5
344,272,53673,2,0,L|416:240,1,65
432,144,53961,2,0,L|372:170,1,65,8|0,0:0|0:0,0:0:0:0:
336,176,54177,1,0,0:0:0:0:
296,168,54249,6,0,B|192:144|192:144|168:152,1,130,4|0,0:0|0:0,0:0:0:0:
24,192,54826,1,8,0:0:0:0:
208,40,55115,2,0,L|296:64,1,65,0|0,0:0|0:0,0:0:0:0:
344,16,55403,2,0,P|400:8|440:88,1,130,0|0,0:0|0:0,0:0:0:0:
432,144,55836,1,0,0:0:0:0:
416,224,55980,2,0,P|408:264|424:296,1,65,8|0,0:0|0:0,0:0:0:0:
488,320,56269,2,0,P|496:289|487:258,1,65,0|0,0:0|0:0,0:0:0:0:
328,296,56557,5,4,0:0:0:0:
328,296,56846,2,0,B|280:272|280:272|200:296,1,130,0|8,0:0|0:0,0:0:0:0:
72,176,57423,1,0,0:0:0:0:
72,176,57567,1,0,0:0:0:0:
152,128,57711,2,0,L|240:96,1,65
298,105,57999,2,0,L|360:128,1,65
424,208,58288,2,0,P|464:136|448:72,1,130,8|0,0:0|0:0,0:0:0:0:
360,128,58721,1,0,0:0:0:0:
320,224,58865,6,0,L|256:232,2,65,0|0|8,0:0|0:0|0:0,0:0:0:0:
360,128,59298,2,0,L|352:64,2,65
296,212,59730,2,0,L|232:220,2,65,8|0|0,0:0|0:0|0:0,0:0:0:0:
336,116,60163,2,0,L|328:52,2,65,0|8|0,0:0|0:0|0:0,0:0:0:0:
472,184,60596,6,0,L|480:248,1,65
500,336,60884,1,8,0:0:0:0:
416,368,61028,2,0,P|328:328|320:280,1,130,4|0,0:0|0:0,0:0:0:0:
256,228,61461,5,8,0:0:0:0:
168,272,61605,2,0,L|184:336,1,65
144,264,62038,2,0,L|160:328,1,65,8|0,0:0|0:0,0:0:0:0:
120,256,62471,2,0,L|136:320,1,65
96,248,62903,2,0,L|112:312,1,65
40,368,63192,1,8,0:0:0:0:
164,132,63480,6,0,L|236:116,1,65
168,272,63913,2,0,L|187:209,1,65,0|0,0:0|0:0,0:0:0:0:
68,144,64346,2,0,L|111:191,1,65,0|0,0:0|0:0,0:0:0:0:
256,192,64634,12,0,65644,0:0:0:0:
384,168,65932,5,0,0:0:0:0:
376,152,66004,1,0,0:0:0:0:
368,136,66076,2,0,P|320:120|248:184,1,149.500002851486,12|0,0:0|0:0,0:0:0:0:
240,256,66509,2,0,L|232:336,1,74.7500014257431,0|8,0:0|0:0,0:0:0:0:
160,272,66798,2,0,L|128:120,1,149.500002851486
216,88,67230,2,0,P|264:88|296:104,1,74.7500014257431,8|0,0:0|0:0,0:0:0:0:
427,206,67519,6,0,B|480:192|480:192|512:136,2,112.125002138615
336,204,68096,2,0,B|272:188|272:188|256:172,1,74.7500014257431,0|0,0:0|0:0,0:0:0:0:
240,92,68384,2,0,B|304:108|304:108|320:124,1,74.7500014257431,8|0,0:0|0:0,0:0:0:0:
388,60,68673,1,0,0:0:0:0:
388,60,68817,2,0,L|460:36,1,74.7500014257431,0|8,0:0|0:0,0:0:0:0:
458,36,69105,1,0,0:0:0:0:
456,216,69394,1,0,0:0:0:0:
456,216,69466,1,0,0:0:0:0:
456,216,69538,2,0,B|464:264|464:264|456:304,1,74.7500014257431,8|0,0:0|0:0,0:0:0:0:
368,304,69826,6,0,P|320:288|288:296,1,74.7500014257431
216,328,70115,1,8,0:0:0:0:
128,308,70259,2,0,P|84:252|104:176,1,149.500002851486,4|0,0:0|0:0,0:0:0:0:
176,232,70692,2,0,L|256:208,1,74.7500014257431,8|0,0:0|0:0,0:0:0:0:
320,160,70980,2,0,P|328:112|352:80,2,74.7500014257431,0|0|8,0:0|0:0|0:0,0:0:0:0:
416,128,71413,6,0,P|420:47|368:8,1,149.500002851486
288,32,71846,2,0,L|208:40,1,74.7500014257431,8|0,0:0|0:0,0:0:0:0:
124,37,72134,2,0,P|68:21|39:30,2,74.7500014257431,0|0|8,0:0|0:0|0:0,0:0:0:0:
73,111,72567,1,0,0:0:0:0:
143,166,72711,6,0,L|135:246,1,74.7500014257431,4|0,0:0|0:0,0:0:0:0:
222,211,72999,2,0,L|229:136,1,74.7500014257431,8|0,0:0|0:0,0:0:0:0:
312,112,73288,1,0,0:0:0:0:
392,152,73432,2,0,P|424:192|424:224,1,74.7500014257431,0|8,0:0|0:0,0:0:0:0:
392,304,73721,6,0,B|352:296|352:296|336:304|336:304|272:304|272:304|232:328|192:312|192:312|136:328,1,253.499988395691,4|8,0:0|0:0,0:0:0:0:
56,184,74442,6,0,L|40:64,2,112.125002138615
152,208,75019,6,0,P|216:200|240:176,1,74.7500014257431,4|0,0:0|0:0,0:0:0:0:
246,120,75307,2,0,P|182:128|158:152,1,74.7500014257431,8|0,0:0|0:0,0:0:0:0:
301,181,75596,1,0,0:0:0:0:
362,229,75740,2,0,P|375:158|328:104,1,149.500002851486
290,257,76317,2,0,L|306:337,1,74.7500014257431,0|8,0:0|0:0,0:0:0:0:
225,356,76605,1,0,0:0:0:0:
160,304,76749,6,0,L|80:296,1,74.7500014257431
136,152,77038,2,0,P|144:184|128:224,1,74.7500014257431,8|0,0:0|0:0,0:0:0:0:
64,176,77326,6,0,P|88:88|152:80,1,149.500002851486,4|8,0:0|0:0,0:0:0:0:
216,112,77759,1,0,0:0:0:0:
280,48,77903,2,0,L|360:32,1,74.7500014257431
432,80,78192,1,8,0:0:0:0:
392,160,78336,2,0,L|245:189,1,149.500002851486,4|0,0:0|0:0,0:0:0:0:
168,240,78769,2,0,P|160:288|192:326,1,74.7500014257431,8|0,0:0|0:0,0:0:0:0:
312,272,79057,2,0,L|232:272,1,74.7500014257431
88,272,79346,1,8,0:0:0:0:
96,80,79634,6,0,B|134:51|172:60|172:60|268:89,2,175.499994644165,4|0|0,0:0|0:0|0:0,0:0:0:0:
48,152,80644,1,0,0:0:0:0:
84,232,80788,2,0,L|74:328,2,87.7499973220826
172,248,81365,2,0,P|220:272|236:272,1,58.4999982147217
240,272,81581,1,0,0:0:0:0:
256,272,81653,1,0,0:0:0:0:
340,236,81798,1,0,0:0:0:0:
408,296,81942,6,0,B|446:276|446:276|484:132,2,175.499994644165,4|0|0,0:0|0:0|0:0,0:0:0:0:
380,192,82951,1,0,0:0:0:0:
428,96,83096,2,0,P|477:74|525:87,2,87.7499973220826
316,136,83673,2,0,L|244:136,1,58.4999982147217,0|0,0:0|0:0,0:0:0:0:
240,128,83889,1,0,0:0:0:0:
225,120,83961,2,0,L|161:120,1,58.4999982147217,8|0,0:0|0:0,0:0:0:0:
48,176,84249,6,0,L|86:253,1,74.7500014257431,4|0,0:0|0:0,0:0:0:0:
256,232,84682,2,0,L|294:309,1,74.7500014257431
456,240,85115,6,0,L|422:172,1,74.7500014257431,8|0,0:0|0:0,0:0:0:0:
256,232,85548,2,0,L|218:155,1,74.7500014257431,0|8,0:0|0:0,0:0:0:0:
125,77,85980,2,0,P|141:44|172:24,1,74.7500014257431
184,224,86413,2,0,P|224:176|200:96,1,149.500002851486
278,62,86846,1,8,0:0:0:0:
336,120,86990,6,0,L|424:128,1,74.7500014257431
328,272,87423,2,0,L|320:360,1,74.7500014257431,8|0,0:0|0:0,0:0:0:0:
176,264,87855,2,0,L|88:256,1,74.7500014257431,0|8,0:0|0:0,0:0:0:0:
184,112,88288,2,0,L|192:24,1,74.7500014257431
284,44,88576,1,8,0:0:0:0:
336,120,88721,1,0,0:0:0:0:
336,120,88793,1,0,0:0:0:0:
336,120,88865,1,4,0:0:0:0:
319,245,89153,5,0,0:0:0:0:
191,138,89442,1,0,0:0:0:0:
357,282,89730,1,0,0:0:0:0:
153,100,90019,1,12,0:0:0:0:
120,216,90596,6,0,P|160:232|248:176,1,146.250005578995
376,72,91173,6,0,L|368:160,1,74.7500014257431,12|0,0:0|0:0,0:0:0:0:
395,231,91461,2,0,P|428:215|448:184,1,74.7500014257431,8|0,0:0|0:0,0:0:0:0:
464,96,91749,1,0,0:0:0:0:
376,72,91894,2,0,B|328:80|328:80|272:72|272:72|200:80,1,149.500002851486
80,192,92471,1,0,0:0:0:0:
56,280,92615,2,0,L|72:360,1,74.7500014257431,8|0,0:0|0:0,0:0:0:0:
160,344,92903,2,0,P|208:304|192:216,1,149.500002851486,0|8,0:0|0:0,0:0:0:0:
232,40,93480,5,4,0:0:0:0:
216,128,93624,2,0,L|264:152,2,37.3750007128716,0|0|8,0:0|0:0|0:0,0:0:0:0:
144,184,93913,2,0,L|96:160,2,37.3750007128716,0|0|0,0:0|0:0|0:0,0:0:0:0:
160,272,94201,2,0,L|248:312,1,74.7500014257431,0|8,0:0|0:0,0:0:0:0:
360,248,94490,5,4,0:0:0:0:
280,96,95644,5,2,0:0:0:0:
176,200,96365,2,0,L|184:256,1,48.750001859665
200,368,96798,1,2,0:0:0:0:
392,232,97519,6,0,P|416:200|416:176,1,48.750001859665
400,88,97951,2,0,L|288:88,1,97.50000371933,2|0,0:0|0:0,0:0:0:0:
232,128,98384,1,0,0:0:0:0:
144,256,98673,2,0,L|168:304,1,48.750001859665,0|2,0:0|0:0,0:0:0:0:
256,248,99105,1,0,0:0:0:0:
256,192,99177,12,0,102134,0:0:0:0:
