osu file format v13

[General]
AudioFilename: Miyano Mamoru - Kanon.mp3
AudioLeadIn: 0
PreviewTime: 27105
Countdown: 0
SampleSet: Soft
StackLeniency: 0.7
Mode: 0
LetterboxInBreaks: 0
WidescreenStoryboard: 0

[Editor]
Bookmarks: 10400,44006,46169,60015,67227
DistanceSpacing: 1
BeatDivisor: 4
GridSize: 4
TimelineZoom: 2.2

[Metadata]
Title:Canon
TitleUnicode:カノン
Artist:Miyano Mamoru
ArtistUnicode:宮野真守
Creator:F D Flourite
Version:Easy
Source:うたの☆プリンスさまっ♪ マジLOVE2000%
Tags:yf_bmp Otome Ichinose Tokiya Uta no Prince sama
BeatmapID:433344
BeatmapSetID:180319

[Difficulty]
HPDrainRate:2
CircleSize:3
OverallDifficulty:1
ApproachRate:3
SliderMultiplier:0.64
SliderTickRate:2

[Events]
//Background and Video events
0,0,"BG.jpg",0,0
Video,-30,"180319.flv"
//Break Periods
//Storyboard Layer 0 (Background)
//Storyboard Layer 1 (Fail)
//Storyboard Layer 2 (Pass)
//Storyboard Layer 3 (Foreground)
//Storyboard Sound Samples
//Background Colour Transformations
3,100,163,162,255

[TimingPoints]
1173,288.461538461538,4,2,0,50,1,0
12567,-100,4,2,1,70,0,0
28793,-100,4,2,0,20,0,0
35788,-100,4,2,1,70,0,0
66076,-100,4,2,1,80,0,1
73865,-100,4,2,1,60,0,1
74442,-100,4,2,1,80,0,1
79635,-100,4,2,1,70,0,0
84249,-100,4,2,1,80,0,1
89153,-100,4,2,0,60,0,0
90019,-100,4,2,1,80,0,0
91173,-100,4,2,1,80,0,1
93481,-100,4,2,1,80,0,1
94490,-100,4,2,1,60,0,0
94634,-100,4,2,2,30,0,0
102134,-100,4,2,2,5,0,0

[Colours]
Combo1 : 91,85,217
Combo2 : 95,164,220
Combo3 : 38,38,255
Combo4 : 39,224,201

[HitObjects]
104,176,1173,6,0,P|136:144|232:160,1,128,0|0,0:0|0:0,0:0:0:0:
296,240,2326,2,0,P|357:248|406:209,1,128
376,88,3480,6,0,B|312:88|312:88|256:128,1,128
296,248,4634,2,0,B|360:248|360:248|416:208,2,128,0|2|0,0:0|0:0|0:0,0:0:0:0:
256,192,6076,12,0,8096,0:0:0:0:
256,192,10115,12,0,11557,0:0:0:0:
52,128,12567,6,0,P|88:88|192:80,1,160,4|8,0:0|0:0,0:0:0:0:
280,120,13721,2,0,P|344:144|432:112,1,160,0|8,0:0|0:0,0:0:0:0:
424,240,14875,6,0,L|404:344,1,96,4|8,0:0|0:0,0:0:0:0:
352,368,15596,1,0,0:0:0:0:
268,320,16028,2,0,P|192:274|106:328,1,192
48,337,17182,6,0,P|20:299|44:192,1,160,4|8,0:0|0:0,0:0:0:0:
96,116,18336,2,0,P|180:88|220:28,1,160,0|8,0:0|0:0,0:0:0:0:
316,29,19490,6,0,L|416:41,1,96,4|8,0:0|0:0,0:0:0:0:
460,85,20211,1,0,0:0:0:0:
412,168,20644,2,0,P|368:180|268:156,2,128,4|0|0,0:0|0:0|0:0,0:0:0:0:
256,192,21942,12,0,24249,0:0:0:0:
332,324,25259,6,0,P|272:300|216:328,1,128,8|8,0:0|0:0,0:0:0:0:
160,352,26125,2,0,P|100:344|64:300,1,96,8|0,0:0|0:0,0:0:0:0:
256,192,26701,12,0,28864,0:0:0:0:
32,200,30884,5,0,0:0:0:0:
32,136,31172,2,0,P|14:90|105:135,1,256,2|0,0:0|0:0,0:0:0:0:
76,260,32903,2,0,P|68:292|140:344,1,128,0|2,0:0|0:0,0:0:0:0:
256,316,34057,5,0,0:0:0:0:
324,208,34634,2,0,P|300:116|276:108,1,128,2|0,0:0|0:0,0:0:0:0:
152,100,35788,5,4,0:0:0:0:
172,228,36365,2,0,P|216:268|288:256,1,128,0|4,0:0|0:0,0:0:0:0:
384,188,37519,1,0,0:0:0:0:
368,60,38096,6,0,B|304:48|256:64|256:64|203:47|142:63,1,224,4|4,0:0|0:0,0:0:0:0:
96,144,39538,1,8,0:0:0:0:
108,208,39826,2,0,L|124:288,1,64,0|8,0:0|0:0,0:0:0:0:
152,328,40403,6,0,P|224:356|320:288,1,192,4|8,0:0|0:0,0:0:0:0:
352,176,41846,2,0,P|372:104|288:64,1,160,0|4,0:0|0:0,0:0:0:0:
184,156,43288,6,0,L|204:260,1,96
281,304,44153,1,0,0:0:0:0:
368,268,44586,2,0,L|488:268,1,96,0|4,0:0|0:0,0:0:0:0:
441,142,45596,5,0,0:0:0:0:
344,142,46028,2,0,P|284:130|220:170,1,128
210,255,47038,2,0,L|222:323,1,64,0|4,0:0|0:0,0:0:0:0:
96,296,47903,6,0,B|80:200|80:200|108:156,2,128,0|4|0,0:0|0:0|0:0,0:0:0:0:
216,340,49634,5,4,0:0:0:0:
344,324,50211,2,0,P|392:284|409:222,1,128,0|4,0:0|0:0,0:0:0:0:
284,216,51365,1,0,0:0:0:0:
156,216,51942,1,4,0:0:0:0:
28,220,52519,6,0,P|56:136|108:100,2,128,0|4|0,0:0|0:0|0:0,0:0:0:0:
108,320,54250,6,0,L|248:268,1,128,4|8,0:0|0:0,0:0:0:0:
356,256,55403,2,0,B|448:256|448:256|484:232,1,128,0|8,0:0|0:0,0:0:0:0:
416,124,56557,6,0,L|272:124,1,128,4|8,0:0|0:0,0:0:0:0:
160,124,57711,2,0,P|112:220|128:248,1,128,0|8,0:0|0:0,0:0:0:0:
208,320,58865,6,0,P|256:332|312:312,1,96,4|0,0:0|0:0,0:0:0:0:
380,268,59730,2,0,P|392:220|372:164,1,96
304,120,60596,1,0,0:0:0:0:
208,120,61028,6,0,B|116:120|116:120|88:92,1,128
164,32,62038,2,0,L|276:32,1,96,8|0,0:0|0:0,0:0:0:0:
316,108,62903,2,0,P|308:160|292:180,1,64,0|8,0:0|0:0,0:0:0:0:
256,192,63480,12,0,65211,0:0:0:0:
368,128,66076,6,0,L|256:136,1,96,12|0,0:0|0:0,0:0:0:0:
208,124,66798,2,0,B|196:192|196:192|212:240,1,96,0|8,0:0|0:0,0:0:0:0:
264,244,67519,2,0,P|268:296|252:324,1,64,0|8,0:0|0:0,0:0:0:0:
200,320,68096,6,0,B|104:292|104:292|76:304,1,128
32,220,69105,2,0,P|40:160|28:112,1,96,0|8,0:0|0:0,0:0:0:0:
72,76,69826,2,0,B|132:40|204:112|272:64,1,192,0|8,0:0|0:0,0:0:0:0:
324,68,70980,1,0,0:0:0:0:
400,128,71413,6,0,P|364:160|308:164,1,96,0|8,0:0|0:0,0:0:0:0:
252,172,72134,1,0,0:0:0:0:
162,138,72567,6,0,P|102:34|57:149,1,288
79,260,74442,1,0,0:0:0:0:
196,211,75019,6,0,L|264:183,1,64,4|8,0:0|0:0,0:0:0:0:
315,166,75596,2,0,P|371:154|427:186,1,96
400,264,76461,2,0,P|480:240|500:180,1,128,8|8,0:0|0:0,0:0:0:0:
492,140,77326,6,0,L|480:68,1,64,4|8,0:0|0:0,0:0:0:0:
432,36,77903,2,0,P|364:56|344:100,1,96
356,172,78769,2,0,P|296:184|220:164,1,128,8|8,0:0|0:0,0:0:0:0:
172,144,79634,6,0,B|148:132|148:132|64:132,2,96
200,200,80788,1,0,0:0:0:0:
240,320,81365,1,0,0:0:0:0:
363,294,81942,6,0,B|375:270|375:270|375:186,2,96
304,324,83096,1,0,0:0:0:0:
184,276,83672,1,0,0:0:0:0:
150,153,84250,6,0,P|110:141|39:166,1,96,4|0,0:0|0:0,0:0:0:0:
12,236,85115,2,0,P|52:248|123:223,1,96,8|0,0:0|0:0,0:0:0:0:
200,236,85980,1,0,0:0:0:0:
278,180,86413,2,0,L|381:168,1,96,0|8,0:0|0:0,0:0:0:0:
256,192,86990,12,0,88288,0:0:0:0:
336,88,89153,6,0,P|248:44|168:96,1,192,0|12,0:0|0:0,0:0:0:0:
109,199,90596,1,0,0:0:0:0:
176,308,91173,6,0,L|260:340,1,64,4|8,0:0|0:0,0:0:0:0:
300,328,91750,1,0,0:0:0:0:
392,308,92182,2,0,P|408:260|380:196,1,96,0|8,0:0|0:0,0:0:0:0:
356,168,92903,1,0,0:0:0:0:
228,168,93480,6,0,P|148:224|244:264,1,224,0|4,0:0|0:0,0:0:0:0:
508,320,95788,6,0,P|416:297|290:364,1,224,2|2,0:0|0:0,0:0:0:0:
144,356,97519,6,0,P|80:336|60:300,2,96,0|2|0,0:0|0:0|0:0,0:0:0:0:
188,308,98673,2,0,P|260:300|296:320,1,96,2|0,0:0|0:0,0:0:0:0:
256,192,99250,12,0,102135,0:0:0:0:
