osu file format v13

[General]
AudioFilename: Miyano Mamoru - Kanon.mp3
AudioLeadIn: 0
PreviewTime: 27105
Countdown: 0
SampleSet: Soft
StackLeniency: 0.7
Mode: 0
LetterboxInBreaks: 0
WidescreenStoryboard: 0

[Editor]
Bookmarks: 10400,44006,46169,60015,67227
DistanceSpacing: 1.2
BeatDivisor: 4
GridSize: 8
TimelineZoom: 2.2

[Metadata]
Title:Canon
TitleUnicode:カノン
Artist:Miyano Mamoru
ArtistUnicode:宮野真守
Creator:F D Flourite
Version:Dream
Source:うたの☆プリンスさまっ♪ マジLOVE2000%
Tags:yf_bmp Otome Ichinose Tokiya Uta no Prince sama
BeatmapID:433346
BeatmapSetID:180319

[Difficulty]
HPDrainRate:8
CircleSize:4
OverallDifficulty:8.5
ApproachRate:9
SliderMultiplier:1.6
SliderTickRate:2

[Events]
//Background and Video events
0,0,"BG.jpg",0,0
Video,-30,"180319.flv"
//Break Periods
//Storyboard Layer 0 (Background)
//Storyboard Layer 1 (Fail)
//Storyboard Layer 2 (Pass)
//Storyboard Layer 3 (Foreground)
//Storyboard Sound Samples
//Background Colour Transformations
3,100,163,162,255

[TimingPoints]
1173,288.461538461538,4,2,1,60,1,0
1173,-200,4,2,0,45,0,0
8096,-133.333333333333,4,2,3,50,0,0
10115,-133.333333333333,4,3,1,40,0,0
10259,-133.333333333333,4,2,3,50,0,0
12134,-66.6666666666667,4,2,1,50,0,0
12567,-86.9565217391304,4,2,1,73,0,0
16028,-86.9565217391304,4,2,1,78,0,0
17038,-86.9565217391304,4,2,1,73,0,0
20932,-86.9565217391304,4,2,1,62,0,0
21221,-86.9565217391304,4,2,1,73,0,0
23096,-86.9565217391304,4,2,1,71,0,0
23672,-108.695652173913,4,2,1,60,0,0
24538,-108.695652173913,4,2,1,45,0,0
26269,-108.695652173913,4,2,1,50,0,0
26557,-166.666666666667,4,2,2,40,0,0
32326,-166.666666666667,4,2,2,20,0,0
32903,-166.666666666667,4,2,2,40,0,0
33480,-133.333333333333,4,2,3,40,0,0
34346,-133.333333333333,4,2,3,45,0,0
35211,-133.333333333333,4,2,3,50,0,0
35499,-133.333333333333,4,2,3,20,0,0
35788,-100,4,2,1,60,0,0
39682,-66.6666666666667,4,2,1,60,0,0
40115,-100,4,2,1,60,0,0
40692,-100,4,2,1,60,0,0
42855,-100,4,2,1,35,0,0
43288,-100,4,2,1,40,0,0
43721,-100,4,2,1,45,0,0
44153,-100,4,2,1,50,0,0
44586,-100,4,2,1,60,0,0
48480,-100,4,2,3,80,0,0
49057,-100,4,2,1,60,0,0
53096,-100,4,2,3,80,0,0
53672,-100,4,2,1,55,0,0
58865,-100,4,2,1,70,0,0
62903,-100,4,2,0,30,0,0
63192,-100,4,2,1,70,0,0
63480,-200,4,2,1,30,0,0
65788,-200,4,2,0,50,0,0
65860,-200,4,2,1,50,0,0
66076,-86.9565217391304,4,2,1,80,0,1
70403,-86.9565217391304,4,2,1,40,0,1
70475,-86.9565217391304,4,2,1,80,0,1
73144,-86.9565217391304,4,2,1,70,0,1
73216,-86.9565217391304,4,2,1,80,0,1
73721,-66.6666666666667,4,2,1,80,0,1
74153,-86.9565217391304,4,1,1,80,0,1
75019,-86.9565217391304,4,2,1,80,0,1
76749,-66.6666666666667,4,2,1,80,0,1
77182,-86.9565217391304,4,2,1,80,0,1
79634,-133.333333333333,4,2,1,70,0,0
84249,-86.9565217391304,4,2,1,80,0,1
89153,-86.9565217391304,4,2,0,60,0,0
90019,-86.9565217391304,4,2,1,80,0,0
90596,-133.333333333333,4,2,1,80,0,0
91172,-95.2380952380952,4,2,1,80,0,1
92182,-126.582278481013,4,2,1,80,0,1
92615,-95.2380952380952,4,2,1,80,0,1
93481,-95.2380952380952,4,2,1,80,0,1
94490,-66.6666666666667,4,2,1,48,0,0
95211,-200,4,2,2,30,0,0
102134,-200,4,2,2,5,0,0

[Colours]
Combo1 : 91,85,217
Combo2 : 95,164,220
Combo3 : 38,38,255
Combo4 : 39,224,201

[HitObjects]
256,136,1173,5,0,0:0:0:0:
352,208,1461,2,0,L|424:216,1,40,0|0,0:0|0:0,0:0:0:0:
464,152,1749,2,0,P|488:96|472:40,1,120
384,16,2326,2,0,L|288:24,1,80,0|0,0:0|0:0,0:0:0:0:
104,184,2903,6,0,L|183:177,1,80
256,224,3336,1,0,0:0:0:0:
264,96,3624,1,0,0:0:0:0:
336,144,3769,1,0,0:0:0:0:
344,16,4057,1,0,0:0:0:0:
416,64,4201,1,0,0:0:0:0:
480,216,4490,6,0,P|464:264|488:344,1,120,0|0,0:0|0:0,0:0:0:0:
327,293,5211,2,0,P|295:288|241:319,1,80
112,376,5788,1,0,0:0:0:0:
104,184,6076,6,0,P|88:144|96:88,1,80
89,107,6653,1,0,0:0:0:0:
256,128,6942,2,0,B|304:104|368:152|416:128,1,160
512,92,7951,1,0,0:0:0:0:
440,216,8096,5,0,0:0:0:0:
364,296,8240,1,0,0:0:0:0:
333,191,8384,1,0,0:0:0:0:
88,176,8673,1,0,0:0:0:0:
192,344,9105,1,0,0:0:0:0:
216,248,9249,5,0,0:0:0:0:
224,216,9322,1,0,0:0:0:0:
232,184,9394,1,0,0:0:0:0:
240,152,9466,1,0,0:0:0:0:
248,120,9538,1,0,0:0:0:0:
352,48,9682,2,0,L|472:40,1,120.000004577637
384,216,10115,2,0,L|296:224,1,60.0000022888184,2|0,0:0|0:0,0:0:0:0:
136,160,10403,5,0,0:0:0:0:
136,160,10548,1,0,0:0:0:0:
136,160,10692,1,0,0:0:0:0:
96,280,10980,1,0,0:0:0:0:
168,32,11269,2,0,L|232:16,1,60.0000022888184
381,21,11557,1,0,0:0:0:0:
421,23,11629,1,0,0:0:0:0:
457,40,11701,1,0,0:0:0:0:
486,68,11774,1,0,0:0:0:0:
504,104,11846,1,0,0:0:0:0:
508,143,11918,1,0,0:0:0:0:
498,182,11990,1,0,0:0:0:0:
476,215,12062,1,0,0:0:0:0:
448,240,12134,6,0,L|312:248,1,120.000004577637
264,248,12350,1,0,0:0:0:0:
264,248,12423,1,8,0:0:0:0:
112,200,12567,6,0,B|56:184|0:200|0:200|16:160|72:152,1,184.000003509522
224,112,12999,1,8,0:0:0:0:
264,248,13144,1,0,0:0:0:0:
304,80,13288,1,0,0:0:0:0:
180,244,13432,1,0,0:0:0:0:
392,80,13576,1,8,0:0:0:0:
112,200,13721,1,0,0:0:0:0:
464,208,13865,6,0,L|440:304,1,92.0000017547608
264,248,14153,1,8,0:0:0:0:
328,56,14297,1,0,0:0:0:0:
464,208,14442,1,0,0:0:0:0:
176,320,14586,2,0,L|120:336,2,46.0000008773804,0|0|8,0:0|0:0|0:0,0:0:0:0:
389,114,14874,6,0,P|307:78|224:112,1,184.000003509522
46,236,15307,1,8,0:0:0:0:
137,352,15451,1,0,0:0:0:0:
192,216,15596,1,0,0:0:0:0:
39,337,15740,1,0,0:0:0:0:
227,307,15884,1,8,0:0:0:0:
108,159,16028,5,0,0:0:0:0:
512,40,16317,1,0,0:0:0:0:
320,368,16605,1,0,0:0:0:0:
96,72,16894,1,0,0:0:0:0:
96,72,16966,1,0,0:0:0:0:
96,72,17038,1,8,0:0:0:0:
216,280,17182,6,0,P|314:291|366:199,1,184.000003509522
269,73,17615,2,0,P|243:35|201:18,1,92.0000017547608,8|0,0:0|0:0,0:0:0:0:
264,176,17903,2,0,P|309:173|344:145,1,92.0000017547608
176,120,18192,2,0,P|155:160|162:205,1,92.0000017547608,8|0,0:0|0:0,0:0:0:0:
216,280,18480,5,0,0:0:0:0:
352,272,18624,1,0,0:0:0:0:
432,160,18769,1,8,0:0:0:0:
288,336,18913,1,0,0:0:0:0:
440,248,19057,1,0,0:0:0:0:
480,80,19201,1,0,0:0:0:0:
480,80,19273,1,0,0:0:0:0:
480,80,19346,1,8,0:0:0:0:
264,40,19490,6,0,B|216:32|216:32|176:56|128:40|128:40|88:64,1,184.000003509522,0|0,0:0|0:0,0:0:0:0:
80,192,19923,2,0,L|136:288,1,92.0000017547608,8|0,0:0|0:0,0:0:0:0:
280,200,20211,2,0,L|168:200,1,92.0000017547608
184,360,20499,2,0,L|239:263,1,92.0000017547608,8|0,0:0|0:0,0:0:0:0:
320,64,20932,6,0,L|312:24,4,23.0000004386902,0|0|0|0|8,0:0|0:0|0:0|0:0|0:0,0:0:0:0:
392,8,21221,1,0,0:0:0:0:
376,184,21509,1,0,0:0:0:0:
344,168,21581,1,0,0:0:0:0:
304,176,21653,1,8,0:0:0:0:
280,200,21725,1,0,0:0:0:0:
264,232,21798,6,0,P|224:272|104:232,1,184.000003509522
64,152,22230,1,8,0:0:0:0:
308,46,22519,1,0,0:0:0:0:
462,73,22663,1,0,0:0:0:0:
435,228,22807,1,8,0:0:0:0:
280,200,22951,1,0,0:0:0:0:
365,49,23096,5,0,0:0:0:0:
467,135,23240,1,0,0:0:0:0:
381,237,23384,1,8,0:0:0:0:
279,151,23528,1,0,0:0:0:0:
405,72,23673,5,0,0:0:0:0:
412,220,23817,1,0,0:0:0:0:
412,220,23889,1,0,0:0:0:0:
412,220,23961,1,8,0:0:0:0:
280,151,24105,1,0,0:0:0:0:
176,56,24249,5,0,0:0:0:0:
112,184,24394,1,0,0:0:0:0:
176,320,24538,2,0,L|184:344,4,18.3999993823242,8|0|0|0|0,0:0|0:0|0:0|0:0|0:0,0:0:0:0:
336,320,24826,2,0,L|328:344,4,18.3999993823242,8|0|0|0|0,0:0|0:0|0:0|0:0|0:0,0:0:0:0:
412,252,25115,1,0,0:0:0:0:
392,152,25259,6,0,L|424:152,4,18.3999993823242,8|0|0|0|0,0:0|0:0|0:0|0:0|0:0,0:0:0:0:
256,72,25548,2,0,L|240:44,4,18.3999993823242,8|0|0|0|0,0:0|0:0|0:0|0:0|0:0,0:0:0:0:
246,231,25836,2,0,L|230:258,4,18.3999993823242,8|0|0|0|0,0:0|0:0|0:0|0:0|0:0,0:0:0:0:
120,136,26124,2,0,L|92:136,3,18.3999993823242,8|0|0|0,0:0|0:0|0:0|0:0,0:0:0:0:
69,144,26269,1,8,0:0:0:0:
45,176,26341,1,0,0:0:0:0:
40,216,26413,1,0,0:0:0:0:
59,256,26485,1,0,0:0:0:0:
99,272,26557,6,0,L|212:264,1,95.9999970703126,6|0,0:0|0:0,0:0:0:0:
376,264,27134,2,0,P|384:200|368:160,1,95.9999970703126,0|0,0:0|0:0,0:0:0:0:
256,112,27711,2,0,L|200:104,2,47.9999985351563,2|0|0,0:0|0:0|0:0,0:0:0:0:
374,171,28144,2,0,P|385:217|376:264,1,95.9999970703126,0|0,0:0|0:0,0:0:0:0:
294,256,28576,2,0,L|190:264,1,95.9999970703126,0|2,0:0|0:0,0:0:0:0:
72,152,29153,6,0,L|160:144,1,47.9999985351563
224,8,29586,2,0,L|216:64,1,47.9999985351563
256,128,29874,1,0,0:0:0:0:
400,208,30163,1,0,0:0:0:0:
480,224,30307,1,0,0:0:0:0:
496,144,30451,1,0,0:0:0:0:
416,128,30596,1,2,0:0:0:0:
172,144,30884,6,0,P|164:216|180:248,1,95.9999970703126,0|2,0:0|0:0,0:0:0:0:
256,192,31245,12,0,32327,0:0:0:0:
320,248,32903,6,0,L|424:256,1,95.9999970703126,0|2,0:0|0:0,0:0:0:0:
504,264,33336,1,0,0:0:0:0:
360,160,33480,5,0,0:0:0:0:
240,200,33624,2,0,L|216:272,1,60.0000022888184
283,65,33913,1,0,0:0:0:0:
200,160,34057,2,0,L|215:234,1,60.0000022888184
169,21,34346,1,0,0:0:0:0:
145,145,34490,2,0,L|195:201,1,60.0000022888184
47,39,34778,1,0,0:0:0:0:
88,158,34923,2,0,L|159:182,1,60.0000022888184
200,296,35211,5,0,0:0:0:0:
344,336,35355,1,0,0:0:0:0:
448,232,35499,2,0,L|464:208,7,15.0000005722046,0|0|0|0|0|0|0|0,0:0|0:0|0:0|0:0|0:0|0:0|0:0|0:0,0:0:0:0:
480,192,35788,6,0,P|477:92|409:61,1,160,4|8,0:0|0:0,0:0:0:0:
288,40,36221,1,0,0:0:0:0:
272,40,36293,1,0,0:0:0:0:
256,40,36365,2,0,P|200:48|160:24,1,80
72,148,36653,2,0,L|80:236,1,80,8|0,0:0|0:0,0:0:0:0:
280,256,36942,6,0,P|331:262|382:224,1,80,4|0,0:0|0:0,0:0:0:0:
376,232,37158,1,0,0:0:0:0:
392,208,37230,1,8,0:0:0:0:
304,40,37374,1,0,0:0:0:0:
160,128,37519,2,0,L|80:136,1,80
32,328,37807,2,0,L|120:320,1,80,8|0,0:0|0:0,0:0:0:0:
276,180,38096,6,0,B|257:199|297:239|280:256,1,80,4|0,0:0|0:0,0:0:0:0:
280,255,38312,1,0,0:0:0:0:
280,255,38384,1,0,0:0:0:0:
112,264,38528,1,0,0:0:0:0:
104,232,38600,1,0,0:0:0:0:
96,200,38673,2,0,L|72:104,1,80
256,72,38961,2,0,P|312:72|344:96,1,80,8|4,0:0|0:0,0:0:0:0:
416,240,39249,5,0,0:0:0:0:
360,368,39394,1,0,0:0:0:0:
224,312,39538,1,8,0:0:0:0:
280,176,39682,6,0,B|262:166|262:166|230:179|230:179|203:161|172:168|172:168|149:157|149:157|99:199|24:160,1,240.000009155274
49,171,40043,1,0,0:0:0:0:
42,168,40115,1,0,0:0:0:0:
84,64,40259,1,0,0:0:0:0:
198,247,40403,6,0,P|262:247|286:223,1,80,4|0,0:0|0:0,0:0:0:0:
360,24,40692,1,10,0:0:0:0:
376,40,40836,1,0,0:0:0:0:
320,184,40980,1,2,0:0:0:0:
336,200,41124,1,0,0:0:0:0:
280,336,41269,1,10,0:0:0:0:
264,352,41413,1,4,0:0:0:0:
320,184,41557,5,2,0:0:0:0:
304,168,41701,1,0,0:0:0:0:
168,32,41846,1,10,0:0:0:0:
96,96,41990,1,0,0:0:0:0:
80,120,42062,1,0,0:0:0:0:
64,144,42134,6,0,P|56:224|88:264,1,120
160,288,42423,2,0,L|248:280,1,80,8|4,0:0|0:0,0:0:0:0:
344,96,42855,5,6,0:0:0:0:
160,288,42999,1,6,0:0:0:0:
381,151,43288,1,6,0:0:0:0:
122,231,43432,1,6,0:0:0:0:
388,212,43721,1,6,0:0:0:0:
107,176,43865,1,6,0:0:0:0:
381,267,44153,1,6,0:0:0:0:
114,121,44298,1,6,0:0:0:0:
346,312,44586,1,6,0:0:0:0:
144,75,44730,1,14,0:0:0:0:
276,44,44874,1,0,0:0:0:0:
284,52,44947,1,0,0:0:0:0:
292,60,45019,6,0,L|280:144,1,80,4|0,0:0|0:0,0:0:0:0:
352,240,45307,1,8,0:0:0:0:
448,160,45451,2,0,P|448:80|440:64,1,80
352,240,45740,1,0,0:0:0:0:
468,280,45884,1,8,0:0:0:0:
248,176,46028,6,0,L|168:176,1,80,4|0,0:0|0:0,0:0:0:0:
352,112,46317,2,0,P|360:64|344:16,1,80,0|8,0:0|0:0,0:0:0:0:
352,240,46605,2,0,P|360:288|344:336,1,80,0|0,0:0|0:0,0:0:0:0:
248,176,46894,1,0,0:0:0:0:
352,112,47038,1,8,0:0:0:0:
192,280,47182,1,0,0:0:0:0:
176,284,47254,1,0,0:0:0:0:
160,288,47326,6,0,L|80:296,1,80,4|0,0:0|0:0,0:0:0:0:
8,184,47615,1,8,0:0:0:0:
96,96,47759,2,0,L|88:64,2,26.6666666666667
128,48,47903,2,0,L|224:56,1,80
368,120,48192,1,8,0:0:0:0:
392,128,48264,1,0,0:0:0:0:
416,136,48336,1,0,0:0:0:0:
328,320,48480,5,0,0:0:0:0:
244,304,48673,1,0,0:0:0:0:
160,288,48865,1,0,0:0:0:0:
440,144,49057,6,0,L|424:248,1,80
192,172,49346,2,0,P|160:116|168:76,1,80,8|0,0:0|0:0,0:0:0:0:
64,264,49634,6,0,L|48:368,1,80,4|0,0:0|0:0,0:0:0:0:
80,168,49923,1,0,0:0:0:0:
247,106,50067,1,0,0:0:0:0:
360,264,50211,2,0,L|448:256,1,80
512,376,50499,1,8,0:0:0:0:
400,144,50644,6,0,L|416:48,1,80
287,236,50932,2,0,L|264:160,1,80,0|8,0:0|0:0,0:0:0:0:
240,368,51221,2,0,L|152:312,1,80
40,216,51509,1,0,0:0:0:0:
242,163,51653,1,8,0:0:0:0:
112,112,51798,1,0,0:0:0:0:
136,96,51870,1,0,0:0:0:0:
163,84,51942,6,0,P|230:82|248:93,1,80,4|0,0:0|0:0,0:0:0:0:
287,235,52230,2,0,L|240:232,2,26.6666666666667
233,239,52374,2,0,P|167:240|147:228,1,80
240,88,52663,1,0,0:0:0:0:
416,160,52807,1,8,0:0:0:0:
408,200,52879,1,0,0:0:0:0:
400,240,52951,1,0,0:0:0:0:
215,326,53096,6,0,P|159:270|165:209,1,120
173,83,53528,1,0,0:0:0:0:
308,32,53673,5,8,0:0:0:0:
339,47,53745,1,0,0:0:0:0:
363,72,53817,1,0,0:0:0:0:
379,102,53889,1,0,0:0:0:0:
384,136,53961,1,0,0:0:0:0:
378,170,54033,1,0,0:0:0:0:
362,199,54105,1,0,0:0:0:0:
339,223,54177,1,0,0:0:0:0:
304,232,54249,6,0,P|240:224|208:224,1,80,4|0,0:0|0:0,0:0:0:0:
96,144,54538,2,0,L|104:320,1,160,0|8,0:0|0:0,0:0:0:0:
224,352,54971,1,0,0:0:0:0:
304,232,55115,2,0,P|312:184|304:144,1,80,0|0,0:0|0:0,0:0:0:0:
280,88,55331,1,0,0:0:0:0:
216,56,55403,6,0,L|128:48,1,80
408,208,55692,2,0,L|496:216,1,80,0|0,0:0|0:0,0:0:0:0:
336,320,55980,1,8,0:0:0:0:
168,288,56124,1,0,0:0:0:0:
272,208,56269,1,0,0:0:0:0:
112,168,56413,1,0,0:0:0:0:
112,136,56485,1,0,0:0:0:0:
112,104,56557,6,0,P|112:48|104:8,1,80,4|0,0:0|0:0,0:0:0:0:
248,128,56846,2,0,P|320:112|330:17,1,160,0|8,0:0|0:0,0:0:0:0:
267,56,57278,2,0,L|259:-8,1,40
320,192,57423,2,0,L|328:280,1,80,0|0,0:0|0:0,0:0:0:0:
128,224,57711,6,0,P|200:224|232:248,1,80
416,328,57999,2,0,P|454:338|493:330,1,80,0|0,0:0|0:0,0:0:0:0:
464,96,58288,1,8,0:0:0:0:
296,64,58432,1,0,0:0:0:0:
264,72,58504,1,0,0:0:0:0:
232,80,58576,1,0,0:0:0:0:
128,224,58721,1,0,0:0:0:0:
264,352,58865,5,6,0:0:0:0:
416,328,59009,1,0,0:0:0:0:
216,272,59298,1,2,0:0:0:0:
424,256,59442,1,0,0:0:0:0:
168,192,59730,1,2,0:0:0:0:
432,184,59874,1,0,0:0:0:0:
120,112,60163,1,2,0:0:0:0:
440,112,60307,1,0,0:0:0:0:
72,32,60596,1,2,0:0:0:0:
448,40,60740,1,0,0:0:0:0:
312,208,60884,1,0,0:0:0:0:
152,176,61028,5,0,0:0:0:0:
136,144,61100,1,0,0:0:0:0:
120,112,61173,1,0,0:0:0:0:
224,0,61317,1,0,0:0:0:0:
364,60,61461,1,0,0:0:0:0:
312,208,61605,5,2,0:0:0:0:
200,304,61749,1,2,0:0:0:0:
344,200,62038,1,2,0:0:0:0:
280,344,62182,1,2,0:0:0:0:
376,192,62471,1,2,0:0:0:0:
368,352,62615,1,2,0:0:0:0:
179,44,62903,2,0,L|171:68,7,20,0|0|0|0|0|0|0|0,0:0|0:0|0:0|0:0|0:0|0:0|0:0|0:0,0:0:0:0:
203,100,63192,2,0,L|187:148,3,40,8|0|0|0,0:0|0:0|0:0|0:0,0:0:0:0:
256,192,63480,5,0,0:0:0:0:
360,192,63624,2,0,L|455:192,1,80
204,101,64057,2,0,L|156:19,1,80
204,282,64490,1,0,0:0:0:0:
256,192,64923,12,0,65789,0:0:0:0:
26,146,65932,5,0,0:0:0:0:
16,176,66004,1,0,0:0:0:0:
5,206,66076,2,0,P|26:291|112:312,1,184.000003509522,4|0,0:0|0:0,0:0:0:0:
213,204,66509,2,0,P|273:196|321:220,1,92.0000017547608,0|8,0:0|0:0,0:0:0:0:
400,312,66798,2,0,P|480:296|504:200,1,184.000003509522,0|0,0:0|0:0,0:0:0:0:
496,176,67158,1,0,0:0:0:0:
485,147,67230,1,8,0:0:0:0:
336,88,67374,5,0,0:0:0:0:
182,245,67519,2,0,P|192:304|176:344,1,92.0000017547608
56,128,67807,1,8,0:0:0:0:
222,75,67951,1,0,0:0:0:0:
400,160,68096,6,0,P|472:184|504:160,1,92.0000017547608,4|0,0:0|0:0,0:0:0:0:
276,24,68384,2,0,P|204:0|172:24,1,92.0000017547608,8|0,0:0|0:0,0:0:0:0:
128,168,68672,1,0,0:0:0:0:
139,324,68817,1,0,0:0:0:0:
269,237,68961,1,8,0:0:0:0:
288,81,69105,2,0,P|184:33|136:73,1,184.000003509522,0|0,0:0|0:0,0:0:0:0:
112,264,69538,5,8,0:0:0:0:
136,264,69610,1,0,0:0:0:0:
160,256,69682,1,0,0:0:0:0:
184,240,69754,1,0,0:0:0:0:
200,216,69826,2,0,P|216:168|208:120,1,92.0000017547608
96,80,70115,1,8,0:0:0:0:
352,176,70259,6,0,L|464:168,1,92.0000017547608,4|0,0:0|0:0,0:0:0:0:
497,317,70548,2,0,L|385:325,1,92.0000017547608,0|8,0:0|0:0,0:0:0:0:
200,216,70836,2,0,L|208:168,1,46.0000008773804
272,288,70980,2,0,L|256:392,1,92.0000017547608
136,352,71269,1,8,0:0:0:0:
64,248,71413,6,0,P|80:160|104:144,1,92.0000017547608
216,88,71701,1,0,0:0:0:0:
224,128,71773,1,0,0:0:0:0:
232,168,71846,1,0,0:0:0:0:
304,307,71990,1,0,0:0:0:0:
406,149,72134,2,0,P|470:141|518:165,1,92.0000017547608,0|0,0:0|0:0,0:0:0:0:
393,307,72423,2,0,P|348:316|304:306,1,92.0000017547608,8|0,0:0|0:0,0:0:0:0:
152,160,72711,5,4,0:0:0:0:
328,128,72855,1,0,0:0:0:0:
272,304,72999,1,8,0:0:0:0:
232,40,73144,1,0,0:0:0:0:
448,144,73288,1,0,0:0:0:0:
352,360,73432,1,0,0:0:0:0:
136,256,73576,1,8,0:0:0:0:
328,48,73721,6,0,B|312:96|312:96|328:128|328:128|288:104|248:120|248:120|208:144|208:144|160:128,1,240.000009155274,4|0,0:0|0:0,0:0:0:0:
75,96,74153,5,0,0:3:0:0:
87,128,74225,1,0,0:3:0:0:
99,160,74298,1,0,0:3:0:0:
112,192,74370,1,0,0:3:0:0:
124,223,74442,1,0,0:3:0:0:
136,256,74514,1,0,0:0:0:0:
160,280,74586,5,0,0:0:0:0:
192,296,74658,1,0,0:0:0:0:
224,296,74730,1,0,0:0:0:0:
256,288,74802,1,0,0:0:0:0:
280,264,74874,1,0,0:0:0:0:
296,232,74947,1,0,0:0:0:0:
302,197,75019,6,0,P|335:123|364:113,1,92.0000017547608,4|0,0:0|0:0,0:0:0:0:
456,280,75307,2,0,P|422:353|394:364,1,92.0000017547608,8|0,0:0|0:0,0:0:0:0:
224,296,75596,1,0,0:0:0:0:
89,270,75740,1,0,0:0:0:0:
49,262,75812,1,0,0:0:0:0:
9,254,75884,1,8,0:0:0:0:
84,82,76028,2,0,L|192:64,1,92.0000017547608
368,128,76317,5,0,0:0:0:0:
280,264,76461,2,0,L|256:368,1,92.0000017547608,8|0,0:0|0:0,0:0:0:0:
83,82,76749,2,0,B|99:58|99:58|131:58|131:58|155:42|155:42|185:50,1,120.000004577637,0|0,0:0|0:0,0:0:0:0:
381,231,77038,2,0,B|365:255|365:255|333:255|333:255|309:271|309:271|280:264,1,120.000004577637,8|0,0:0|0:0,0:0:0:0:
152,128,77326,5,4,0:0:0:0:
328,48,77471,1,0,0:0:0:0:
360,64,77543,1,0,0:0:0:0:
376,96,77615,1,8,0:0:0:0:
280,264,77759,1,0,0:0:0:0:
104,224,77903,2,0,P|88:168|128:112,1,92.0000017547608
280,184,78192,1,8,0:0:0:0:
448,232,78336,2,0,P|496:200|480:80,1,184.000003509522,4|0,0:0|0:0,0:0:0:0:
360,64,78769,5,8,0:0:0:0:
280,264,78913,1,0,0:0:0:0:
112,192,79057,1,0,0:0:0:0:
120,160,79129,1,0,0:0:0:0:
128,128,79201,1,0,0:0:0:0:
136,96,79273,1,0,0:0:0:0:
144,64,79346,2,0,L|176:184,1,92.0000017547608,8|0,0:0|0:0,0:0:0:0:
208,352,79634,6,0,B|168:368|168:368|72:352|72:352|24:376,2,180.000006866455,4|0|0,0:0|0:0|0:0,0:0:0:0:
272,216,80644,1,0,0:0:0:0:
184,104,80788,6,0,P|128:96|72:120,2,90.0000034332277
268,16,81365,1,0,0:0:0:0:
376,72,81509,2,0,L|408:72,2,30.0000011444092
368,192,81798,1,0,0:0:0:0:
376,216,81870,1,0,0:0:0:0:
384,248,81942,6,0,L|416:368,1,120.000004577637,4|0,0:0|0:0,0:0:0:0:
296,328,82374,2,0,P|224:320|176:352,1,120.000004577637
16,224,82807,2,0,B|104:240|104:240|136:280,1,120.000004577637
216,128,83312,6,0,L|312:120,1,90.0000034332277
416,40,83673,1,0,0:0:0:0:
427,173,83817,1,0,0:0:0:0:
435,205,83889,1,0,0:0:0:0:
443,237,83961,2,0,L|459:301,1,60.0000022888184,8|0,0:0|0:0,0:0:0:0:
404,344,84177,1,0,0:0:0:0:
375,342,84249,6,0,L|263:334,1,92.0000017547608,4|0,0:0|0:0,0:0:0:0:
216,128,84538,1,8,0:0:0:0:
344,320,84682,2,0,L|232:312,1,92.0000017547608
185,106,84971,1,0,0:0:0:0:
220,289,85115,6,0,L|312:296,1,92.0000017547608,8|0,0:0|0:0,0:0:0:0:
153,82,85403,1,0,0:0:0:0:
184,264,85548,2,0,L|275:270,1,92.0000017547608,0|8,0:0|0:0,0:0:0:0:
124,64,85836,1,0,0:0:0:0:
416,144,85980,2,0,P|424:88|416:48,1,92.0000017547608
184,104,86269,1,8,0:0:0:0:
352,200,86413,6,0,P|448:224|499:157,1,184.000003509522,4|0,0:0|0:0,0:0:0:0:
417,53,86846,1,8,0:0:0:0:
275,111,86990,2,0,L|184:104,1,92.0000017547608
217,297,87278,1,0,0:0:0:0:
260,300,87350,1,0,0:0:0:0:
304,304,87423,2,0,L|395:311,1,92.0000017547608,8|0,0:0|0:0,0:0:0:0:
275,111,87711,5,0,0:0:0:0:
126,223,87855,2,0,L|118:314,1,92.0000017547608,0|8,0:0|0:0,0:0:0:0:
304,304,88144,1,0,0:0:0:0:
376,96,88288,1,0,0:0:0:0:
216,136,88432,1,0,0:0:0:0:
336,168,88576,1,8,0:0:0:0:
376,184,88648,1,0,0:0:0:0:
416,176,88721,1,0,0:0:0:0:
448,144,88793,1,0,0:0:0:0:
456,104,88865,5,4,0:0:0:0:
256,11,89153,1,0,0:0:0:0:
51,192,89442,1,0,0:0:0:0:
256,372,89730,1,0,0:0:0:0:
460,192,90019,5,12,0:0:0:0:
96,264,90596,2,0,B|168:280|168:280|208:328|280:312,1,180.000006866455
256,192,91173,6,0,L|284:112,1,83.9999974365235,4|0,0:0|0:0,0:0:0:0:
384,80,91461,1,8,0:0:0:0:
152,192,91605,1,0,0:0:0:0:
112,184,91677,1,0,0:0:0:0:
80,160,91749,1,0,0:0:0:0:
160,72,91894,1,0,0:0:0:0:
400,200,92038,1,8,0:0:0:0:
248,304,92182,6,0,B|163:318|163:318|112:304,1,126.400003085938,4|0,0:0|0:0,0:0:0:0:
264,80,92615,6,0,L|360:64,1,83.9999974365235,8|0,0:0|0:0,0:0:0:0:
368,192,92903,1,0,0:0:0:0:
160,200,93048,1,0,0:0:0:0:
376,232,93192,1,8,0:0:0:0:
152,160,93336,1,0,0:0:0:0:
264,80,93480,5,4,0:0:0:0:
360,152,93624,1,0,0:0:0:0:
368,192,93697,1,0,0:0:0:0:
376,232,93769,1,8,0:0:0:0:
168,240,93913,1,0,0:0:0:0:
160,200,93985,1,0,0:0:0:0:
152,160,94057,1,0,0:0:0:0:
248,256,94201,2,0,P|224:304|176:320,1,83.9999974365235,0|8,0:0|0:0,0:0:0:0:
98,74,94490,6,0,B|114:90|114:90|162:66|202:98|202:98|249:88|249:88|288:104|321:86|321:86|352:68|393:82|393:82|454:68,1,360.000013732911,4|0,0:0|0:0,0:0:0:0:
408,240,95211,6,0,L|400:296,1,40
248,256,95644,2,0,P|224:208|248:144,1,120,2|0,0:0|0:0,0:0:0:0:
304,200,96365,1,0,0:0:0:0:
249,256,96509,1,0,0:0:0:0:
232,56,96798,2,0,B|256:104|240:144|240:144|264:112,1,120,2|0,0:0|0:0,0:0:0:0:
384,272,97519,6,0,L|328:280,1,40
176,224,97951,2,0,P|136:232|108:278,1,80,2|0,0:0|0:0,0:0:0:0:
176,296,98384,1,0,0:0:0:0:
384,272,98673,2,0,L|384:224,1,40,0|2,0:0|0:0,0:0:0:0:
256,76,99105,1,0,0:0:0:0:
256,192,99177,12,0,102134,0:0:0:0:
