osu file format v14

[General]
AudioFilename: LoveLetter.mp3
AudioLeadIn: 2000
PreviewTime: 139597
Countdown: 0
SampleSet: Soft
StackLeniency: 0.3
Mode: 0
LetterboxInBreaks: 0
WidescreenStoryboard: 0

[Editor]
Bookmarks: 35214
DistanceSpacing: 1.4
BeatDivisor: 4
GridSize: 4
TimelineZoom: 1.999999

[Metadata]
Title:Animetic Love Letter
TitleUnicode:Animetic Love Letter
Artist:Miyamori Aoi & Yasuhara Ema & Sakaki Shizuka
ArtistUnicode:宮森あおい & 安原絵麻 & 坂木しずか
Creator:Suzuya Jyuzo
Version:Insane
Source:SHIROBAKO
Tags:SHIROBAKO Miyamori Aoi Yasuhara Ema Sakaki Shizuka Animetic Love Letter
BeatmapID:664808
BeatmapSetID:295996

[Difficulty]
HPDrainRate:6
CircleSize:4
OverallDifficulty:7.5
ApproachRate:8.5
SliderMultiplier:1.8
SliderTickRate:2

[Events]
//Background and Video events
0,0,"id=48688839.jpg",0,0
//Break Periods
//Storyboard Layer 0 (Background)
//Storyboard Layer 1 (Fail)
//Storyboard Layer 2 (Pass)
//Storyboard Layer 3 (Foreground)
//Storyboard Sound Samples

[TimingPoints]
-950,410.958904109589,4,2,1,30,1,0
6447,-100,4,2,1,40,0,0
7269,-80,4,2,1,40,0,0
7680,-100,4,2,1,40,0,0
19186,-100,4,3,0,40,0,0
20419,-100,4,2,1,40,0,0
38296,-80,4,2,1,40,0,0
39323,-100,4,2,1,40,0,0
49597,-90.9090909090909,4,2,1,40,0,0
52269,-90.9090909090909,4,3,0,40,0,0
53091,-90.9090909090909,4,2,1,40,0,0
54734,-80,4,2,1,50,0,1
77440,-80,4,3,0,50,0,1
77954,-100,4,2,1,40,0,0
81241,-80,4,2,1,50,0,1
105488,-100,4,3,0,40,0,0
112885,-100,4,2,1,40,0,0
123776,-80,4,2,1,40,0,0
124597,-100,4,2,1,40,0,0
134666,-90.9090909090909,4,2,1,40,0,0
136926,-80,4,2,1,40,0,0
137954,-80,4,3,0,40,0,0
138570,-80,4,2,1,40,0,0
140214,-80,4,2,1,50,0,1
162919,-80,4,3,0,50,0,1
163433,-100,4,2,1,40,0,0
166721,-80,4,2,1,50,0,1
191378,-100,4,2,1,30,0,0
196310,-80,4,3,0,30,0,0
197132,-100,4,2,1,50,0,0
204529,-90.9090909090909,4,2,1,40,0,0
213776,-90.9090909090909,4,3,0,40,0,0
214392,-200,4,2,1,30,0,0
217269,-100,4,2,1,40,0,0
227132,-80,4,2,1,50,0,1
240077,-80,4,3,0,50,0,1
240693,-100,4,2,1,40,0,0
247269,-80,4,2,1,50,0,1
271104,-100,4,2,1,30,0,0
273570,-80,4,2,1,30,0,0
273776,-100,4,2,1,30,0,0
285488,-100,4,3,0,30,0,0
286721,-100,4,2,1,30,0,0
297200,428.571428571429,4,2,1,30,1,0
303200,-100,4,2,1,30,0,0
304914,-100,4,2,1,20,0,0
306628,-100,4,2,1,10,0,0
307485,-100,4,2,1,5,0,0

[Colours]
Combo1 : 64,0,64
Combo2 : 0,202,0
Combo3 : 255,255,0
Combo4 : 255,128,255
Combo5 : 0,128,255

[HitObjects]
172,116,488,5,0,0:0:0:0:
172,116,591,1,0,0:0:0:0:
172,116,693,1,4,0:0:0:0:
376,116,1104,1,0,0:0:0:0:
272,284,1515,1,2,0:0:0:0:
272,88,1926,1,0,0:0:0:0:
376,256,2337,5,2,0:0:0:0:
172,256,2748,1,0,0:0:0:0:
60,300,3159,1,2,0:0:0:0:
172,256,3365,1,0,0:0:0:0:
164,136,3570,1,0,0:0:0:0:
368,136,3981,6,0,P|368:204|392:236,1,90,2|0,0:0|0:0,0:0:0:0:
460,296,4392,2,0,P|412:324|352:332,1,90
268,316,4803,2,0,P|284:260|278:230,1,90,2|0,0:0|0:0,0:0:0:0:
172,256,5214,1,0,0:0:0:0:
68,184,5419,2,0,L|64:204,2,15
136,132,5625,5,2,0:0:0:0:
248,192,5830,1,0,0:0:0:0:
352,120,6036,1,8,0:0:0:0:
240,60,6241,1,0,0:0:0:0:
364,132,6447,1,2,0:0:0:0:
364,132,6549,1,0,0:0:0:0:
364,132,6652,2,0,L|368:208,1,45
416,236,6858,2,0,L|444:188,1,45
496,248,7063,2,0,L|488:304,1,45
432,352,7269,6,0,L|312:280,1,112.5,4|0,0:0|0:0,0:0:0:0:
252,200,7680,6,0,P|216:232|204:284,1,90,8|0,0:0|0:0,0:0:0:0:
244,384,8091,1,2,0:0:0:0:
335,294,8296,1,0,0:0:0:0:
316,168,8502,2,0,L|392:256,1,90,8|0,0:0|0:0,0:0:0:0:
252,200,8913,5,2,0:0:0:0:
199,127,9118,1,0,0:0:0:0:
110,137,9323,2,0,P|62:125|20:144,1,90,8|0,0:0|0:0,0:0:0:0:
72,219,9735,1,2,0:0:0:0:
125,291,9940,1,0,0:0:0:0:
252,200,10145,1,8,0:0:0:0:
199,127,10351,1,0,0:0:0:0:
216,283,10556,6,0,P|266:293|306:273,1,90,2|0,0:0|0:0,0:0:0:0:
337,199,10967,2,0,P|294:188|251:200,1,90,8|0,0:0|0:0,0:0:0:0:
300,277,11378,1,2,0:0:0:0:
376,380,11584,1,0,0:0:0:0:
300,277,11789,1,8,0:0:0:0:
416,184,11995,1,0,0:0:0:0:
416,60,12200,5,2,0:0:0:0:
484,164,12406,1,0,0:0:0:0:
416,60,12611,1,8,0:0:0:0:
344,164,12817,2,0,L|384:96,1,45
324,68,13022,1,2,0:0:0:0:
300,84,13125,1,0,0:0:0:0:
276,100,13228,2,0,L|216:100,1,45
180,152,13433,1,8,0:0:0:0:
156,168,13536,1,0,0:0:0:0:
132,184,13639,2,0,L|52:184,1,45
16,224,13844,6,0,P|48:256|124:248,1,90,4|0,0:0|0:0,0:0:0:0:
208,220,14255,2,0,L|312:152,1,90,8|0,0:0|0:0,0:0:0:0:
344,60,14666,1,2,0:0:0:0:
236,120,14871,1,0,0:0:0:0:
116,88,15077,2,0,P|78:66|72:23,1,90,8|0,0:0|0:0,0:0:0:0:
191,54,15488,6,0,P|227:74|235:122,1,90,2|0,0:0|0:0,0:0:0:0:
124,180,15899,2,0,L|24:244,1,90,8|0,0:0|0:0,0:0:0:0:
44,356,16310,1,2,0:0:0:0:
164,276,16515,1,0,0:0:0:0:
20,292,16721,1,8,0:0:0:0:
156,340,16926,1,0,0:0:0:0:
296,308,17132,6,0,P|314:256|382:232,1,90,2|0,0:0|0:0,0:0:0:0:
466,240,17543,2,0,P|448:292|380:316,1,90,8|0,0:0|0:0,0:0:0:0:
296,308,17954,1,2,0:0:0:0:
466,240,18159,1,0,0:0:0:0:
420,311,18365,1,8,0:0:0:0:
341,236,18570,1,0,0:0:0:0:
232,144,18776,5,2,0:0:0:0:
120,232,18981,1,0,0:0:0:0:
232,144,19186,2,0,P|272:104|275:39,1,90,8|0,0:0|0:0,0:0:0:0:
204,67,19495,1,0,0:0:0:0:
204,67,19597,2,0,P|170:95|155:147,1,90,2|0,0:0|0:0,0:0:0:0:
232,144,19906,1,0,0:0:0:0:
232,144,20008,1,8,0:0:0:0:
276,76,20214,1,0,0:0:0:0:
396,108,20419,5,4,0:0:0:0:
376,232,20625,1,0,0:0:0:0:
252,212,20830,1,8,0:0:0:0:
156,264,21036,2,0,P|184:300|228:316,1,90,0|2,0:0|0:0,0:0:0:0:
252,212,21447,2,0,P|224:176|180:160,1,90
87,212,21858,2,0,P|115:248|159:264,1,90,0|2,0:0|0:0,0:0:0:0:
183,160,22269,6,0,P|155:124|111:108,1,90,0|2,0:0|0:0,0:0:0:0:
12,148,22680,1,0,0:0:0:0:
235,292,23091,1,0,0:0:0:0:
343,200,23296,1,8,0:0:0:0:
367,344,23502,1,0,0:0:0:0:
367,344,23604,1,0,0:0:0:0:
367,344,23707,5,2,0:0:0:0:
235,292,23913,1,0,0:0:0:0:
207,152,24118,1,8,0:0:0:0:
103,249,24323,1,0,0:0:0:0:
311,56,24734,1,0,0:0:0:0:
367,344,25145,2,0,L|403:344,4,22.5
235,292,25556,1,0,0:0:0:0:
343,200,25762,1,4,0:0:0:0:
256,192,25865,12,0,26584,0:0:0:0:
84,104,26995,6,0,P|132:68|192:64,1,90,2|0,0:0|0:0,0:0:0:0:
284,32,27406,2,0,P|284:108|204:156,1,135,8|0,0:0|0:0,0:0:0:0:
176,156,27817,2,0,P|204:204|248:216,1,90,2|0,0:0|0:0,0:0:0:0:
352,172,28228,1,8,0:0:0:0:
432,76,28433,1,0,0:0:0:0:
480,192,28639,6,0,L|448:316,1,90,2|0,0:0|0:0,0:0:0:0:
352,348,29049,1,8,0:0:0:0:
480,192,29460,2,0,L|448:316,1,90,2|0,0:0|0:0,0:0:0:0:
352,348,29870,1,8,0:0:0:0:
60,308,30282,6,0,P|108:344|168:344,1,90,2|0,0:0|0:0,0:0:0:0:
232,268,30693,2,0,P|240:224|296:184,1,90,8|0,0:0|0:0,0:0:0:0:
396,204,31104,2,0,P|388:248|332:288,1,90,2|0,0:0|0:0,0:0:0:0:
270,192,31515,1,8,0:0:0:0:
208,80,31721,1,0,0:0:0:0:
148,188,31926,6,0,P|136:248|96:284,1,90,2|0,0:0|0:0,0:0:0:0:
20,188,32337,2,0,P|28:136|64:96,1,90,8|0,0:0|0:0,0:0:0:0:
147,187,32748,2,0,P|142:232|118:269,1,90,2|0,0:0|0:0,0:0:0:0:
20,188,33159,1,8,0:0:0:0:
288,212,33570,6,0,P|326:263|368:264,1,90,2|0,0:0|0:0,0:0:0:0:
436,176,33981,2,0,P|487:137|488:95,1,90,8|0,0:0|0:0,0:0:0:0:
372,76,34392,2,0,P|333:24|292:23,1,90,2|0,0:0|0:0,0:0:0:0:
216,104,34803,1,8,0:0:0:0:
288,212,35008,1,0,0:0:0:0:
160,216,35214,6,0,P|92:220|44:240,1,90,2|0,0:0|0:0,0:0:0:0:
136,336,35625,2,0,P|204:332|252:312,1,90,8|0,0:0|0:0,0:0:0:0:
288,212,36036,1,2,0:0:0:0:
360,108,36241,1,0,0:3:0:0:
416,220,36447,2,0,L|352:320,1,90,8|0,0:0|0:0,0:0:0:0:
288,212,36858,6,0,L|352:124,1,90,2|0,0:0|0:0,0:0:0:0:
432,52,37269,1,8,0:0:0:0:
340,139,37474,1,0,0:0:0:0:
300,20,37680,2,0,P|248:12|196:24,1,90,2|0,0:0|0:0,0:0:0:0:
136,112,38091,1,8,0:0:0:0:
136,112,38296,2,0,P|140:184|72:216,1,112.5,4|0,0:0|0:0,0:0:0:0:
32,300,38707,6,0,L|52:356,1,56.25
108,363,38913,2,0,B|152:331|152:331|204:391|272:351|272:351|304:363|328:339,1,225,8|2,0:0|0:0,0:0:0:0:
308,353,39426,1,0,0:0:0:0:
308,353,39529,1,0,0:0:0:0:
436,320,39734,1,8,0:0:0:0:
328,272,39940,1,0,0:0:0:0:
456,228,40145,6,0,L|320:180,1,135,2|0,0:0|0:0,0:0:0:0:
312,116,40556,2,0,L|200:152,1,90,8|0,0:0|0:0,0:0:0:0:
226,143,40865,1,0,0:0:0:0:
226,143,40967,1,2,0:0:0:0:
188,272,41173,1,0,0:0:0:0:
96,176,41378,2,0,P|44:140|40:104,1,90,8|0,0:0|0:0,0:0:0:0:
162,52,41789,6,0,P|179:129|254:132,1,135,2|0,0:0|0:0,0:0:0:0:
272,136,42200,2,0,L|364:80,1,90,8|0,0:0|0:0,0:0:0:0:
348,89,42508,1,0,0:0:0:0:
348,89,42611,1,2,0:0:0:0:
480,68,42817,1,0,0:0:0:0:
432,196,43022,1,8,0:0:0:0:
348,89,43228,1,0,0:0:0:0:
296,212,43433,5,2,0:0:0:0:
183,277,43639,1,0,0:0:0:0:
70,211,43844,2,0,P|120:160|160:160,1,90,8|0,0:0|0:0,0:0:0:0:
183,277,44255,1,2,0:0:0:0:
70,211,44460,1,0,0:0:0:0:
70,81,44666,1,8,0:0:0:0:
184,148,44871,1,0,0:0:0:0:
70,81,45077,5,2,0:0:0:0:
184,148,45282,1,0,0:0:0:0:
183,16,45488,1,8,0:0:0:0:
184,148,45693,1,4,0:0:0:0:
184,148,45796,1,0,0:0:0:0:
184,148,45899,1,2,0:0:0:0:
297,82,46104,1,0,0:0:0:0:
296,212,46310,2,0,L|184:212,1,90,8|0,0:0|0:0,0:0:0:0:
72,212,46721,6,0,P|96:268|144:280,1,90,2|0,0:0|0:0,0:0:0:0:
236,348,47132,2,0,P|292:332|320:284,1,90,8|0,0:0|0:0,0:0:0:0:
312,309,47440,1,0,0:0:0:0:
312,309,47543,1,2,0:0:0:0:
444,280,47748,1,0,0:0:0:0:
476,148,47954,2,0,P|437:91|384:72,1,90,8|0,0:0|0:0,0:0:0:0:
296,32,48365,6,0,P|228:36|192:64,1,90,2|0,0:0|0:0,0:0:0:0:
80,88,48776,2,0,P|49:148|55:194,1,90,8|0,0:0|0:0,0:0:0:0:
48,168,49084,1,0,0:0:0:0:
48,168,49186,1,2,0:0:0:0:
32,312,49392,1,0,0:0:0:0:
160,220,49597,1,8,0:0:0:0:
180,376,49803,1,4,0:0:0:0:
88,248,50008,6,0,P|128:292|200:280,1,99.0000030212403,2|0,0:0|0:0,0:0:0:0:
324,316,50419,2,0,B|440:332,1,99.0000030212403,8|0,0:0|0:0,0:0:0:0:
422,329,50728,1,0,0:0:0:0:
422,329,50830,1,2,0:0:0:0:
468,156,51036,1,0,0:0:0:0:
292,128,51241,1,8,0:0:0:0:
240,300,51447,6,0,P|156:312|208:224,1,198.000006042481,4|0,0:0|0:0,0:0:0:0:
292,128,52063,1,8,0:0:0:0:
217,74,52269,1,8,0:0:0:0:
168,67,52371,1,8,0:0:0:0:
119,76,52474,1,8,0:0:0:0:
76,100,52577,1,8,0:0:0:0:
44,138,52679,1,8,0:0:0:0:
26,183,52782,1,8,0:0:0:0:
23,232,52885,1,8,0:0:0:0:
37,280,52988,1,8,0:0:0:0:
65,320,53090,1,4,0:0:0:0:
247,344,53501,5,0,0:0:0:0:
285,312,53604,1,0,0:0:0:0:
310,269,53707,1,0,0:0:0:0:
320,221,53810,1,0,0:0:0:0:
314,172,53912,1,0,0:0:0:0:
292,128,54015,1,0,0:0:0:0:
257,94,54118,1,2,0:0:0:0:
119,76,54323,1,0,0:0:0:0:
26,183,54529,1,8,0:0:0:0:
65,320,54734,5,4,0:0:0:0:
65,320,54837,1,0,0:0:0:0:
65,320,54940,2,0,P|116:352|180:356,1,112.5,2|0,0:0|0:0,0:0:0:0:
332,324,55351,1,8,0:0:0:0:
480,248,55556,1,0,0:0:0:0:
420,92,55762,2,0,P|364:68|304:72,1,112.5,2|0,0:0|0:0,0:0:0:0:
152,124,56173,5,8,0:0:0:0:
304,196,56378,1,0,0:0:0:0:
160,284,56584,1,2,0:0:0:0:
244,136,56789,1,0,0:0:0:0:
248,300,56995,1,8,0:0:0:0:
96,228,57200,2,0,P|76:304|100:344,1,112.5,0|2,0:0|0:0,0:0:0:0:
248,300,57611,5,0,0:0:0:0:
436,288,57817,1,8,0:0:0:0:
500,116,58022,1,4,0:0:0:0:
500,116,58125,1,0,0:0:0:0:
500,116,58228,2,0,L|356:76,1,112.5,2|2,0:0|0:0,0:0:0:0:
244,4,58639,2,0,P|212:80|240:136,1,112.5,8|0,0:0|0:0,0:0:0:0:
292,256,59049,5,2,0:0:0:0:
416,372,59255,1,0,0:0:0:0:
364,212,59460,1,8,0:0:0:0:
500,116,59666,1,0,0:0:0:0:
376,4,59871,1,2,0:0:0:0:
432,164,60077,1,0,0:0:0:0:
292,256,60282,1,8,0:0:0:0:
224,100,60488,2,0,B|208:32|136:16,1,112.5,0|2,0:0|0:0,0:0:0:0:
60,160,60899,5,0,0:0:0:0:
120,316,61104,1,8,0:0:0:0:
224,182,61310,1,4,0:0:0:0:
224,182,61413,1,0,0:0:0:0:
224,182,61515,2,0,P|276:206|276:294,1,112.5,2|2,0:0|0:0,0:0:0:0:
120,316,61926,2,0,P|68:292|68:204,1,112.5,8|2,0:0|0:0,0:0:0:0:
224,182,62337,2,0,L|380:180,1,112.5,2|0,0:0|0:0,0:0:0:0:
460,64,62748,2,0,L|340:64,1,112.5,8|0,0:0|0:0,0:0:0:0:
224,182,63159,5,2,0:0:0:0:
347,64,63365,1,0,0:0:0:0:
296,224,63570,1,8,0:0:0:0:
272,56,63776,1,0,0:0:0:0:
272,56,63878,1,0,0:0:0:0:
272,56,63981,1,2,0:0:0:0:
104,68,64186,1,0,0:0:0:0:
56,232,64392,6,0,L|92:316,1,56.25,8|0,0:0|0:0,0:0:0:0:
147,267,64597,2,0,P|243:276|223:181,1,225
104,68,65214,6,0,L|112:160,1,56.25,8|0,0:0|0:0,0:0:0:0:
177,120,65419,2,0,P|268:152|271:55,1,225
104,68,66036,6,0,L|112:156,1,56.25,8|0,0:0|0:0,0:0:0:0:
177,120,66241,2,0,P|268:116|236:68,1,168.75
328,36,66652,6,0,L|396:36,1,56.25
360,84,66858,2,0,L|432:84,1,56.25,8|0,0:0|0:0,0:0:0:0:
496,156,67063,2,0,L|428:156,1,56.25
356,224,67269,2,0,L|428:224,1,56.25,2|0,0:0|0:0,0:0:0:0:
508,268,67474,2,0,P|456:332|424:332,1,112.5,0|8,0:0|0:0,0:0:0:0:
288,332,67885,1,0,0:0:0:0:
288,332,67988,1,0,0:0:0:0:
288,332,68091,6,0,P|224:280|224:248,1,112.5,2|4,0:0|0:0,0:0:0:0:
292,104,68502,1,8,0:0:0:0:
222,256,68707,1,0,0:0:0:0:
124,120,68913,1,2,0:0:0:0:
280,188,69118,1,0,0:0:0:0:
112,208,69323,2,0,P|56:256|72:312,1,112.5,8|0,0:0|0:0,0:0:0:0:
228,332,69734,5,2,0:0:0:0:
388,284,69940,1,0,0:0:0:0:
222,256,70145,1,8,0:0:0:0:
385,205,70351,2,0,B|336:162|268:192,1,112.5,0|2,0:0|0:0,0:0:0:0:
160,304,70762,1,0,0:0:0:0:
12,224,70967,1,8,0:0:0:0:
72,64,71173,1,4,0:0:0:0:
72,64,71276,1,0,0:0:0:0:
72,64,71378,6,0,P|128:80|152:136,1,112.5,2|2,0:0|0:0,0:0:0:0:
12,224,71789,2,0,P|38:271|91:285,1,112.5,8|2,0:0|0:0,0:0:0:0:
220,176,72200,1,2,0:0:0:0:
328,44,72406,1,0,0:0:0:0:
468,140,72611,2,0,B|500:208|432:252,1,112.5,8|0,0:0|0:0,0:0:0:0:
288,300,73022,5,2,0:0:0:0:
396,172,73228,1,0,0:0:0:0:
452,332,73433,1,8,0:0:0:0:
288,300,73639,2,0,L|172:300,1,112.5,4|2,0:0|0:0,0:0:0:0:
20,364,74050,1,0,0:0:0:0:
175,300,74255,1,8,0:0:0:0:
48,192,74460,1,0,0:0:0:0:
48,192,74563,1,0,0:0:0:0:
48,192,74666,6,0,P|104:144|184:148,1,112.5,2|2,0:0|0:0,0:0:0:0:
312,200,75077,1,8,0:0:0:0:
328,368,75282,1,0,0:0:0:0:
175,300,75488,2,0,L|304:300,1,112.5,2|0,0:0|0:0,0:0:0:0:
460,332,75899,5,8,0:0:0:0:
348,284,76104,1,0,0:0:0:0:
244,356,76310,1,2,0:0:0:0:
232,236,76515,1,0,0:0:0:0:
124,188,76721,1,8,0:0:0:0:
12,140,76926,2,0,P|72:304|112:308,1,225,4|0,0:0|0:0,0:0:0:0:
124,332,77440,1,0,0:0:0:0:
164,344,77543,1,8,0:0:0:0:
204,352,77645,1,0,0:0:0:0:
244,356,77748,1,8,0:0:0:0:
380,344,77954,6,0,P|452:308|460:264,2,90,4|0|8,0:0|0:0|0:0,0:0:0:0:
360,228,78570,1,0,0:0:0:0:
360,228,78673,1,0,0:0:0:0:
360,228,78776,2,0,P|288:192|280:148,2,90,2|0|8,0:0|0:0|0:0,0:0:0:0:
372,112,79392,1,0,0:0:0:0:
372,112,79495,1,0,0:0:0:0:
372,112,79597,2,0,P|444:76|452:32,1,90,2|0,0:0|0:0,0:0:0:0:
380,40,79906,1,0,0:0:0:0:
380,40,80008,2,0,P|308:76|300:120,1,90,8|0,0:0|0:0,0:0:0:0:
232,172,80419,2,0,P|201:204|157:211,1,90,2|0,0:0|0:0,0:0:0:0:
48,172,80830,1,8,0:0:0:0:
68,288,81036,1,0,0:0:0:0:
84,312,81139,1,0,0:0:0:0:
104,340,81241,6,0,P|156:360|224:324,1,112.5,4|0,0:0|0:0,0:0:0:0:
348,248,81652,2,0,L|424:152,1,112.5,8|0,0:0|0:0,0:0:0:0:
380,84,81960,1,0,0:0:0:0:
380,84,82063,2,0,L|340:136,1,56.25,2|0,0:0|0:0,0:0:0:0:
204,168,82269,1,0,0:0:0:0:
188,20,82474,2,0,L|108:128,1,112.5,8|0,0:0|0:0,0:0:0:0:
0,200,82885,6,0,P|48:248|116:244,1,112.5,2|0,0:0|0:0,0:0:0:0:
256,228,83296,2,0,P|252:300|200:344,1,112.5,8|0,0:0|0:0,0:0:0:0:
200,344,83604,1,0,0:0:0:0:
168,348,83707,1,2,0:0:0:0:
136,344,83810,1,0,0:0:0:0:
108,328,83913,1,0,0:0:0:0:
0,200,84118,1,8,0:0:0:0:
120,80,84323,2,0,L|120:144,1,56.25
191,135,84529,6,0,L|263:239,1,112.5,2|0,0:0|0:0,0:0:0:0:
420,281,84940,1,8,0:0:0:0:
255,227,85145,1,0,0:0:0:0:
255,227,85248,1,0,0:0:0:0:
255,227,85351,1,2,0:0:0:0:
420,174,85557,1,0,0:0:0:0:
318,314,85762,1,8,0:0:0:0:
318,140,85968,1,0,0:0:0:0:
194,22,86173,6,0,B|208:64|196:84|196:84|200:160,1,112.5,2|0,0:0|0:0,0:0:0:0:
149,227,86584,2,0,P|209:243|277:203,1,112.5,8|0,0:0|0:0,0:0:0:0:
254,226,86892,1,0,0:0:0:0:
254,226,86995,1,2,0:0:0:0:
318,140,87200,1,0,0:0:0:0:
420,174,87406,2,0,P|396:238|328:270,1,112.5,8|0,0:0|0:0,0:0:0:0:
254,226,87817,6,0,P|284:160|352:136,1,112.5,4|0,0:0|0:0,0:0:0:0:
420,174,88228,2,0,L|340:276,1,112.5,8|0,0:0|0:0,0:0:0:0:
254,226,88536,1,0,0:0:0:0:
254,226,88639,2,0,L|304:168,1,56.25,2|0,0:0|0:0,0:0:0:0:
264,84,88844,1,0,0:0:0:0:
124,128,89050,2,0,L|212:24,1,112.5,8|0,0:0|0:0,0:0:0:0:
340,72,89460,6,0,P|304:148|252:160,1,112.5,2|0,0:0|0:0,0:0:0:0:
191,99,89871,2,0,P|152:61|97:60,1,112.5,8|0,0:0|0:0,0:0:0:0:
68,80,90180,1,0,0:0:0:0:
52,112,90282,1,2,0:0:0:0:
56,148,90385,1,0,0:0:0:0:
80,180,90488,1,0,0:0:0:0:
200,300,90693,1,8,0:0:0:0:
262,137,90899,1,0,0:0:0:0:
128,256,91104,6,0,P|168:372|184:376,1,112.5,2|0,0:0|0:0,0:0:0:0:
295,338,91515,1,8,0:0:0:0:
200,300,91720,1,0,0:0:0:0:
200,300,91823,1,0,0:0:0:0:
200,300,91926,1,2,0:0:0:0:
358,173,92132,1,0,0:0:0:0:
373,273,92337,1,8,0:0:0:0:
184,201,92543,1,0,0:0:0:0:
262,137,92748,5,2,0:0:0:0:
280,236,92954,2,0,L|268:312,1,56.25
200,300,93159,2,0,P|128:292|96:240,1,112.5,8|0,0:0|0:0,0:0:0:0:
36,228,93467,1,0,0:0:0:0:
36,228,93570,2,0,P|16:168|48:112,1,112.5,2|0,0:0|0:0,0:0:0:0:
156,44,93981,1,8,0:0:0:0:
192,36,94084,1,0,0:0:0:0:
228,28,94186,1,0,0:0:0:0:
372,8,94392,6,0,P|376:72|316:108,1,112.5,4|0,0:0|0:0,0:0:0:0:
188,168,94803,2,0,L|336:196,1,112.5,8|0,0:0|0:0,0:0:0:0:
348,280,95111,1,0,0:0:0:0:
348,280,95214,2,0,L|274:268,1,56.25,2|0,0:0|0:0,0:0:0:0:
188,256,95419,1,0,0:0:0:0:
284,348,95625,2,0,L|416:372,1,112.5,8|0,0:0|0:0,0:0:0:0:
388,200,96036,6,0,P|334:186|285:212,1,112.5,2|0,0:0|0:0,0:0:0:0:
188,352,96447,2,0,P|132:332|104:260,1,112.5,8|0,0:0|0:0,0:0:0:0:
105,288,96755,1,0,0:0:0:0:
105,288,96858,1,2,0:0:0:0:
52,128,97063,1,0,0:0:0:0:
204,204,97269,2,0,P|300:216|332:144,1,168.75,8|0,0:0|0:0,0:0:0:0:
256,156,97680,6,0,L|300:288,1,112.5,2|0,0:0|0:0,0:0:0:0:
456,316,98091,1,8,0:0:0:0:
291,262,98296,1,0,0:0:0:0:
291,262,98399,1,0,0:0:0:0:
291,262,98502,2,0,L|384:232,1,56.25,2|0,0:0|0:0,0:0:0:0:
456,209,98708,1,0,0:0:0:0:
354,349,98913,1,8,0:0:0:0:
354,175,99119,1,0,0:0:0:0:
456,209,99323,6,0,L|508:240,1,56.25,2|0,0:0|0:0,0:0:0:0:
456,316,99529,2,0,L|440:372,1,56.25
354,349,99734,1,8,0:0:0:0:
291,262,99940,1,2,0:0:0:0:
354,175,100145,2,0,B|304:136|228:164,1,112.5,2|0,0:0|0:0,0:0:0:0:
104,192,100556,1,8,0:0:0:0:
60,332,100762,1,0,0:0:0:0:
60,332,100865,1,0,0:0:0:0:
60,332,100967,6,0,P|132:344|184:304,1,112.5,4|0,0:0|0:0,0:0:0:0:
232,196,101378,2,0,L|288:52,1,112.5,8|0,0:0|0:0,0:0:0:0:
372,68,101686,1,0,0:0:0:0:
372,68,101789,2,0,L|344:145,1,56.25,2|0,0:0|0:0,0:0:0:0:
416,204,101995,1,0,0:0:0:0:
372,68,102200,2,0,P|320:36|240:48,1,112.5,8|0,0:0|0:0,0:0:0:0:
112,96,102611,6,0,B|168:64|228:100,1,112.5,2|0,0:0|0:0,0:0:0:0:
338,196,103022,2,0,B|282:160|218:204,1,112.5,8|0,0:0|0:0,0:0:0:0:
84,280,103433,1,2,0:0:0:0:
232,196,103639,1,0,0:0:0:0:
232,196,103741,1,0,0:0:0:0:
232,196,103844,1,8,0:0:0:0:
212,364,104050,2,0,P|324:352|376:236,1,225
232,196,104666,1,0,0:0:0:0:
67,142,104871,1,0,0:0:0:0:
232,89,105077,1,2,0:0:0:0:
130,229,105282,1,0,0:0:0:0:
130,55,105488,5,0,0:0:0:0:
67,142,105693,2,0,P|156:136|240:80,1,180
372,96,106310,2,0,P|440:116|452:128,1,90,4|0,0:0|0:0,0:0:0:0:
452,128,106618,1,4,0:0:0:0:
452,128,106721,1,4,0:0:0:0:
464,268,106926,6,0,B|404:352,1,90
296,304,107337,2,0,L|192:348,1,90
88,320,107748,1,0,0:0:0:0:
88,320,107954,2,0,P|76:232|160:148,1,180,8|0,0:0|0:0,0:0:0:0:
148,156,108467,1,4,0:0:0:0:
168,152,108570,1,4,0:0:0:0:
188,148,108673,1,4,0:0:0:0:
208,144,108776,1,4,0:0:0:0:
296,52,108981,6,0,P|352:120|320:208,1,180,4|0,0:0|0:0,0:0:0:0:
268,308,109597,2,0,P|184:288|160:264,1,90,8|0,0:0|0:0,0:0:0:0:
183,287,109906,1,4,0:0:0:0:
183,287,110008,1,4,0:0:0:0:
80,156,110214,6,0,P|124:204|140:268,1,90,4|0,0:0|0:0,0:0:0:0:
24,356,110625,2,0,P|76:328|144:316,1,90,4|0,0:0|0:0,0:0:0:0:
268,308,111036,5,4,0:0:0:0:
268,308,111241,2,0,P|168:276|292:144,1,360,4|0,0:0|0:0,0:0:0:0:
456,292,112474,5,4,0:0:0:0:
396,100,112885,1,8,0:0:0:0:
324,224,113091,1,0,0:0:0:0:
456,292,113296,2,0,P|388:352|368:352,1,90,2|0,0:0|0:0,0:0:0:0:
324,224,113707,1,8,0:0:0:0:
180,224,113913,1,0,0:0:0:0:
320,148,114118,6,0,L|428:80,1,90,2|0,0:0|0:0,0:0:0:0:
180,224,114529,2,0,L|72:292,1,90,8|0,0:0|0:0,0:0:0:0:
324,224,114940,2,0,L|432:292,1,90,2|0,0:0|0:0,0:0:0:0:
180,152,115351,2,0,L|72:84,1,90,8|0,0:0|0:0,0:0:0:0:
4,88,115762,2,0,P|16:48|68:24,1,90,2|0,0:0|0:0,0:0:0:0:
103,104,116173,5,8,0:0:0:0:
48,236,116378,1,0,0:0:0:0:
180,152,116584,2,0,P|184:208|164:248,1,90,2|0,0:0|0:0,0:0:0:0:
16,304,116995,1,8,0:0:0:0:
76,172,117200,1,0,0:0:0:0:
96,316,117406,6,0,L|216:316,1,90,2|0,0:0|0:0,0:0:0:0:
300,240,117817,2,0,L|192:240,1,90,8|0,0:0|0:0,0:0:0:0:
96,316,118228,2,0,L|216:316,1,90,2|0,0:0|0:0,0:0:0:0:
300,240,118639,2,0,L|192:240,1,90,8|0,0:0|0:0,0:0:0:0:
80,204,119049,6,0,P|132:140|164:140,1,90,2|0,0:0|0:0,0:0:0:0:
255,163,119460,1,8,0:0:0:0:
300,240,119666,1,0,0:0:0:0:
391,241,119871,2,0,P|420:204|436:160,1,90,2|0,0:0|0:0,0:0:0:0:
301,85,120282,1,8,0:0:0:0:
391,85,120488,1,0,0:0:0:0:
435,164,120693,6,0,P|418:205|391:241,1,90,2|0,0:0|0:0,0:0:0:0:
255,163,121104,2,0,P|271:121|299:86,1,90,8|0,2:0|2:0,2:0:0:0:
391,85,121515,1,2,0:0:0:0:
420,352,121926,2,0,P|336:332|296:336,1,90,8|0,0:0|0:0,0:0:0:0:
200,348,122337,5,2,0:0:0:0:
35,167,122748,2,0,P|119:147|159:151,1,90,8|0,0:0|0:0,0:0:0:0:
244,208,123159,2,0,P|288:203|330:188,1,90,2|0,0:0|0:0,0:0:0:0:
420,84,123570,2,0,L|464:132,1,45,8|0,0:0|0:0,0:0:0:0:
464,186,123776,6,0,P|396:230|328:182,1,168.75
396,160,124186,2,0,L|396:296,1,112.5,0|8,0:0|0:0,0:0:0:0:
396,308,124495,1,0,0:0:0:0:
396,336,124597,1,0,0:0:0:0:
264,364,124803,1,2,0:0:0:0:
241,343,124906,1,0,0:0:0:0:
218,323,125008,1,0,0:0:0:0:
188,315,125111,1,0,0:0:0:0:
157,316,125214,1,8,0:0:0:0:
127,317,125317,1,0,0:0:0:0:
104,297,125419,1,0,0:0:0:0:
82,276,125522,1,0,0:0:0:0:
52,272,125625,6,0,B|0:240|32:180|32:180|24:132,1,135,2|0,0:0|0:0,0:0:0:0:
76,96,126036,2,0,B|104:120|108:188|108:188|96:220|96:220|128:228,1,135,8|0,0:0|0:0,0:0:0:0:
96,220,126447,1,2,0:0:0:0:
8,112,126652,1,0,0:0:0:0:
148,88,126858,2,0,L|264:72,1,90,8|0,0:0|0:0,0:0:0:0:
372,100,127269,6,0,P|352:172|276:200,1,135,2|0,0:0|0:0,0:0:0:0:
284,120,127680,2,0,P|228:155|214:219,1,135,8|0,0:0|0:0,0:0:0:0:
214,219,128091,1,2,0:0:0:0:
288,332,128296,1,0,0:0:0:0:
302,199,128502,2,0,L|352:284,1,90,8|0,0:0|0:0,0:0:0:0:
484,288,128913,6,0,P|472:336|442:367,1,90,2|0,0:0|0:0,0:0:0:0:
347,276,129323,2,0,P|359:228|389:197,1,90,8|0,0:0|0:0,0:0:0:0:
484,288,129734,1,2,0:0:0:0:
385,199,129940,1,0,0:0:0:0:
512,160,130145,2,0,P|456:96|392:88,1,135,8|0,0:0|0:0,0:0:0:0:
380,28,130556,6,0,P|388:112|320:144,1,135,2|0,0:0|0:0,0:0:0:0:
328,76,130967,1,8,0:0:0:0:
385,199,131173,1,0,0:0:0:0:
385,199,131276,1,0,0:0:0:0:
385,199,131378,1,2,0:0:0:0:
272,124,131584,1,0,0:0:0:0:
260,260,131789,2,0,L|156:260,1,90,8|0,0:0|0:0,0:0:0:0:
60,180,132200,5,2,0:0:0:0:
48,316,132406,1,0,0:0:0:0:
170,260,132611,2,0,P|196:216|196:164,1,90,8|0,0:0|0:0,0:0:0:0:
198,178,132919,1,0,0:0:0:0:
198,178,133022,1,2,0:0:0:0:
60,180,133228,1,0,0:0:0:0:
170,260,133433,2,0,L|296:336,1,135,8|0,0:0|0:0,0:0:0:0:
336,384,133844,6,0,B|372:362|360:314|360:314|420:248,1,135,2|0,0:0|0:0,0:0:0:0:
398,274,134255,1,8,0:0:0:0:
476,164,134460,1,0,0:0:0:0:
492,112,134563,1,0,0:0:0:0:
465,60,134666,1,2,0:0:0:0:
311,129,134871,1,0,0:0:0:0:
476,164,135077,1,8,0:0:0:0:
363,39,135282,1,4,0:0:0:0:
380,206,135488,6,0,P|320:220|216:160,1,148.50000453186,2|0,0:0|0:0,0:0:0:0:
180,240,135899,2,0,P|160:160|184:128,1,99.0000030212403,8|0,0:0|0:0,0:0:0:0:
184,124,136207,1,0,0:0:0:0:
216,116,136310,1,2,0:0:0:0:
300,32,136515,2,0,L|232:44,1,49.5000015106202
148,132,136721,1,8,0:0:0:0:
332,332,136926,6,0,P|440:296|420:180,1,225,4|0,0:0|0:0,0:0:0:0:
248,228,137543,2,0,P|304:196|292:148,1,112.5,8|0,0:0|0:0,0:0:0:0:
332,332,137954,1,8,0:0:0:0:
368,337,138056,1,8,0:0:0:0:
404,328,138159,1,8,0:0:0:0:
433,304,138262,1,8,0:0:0:0:
450,271,138364,1,8,0:0:0:0:
452,234,138467,1,8,0:0:0:0:
438,199,138570,1,4,0:0:0:0:
260,36,138981,5,0,0:0:0:0:
260,76,139084,1,0,0:0:0:0:
260,116,139186,1,0,0:0:0:0:
260,156,139289,1,0,0:0:0:0:
260,196,139392,1,0,0:0:0:0:
260,236,139495,1,0,0:0:0:0:
260,276,139597,1,2,0:0:0:0:
312,184,139803,6,0,P|248:168|188:204,1,112.5
124,268,140214,1,4,0:0:0:0:
124,268,140317,1,0,0:0:0:0:
124,268,140419,2,0,P|155:321|217:350,1,112.5,2|0,0:0|0:0,0:0:0:0:
314,346,140830,2,0,P|361:316|388:268,1,112.5,8|0,0:0|0:0,0:0:0:0:
240,196,141241,2,0,P|192:166|166:117,1,112.5,2|0,0:0|0:0,0:0:0:0:
324,60,141652,1,8,0:0:0:0:
460,160,141858,1,0,0:0:0:0:
304,248,142063,5,2,0:0:0:0:
392,108,142269,1,0,0:0:0:0:
372,296,142474,1,8,0:0:0:0:
240,196,142680,2,0,L|124:196,1,112.5,0|2,0:0|0:0,0:0:0:0:
184,36,143091,1,0,0:0:0:0:
240,196,143296,1,8,0:0:0:0:
392,108,143502,1,4,0:0:0:0:
392,108,143604,1,0,0:0:0:0:
392,108,143707,6,0,P|420:168|412:232,1,112.5,2|0,0:0|0:0,0:0:0:0:
304,348,144118,2,0,P|240:360|180:328,1,112.5,8|0,0:0|0:0,0:0:0:0:
88,220,144529,2,0,P|88:164|116:116,1,112.5,2|0,0:0|0:0,0:0:0:0:
256,208,144940,1,8,0:0:0:0:
392,112,145145,1,0,0:0:0:0:
324,268,145351,5,2,0:0:0:0:
292,101,145556,1,0,0:0:0:0:
124,104,145762,1,8,0:0:0:0:
292,101,145967,2,0,L|252:217,1,112.5,0|2,0:0|0:0,0:0:0:0:
148,336,146378,2,0,P|80:288|72:252,1,112.5,0|8,0:0|0:0,0:0:0:0:
208,164,146789,1,4,0:0:0:0:
208,164,146892,1,0,0:0:0:0:
208,164,146995,6,0,P|220:92|200:40,1,112.5,2|0,0:0|0:0,0:0:0:0:
52,116,147406,1,8,0:0:0:0:
84,280,147611,1,0,0:0:0:0:
208,164,147817,1,2,0:0:0:0:
44,200,148022,1,0,0:0:0:0:
208,256,148228,1,8,0:0:0:0:
172,92,148433,1,0,0:0:0:0:
332,44,148639,6,0,L|368:188,1,112.5,2|0,0:0|0:0,0:0:0:0:
460,288,149050,1,8,0:0:0:0:
294,319,149255,1,0,0:0:0:0:
294,319,149358,1,0,0:0:0:0:
294,319,149460,2,0,P|254:272|203:255,1,112.5,2|0,0:0|0:0,0:0:0:0:
68,352,149871,1,8,0:0:0:0:
68,352,150077,6,0,P|184:296|60:256,1,281.25
112,300,150693,1,8,0:0:0:0:
112,300,150899,2,0,P|160:184|88:160,1,225
0,200,151515,1,8,0:0:0:0:
102,231,151721,6,0,L|226:231,1,112.5,0|2,0:0|0:0,0:0:0:0:
380,268,152132,2,0,L|324:268,1,56.25
280,340,152337,2,0,L|356:340,1,56.25,8|0,0:0|0:0,0:0:0:0:
380,268,152543,2,0,L|436:268,3,56.25,0|0|2|0,0:0|0:0|0:0|0:0,0:0:0:0:
436,268,152954,2,0,P|480:224|480:156,1,112.5,0|8,0:0|0:0,0:0:0:0:
392,36,153365,1,4,0:0:0:0:
392,36,153467,1,0,0:0:0:0:
392,36,153570,6,0,P|384:124|352:144,1,112.5,2|0,0:0|0:0,0:0:0:0:
216,64,153981,1,8,0:0:0:0:
370,135,154186,1,0,0:0:0:0:
200,140,154392,1,2,0:0:0:0:
352,212,154597,1,0,0:0:0:0:
184,216,154803,1,8,0:0:0:0:
32,284,155008,1,0,0:0:0:0:
32,284,155111,1,0,0:0:0:0:
32,284,155214,6,0,P|84:352|140:356,1,112.5,2|0,0:0|0:0,0:0:0:0:
184,216,155625,1,8,0:0:0:0:
216,64,155830,2,0,P|280:116|288:180,1,112.5,0|2,0:0|0:0,0:0:0:0:
324,308,156241,1,0,0:0:0:0:
184,216,156447,1,8,0:0:0:0:
100,364,156652,1,4,0:0:0:0:
100,364,156755,1,0,0:0:0:0:
100,364,156858,6,0,P|56:336|32:279,1,112.5,2|2,0:0|0:0,0:0:0:0:
184,216,157269,2,0,P|240:172|244:128,1,112.5,8|0,0:0|0:0,0:0:0:0:
80,108,157680,2,0,P|24:152|20:196,1,112.5,2|0,0:0|0:0,0:0:0:0:
184,216,158091,1,8,0:0:0:0:
366,157,158296,1,0,0:0:0:0:
366,157,158399,1,0,0:0:0:0:
366,157,158502,5,4,0:0:0:0:
254,311,158707,1,0,0:0:0:0:
254,120,158913,1,8,0:0:0:0:
366,275,159118,1,0,0:0:0:0:
88,84,159529,1,0,0:0:0:0:
20,240,159734,1,8,0:0:0:0:
188,220,159940,1,0,0:0:0:0:
188,220,160043,1,0,0:0:0:0:
188,220,160145,5,2,0:0:0:0:
272,72,160351,1,0,0:0:0:0:
424,144,160556,1,8,0:0:0:0:
340,292,160762,1,0,0:0:0:0:
188,220,160967,1,2,0:0:0:0:
324,40,161378,5,8,0:0:0:0:
200,52,161584,1,0,0:0:0:0:
132,152,161789,1,2,0:0:0:0:
160,272,161995,1,0,0:0:0:0:
276,328,162200,1,8,0:0:0:0:
404,292,162406,2,0,P|476:196|444:88,1,225,4|0,0:0|0:0,0:0:0:0:
436,72,162919,1,0,0:0:0:0:
404,52,163022,1,8,0:0:0:0:
364,40,163125,1,8,0:0:0:0:
324,40,163228,1,8,0:0:0:0:
200,52,163433,6,0,P|116:132|144:160,1,180,4|8,0:0|0:0,0:0:0:0:
140,272,164049,1,0,0:0:0:0:
140,272,164152,1,0,0:0:0:0:
140,272,164255,2,0,P|60:288|36:256,1,90,2|0,0:0|0:0,0:0:0:0:
20,180,164666,1,8,0:0:0:0:
132,152,164871,1,0,0:0:0:0:
140,272,165077,6,0,P|60:288|36:256,1,90,2|0,0:0|0:0,0:0:0:0:
88,224,165385,1,0,0:0:0:0:
88,224,165488,2,0,P|168:208|192:240,1,90,8|0,0:0|0:0,0:0:0:0:
268,296,165899,1,2,0:0:0:0:
396,224,166105,1,0,0:0:0:0:
408,256,166207,1,0,0:0:0:0:
400,288,166310,1,0,0:0:0:0:
372,308,166413,1,0,0:0:0:0:
340,296,166515,1,0,0:0:0:0:
308,284,166618,1,0,0:0:0:0:
268,296,166721,6,0,B|171:365,1,112.5,4|0,0:0|0:0,0:0:0:0:
24,284,167132,2,0,L|144:199,1,112.5,8|0,0:0|0:0,0:0:0:0:
100,136,167440,1,0,0:0:0:0:
100,136,167543,2,0,L|40:180,1,56.25,2|0,0:0|0:0,0:0:0:0:
84,52,167749,1,2,0:0:0:0:
115,218,167954,2,0,L|247:122,1,112.5,8|0,0:0|0:0,0:0:0:0:
308,16,168365,5,2,0:0:0:0:
408,152,168570,1,0,0:0:0:0:
244,120,168776,2,0,B|220:192|264:248,1,112.5,8|0,0:0|0:0,0:0:0:0:
268,260,169084,1,0,0:0:0:0:
290,289,169186,1,2,0:0:0:0:
323,307,169289,1,0,0:0:0:0:
360,311,169392,1,0,0:0:0:0:
408,152,169597,1,8,0:0:0:0:
251,228,169803,1,0,0:0:0:0:
400,308,170008,5,2,0:0:0:0:
100,152,170419,2,0,P|144:204|144:280,1,112.5,8|0,0:0|0:0,0:0:0:0:
144,276,170728,1,0,0:0:0:0:
132,304,170830,1,2,0:0:0:0:
108,324,170933,1,0,0:0:0:0:
80,336,171036,1,0,0:0:0:0:
12,240,171241,1,8,0:0:0:0:
176,196,171447,1,0,0:0:0:0:
224,356,171652,5,2,0:0:0:0:
304,312,171858,1,0,0:0:0:0:
360,380,172063,1,8,0:0:0:0:
444,344,172269,2,0,P|456:312|440:276,1,56.25
376,312,172474,2,0,P|384:252|444:216,1,112.5,2|0,0:0|0:0,0:0:0:0:
412,76,172885,1,8,0:0:0:0:
340,200,173091,1,0,0:0:0:0:
252,80,173296,6,0,P|211:116|205:171,1,112.5,4|0,0:0|0:0,0:0:0:0:
304,312,173707,2,0,L|152:272,1,112.5,8|0,0:0|0:0,0:0:0:0:
176,200,174015,1,0,0:0:0:0:
176,200,174118,2,0,L|248:220,1,56.25,2|0,0:0|0:0,0:0:0:0:
296,160,174324,1,0,0:0:0:0:
168,48,174529,2,0,P|112:36|56:52,1,112.5,8|0,0:0|0:0,0:0:0:0:
112,136,174940,6,0,L|112:264,1,112.5,2|0,0:0|0:0,0:0:0:0:
59,334,175351,2,0,P|113:348|168:336,1,112.5,8|0,0:0|0:0,0:0:0:0:
196,324,175659,1,0,0:0:0:0:
224,336,175762,1,2,0:0:0:0:
252,324,175865,1,0,0:0:0:0:
280,336,175968,1,0,0:0:0:0:
448,324,176173,1,8,0:0:0:0:
344,192,176378,1,0,0:0:0:0:
344,192,176584,6,0,P|416:188|480:136,1,112.5,2|0,0:0|0:0,0:0:0:0:
357,20,176995,1,8,0:0:0:0:
450,169,177200,1,0,0:0:0:0:
450,168,177303,1,0,0:0:0:0:
450,168,177406,1,2,0:0:0:0:
287,102,177611,1,0,0:0:0:0:
455,61,177817,1,8,0:0:0:0:
344,192,178022,1,0,0:0:0:0:
344,192,178228,5,2,0:0:0:0:
287,102,178433,2,0,L|223:150,1,56.25
172,112,178639,2,0,L|96:168,1,56.25,8|0,0:0|0:0,0:0:0:0:
56,164,178844,1,0,0:0:0:0:
56,164,178947,1,0,0:0:0:0:
56,164,179050,2,0,P|84:220|36:264,1,112.5,2|0,0:0|0:0,0:0:0:0:
176,344,179460,1,8,0:0:0:0:
216,336,179563,1,0,0:0:0:0:
256,328,179666,1,0,0:0:0:0:
400,352,179871,6,0,P|400:284|372:248,1,112.5,4|0,0:0|0:0,0:0:0:0:
216,336,180282,2,0,L|344:308,1,112.5,8|0,0:0|0:0,0:0:0:0:
374,250,180591,1,0,0:0:0:0:
374,250,180693,2,0,L|302:234,1,56.25,2|0,0:0|0:0,0:0:0:0:
268,176,180899,1,0,0:0:0:0:
420,108,181104,1,8,0:0:0:0:
84,60,181515,6,0,P|57:106|81:155,1,112.5,2|0,0:0|0:0,0:0:0:0:
213,240,181926,2,0,P|239:286|215:335,1,112.5,8|0,0:0|0:0,0:0:0:0:
184,348,182234,1,0,0:0:0:0:
152,344,182337,1,2,0:0:0:0:
120,348,182440,1,0,0:0:0:0:
88,344,182543,1,0,0:0:0:0:
40,184,182748,1,8,0:0:0:0:
208,176,182954,1,0,0:0:0:0:
216,344,183159,5,2,0:0:0:0:
216,344,183570,1,8,0:0:0:0:
209,175,183776,1,0,0:0:0:0:
209,175,183878,1,0,0:0:0:0:
209,175,183981,2,0,L|246:229,1,56.25,2|0,0:0|0:0,0:0:0:0:
290,289,184187,1,2,0:0:0:0:
135,218,184392,1,8,0:0:0:0:
287,212,184597,1,0,0:0:0:0:
137,294,184803,5,2,0:0:0:0:
216,344,185008,1,0,0:0:0:0:
216,344,185111,1,0,0:0:0:0:
216,344,185214,1,8,0:0:0:0:
212,255,185419,1,0,0:0:0:0:
135,218,185625,2,0,P|185:172|229:174,1,112.5,2|0,0:0|0:0,0:0:0:0:
372,184,186036,1,8,0:0:0:0:
404,200,186139,1,0,0:0:0:0:
436,216,186241,1,0,0:0:0:0:
480,356,186447,6,0,P|408:380|364:368,1,112.5,4|0,0:0|0:0,0:0:0:0:
227,282,186858,2,0,L|123:210,1,112.5,8|0,0:0|0:0,0:0:0:0:
76,184,187166,1,0,0:0:0:0:
20,144,187269,1,2,0:0:0:0:
160,48,187474,1,0,0:0:0:0:
134,217,187680,2,0,L|227:282,1,112.5,8|0,0:0|0:0,0:0:0:0:
396,296,188091,6,0,P|368:368|328:380,1,112.5,2|0,0:0|0:0,0:0:0:0:
176,344,188502,2,0,P|88:328|64:296,1,112.5,8|0,0:0|0:0,0:0:0:0:
72,268,188810,1,0,0:0:0:0:
112,249,188912,1,2,0:0:0:0:
157,244,189015,1,0,0:0:0:0:
200,253,189118,1,0,0:0:0:0:
239,277,189220,1,0,0:0:0:0:
267,311,189323,1,8,0:0:0:0:
255,149,189529,6,0,P|326:225|254:313,1,225
376,354,190145,1,8,0:0:0:0:
460,209,190351,1,0,0:0:0:0:
292,210,190556,1,2,0:0:0:0:
255,44,190762,1,0,0:0:0:0:
220,210,190967,1,0,0:0:0:0:
52,208,191173,1,0,0:0:0:0:
128,355,191378,5,2,3:0:0:0:
52,208,191789,1,8,0:0:0:0:
220,209,192200,1,2,0:0:0:0:
255,43,192611,1,8,0:0:0:0:
292,209,193022,1,2,0:0:0:0:
460,209,193433,1,8,0:0:0:0:
372,344,193844,5,2,0:0:0:0:
300,252,194050,1,2,0:0:0:0:
376,160,194255,1,8,0:0:0:0:
148,112,194666,6,0,P|188:140|268:136,1,90,2|0,0:0|0:0,0:0:0:0:
340,184,195077,2,0,P|280:212|264:268,1,90
184,308,195488,2,0,P|160:240|132:224,1,90
148,112,195899,1,0,0:0:0:0:
236,8,196104,2,0,L|260:16,2,15
260,88,196310,6,0,L|328:104,1,56.25,2|0,0:0|0:0,0:0:0:0:
380,156,196515,2,0,L|308:172,1,56.25
276,236,196721,2,0,L|204:252,1,56.25,8|0,0:0|0:0,0:0:0:0:
172,316,196926,2,0,L|100:332,1,56.25
84,224,197132,6,0,B|136:212|136:212|192:160,1,90,2|0,0:0|0:0,0:0:0:0:
168,176,197440,1,0,0:0:0:0:
168,164,197543,1,0,0:0:0:0:
168,152,197645,1,0,0:0:0:0:
168,140,197748,1,0,0:0:0:0:
168,128,197851,1,0,0:0:0:0:
168,116,197954,5,4,0:0:0:0:
280,40,198159,1,0,0:0:0:0:
404,96,198365,1,8,0:0:0:0:
284,152,198570,2,0,P|320:196|384:208,1,90,0|2,0:0|0:0,0:0:0:0:
444,308,198981,2,0,P|400:328|348:332,1,90,0|8,0:0|0:0,0:0:0:0:
224,332,199392,6,0,P|288:248|264:180,1,180,2|0,0:0|0:0,0:0:0:0:
268,184,199906,1,0,0:0:0:0:
268,184,200008,1,8,0:0:0:0:
392,128,200214,1,0,0:0:0:0:
276,56,200419,1,2,0:0:0:0:
152,112,200625,1,0,0:0:0:0:
268,184,200830,1,8,0:0:0:0:
268,184,201036,1,0,0:0:0:0:
384,256,201241,5,2,0:0:0:0:
260,312,201447,1,0,0:0:0:0:
144,244,201652,1,8,0:0:0:0:
268,184,201858,2,0,P|256:124|200:104,1,90,0|2,0:0|0:0,0:0:0:0:
144,244,202269,2,0,P|98:285|110:343,1,90
260,312,202680,2,0,P|318:329|362:289,1,90,0|2,0:0|0:0,0:0:0:0:
416,204,203091,5,0,0:0:0:0:
432,172,203193,1,0,0:0:0:0:
448,140,203296,1,4,0:0:0:0:
256,192,203399,12,0,204323,0:0:0:0:
44,136,204529,6,0,B|72:120|72:120|180:136,1,99.0000030212403,2|0,0:0|0:0,0:0:0:0:
272,192,204940,1,8,0:0:0:0:
272,192,205145,2,0,B|244:208|244:208|164:196|164:196|120:228,1,148.50000453186,2|0,0:0|0:0,0:0:0:0:
120,288,205556,1,0,0:0:0:0:
296,260,205762,1,8,0:0:0:0:
392,112,205967,1,0,0:0:0:0:
392,112,206173,1,2,0:0:0:0:
364,288,206378,5,0,0:0:0:0:
364,288,206481,1,0,0:0:0:0:
364,288,206584,1,8,0:0:0:0:
192,336,206789,2,0,B|200:224|60:356|80:196,1,198.000006042481
52,188,207303,1,0,0:0:0:0:
24,160,207406,1,8,0:0:0:0:
12,124,207508,1,0,0:0:0:0:
28,88,207611,1,0,0:0:0:0:
60,64,207714,1,0,0:0:0:0:
100,72,207817,6,0,L|224:72,1,99.0000030212403,4|0,0:0|0:0,0:0:0:0:
228,136,208125,1,0,0:0:0:0:
228,136,208228,2,0,L|352:136,1,99.0000030212403,8|0,0:0|0:0,0:0:0:0:
364,196,208536,1,0,0:0:0:0:
364,196,208639,2,0,L|480:196,1,99.0000030212403,2|0,0:0|0:0,0:0:0:0:
292,248,209050,2,0,B|252:183|308:124,1,99.0000030212403,8|0,0:0|0:0,0:0:0:0:
416,32,209460,6,0,B|448:96|404:148,1,99.0000030212403,4|0,0:0|0:0,0:0:0:0:
292,248,209871,1,8,0:0:0:0:
124,312,210077,1,0,0:0:0:0:
124,312,210180,1,0,0:0:0:0:
124,312,210282,1,2,0:0:0:0:
124,312,210488,5,0,0:0:0:0:
292,248,210693,1,8,0:0:0:0:
292,248,210796,1,0,0:0:0:0:
292,248,210899,1,0,0:0:0:0:
148,144,211104,6,0,P|100:88|100:52,1,99.0000030212403,2|0,0:0|0:0,0:0:0:0:
99,66,211413,1,0,0:0:0:0:
99,66,211515,1,8,0:0:0:0:
248,84,211721,1,0,0:0:0:0:
284,68,211823,1,0,0:0:0:0:
308,36,211926,1,2,0:0:0:0:
440,104,212132,1,0,0:0:0:0:
448,148,212234,1,0,0:0:0:0:
428,184,212337,1,8,0:0:0:0:
292,248,212543,1,0,0:0:0:0:
256,264,212645,1,0,0:0:0:0:
216,256,212748,5,4,0:0:0:0:
108,156,212954,1,0,0:0:0:0:
36,288,213159,2,0,P|112:352|128:348,1,99.0000030212403,8|0,0:0|0:0,0:0:0:0:
132,336,213467,1,8,3:0:0:0:
164,320,213570,1,10,3:0:0:0:
196,304,213673,1,8,3:0:0:0:
228,288,213776,1,8,0:0:0:0:
261,274,213878,1,8,0:0:0:0:
294,260,213981,1,8,0:0:0:0:
328,247,214084,1,8,0:0:0:0:
361,233,214186,1,8,0:0:0:0:
394,219,214289,1,8,0:0:0:0:
420,208,214392,6,0,P|500:304|375:301,1,315,4|0,0:0|0:0,0:0:0:0:
296,260,216036,1,2,0:0:0:0:
256,192,216139,12,0,217063,0:0:0:0:
248,280,217474,6,0,P|344:320|416:256,1,180,0|2,0:0|0:0,0:0:0:0:
412,184,218091,2,0,P|408:136|364:136,1,90
248,80,218502,2,0,P|215:109|236:148,1,90,2|0,0:0|0:0,0:0:0:0:
248,280,218913,2,0,P|232:316|180:296,1,90
128,184,219323,5,2,0:0:0:0:
188,308,219529,1,0,0:0:0:0:
272,192,219734,1,0,0:0:0:0:
156,248,219940,1,0,0:0:0:0:
228,368,220351,1,0,0:0:0:0:
188,308,220556,1,0,0:0:0:0:
260,296,220762,6,0,B|336:312|376:288,1,90,0|2,0:0|0:0,0:0:0:0:
420,184,221173,1,0,0:0:0:0:
352,184,221378,1,0,0:0:0:0:
384,124,221584,1,0,0:0:0:0:
252,128,221789,2,0,L|136:128,1,90,2|0,0:0|0:0,0:0:0:0:
116,200,222200,2,0,L|228:200,1,90
260,296,222611,5,2,0:0:0:0:
352,184,222817,1,0,0:0:0:0:
332,324,223022,1,0,0:0:0:0:
280,184,223228,1,0,0:0:0:0:
280,184,223639,1,0,0:0:0:0:
224,232,223844,1,0,0:0:0:0:
260,296,224049,6,0,B|288:344|344:324,1,90,0|2,0:0|0:0,0:0:0:0:
352,184,224460,1,0,0:0:0:0:
308,64,224666,2,0,P|264:92|212:92,1,90
144,200,225077,2,0,P|188:228|240:228,1,90,2|0,0:0|0:0,0:0:0:0:
320,332,225488,2,0,P|276:364|224:360,1,90
224,232,225899,5,2,0:0:0:0:
352,184,226104,1,0,0:0:0:0:
220,156,226310,1,0,0:0:0:0:
348,108,226515,2,0,L|300:120,2,45
220,156,226926,1,0,0:0:0:0:
108,144,227132,2,0,L|60:208,1,56.25,8|0,0:0|0:0,0:0:0:0:
108,256,227337,6,0,P|144:352|212:244,1,281.25
288,224,227954,2,0,L|333:257,1,56.25,8|0,0:0|0:0,0:0:0:0:
401,224,228159,2,0,P|478:216|412:132,1,225
276,84,228776,2,0,L|246:132,1,56.25,8|0,0:0|0:0,0:0:0:0:
174,131,228981,6,0,P|121:71|90:148,1,168.75
20,172,229392,2,0,L|72:208,1,56.25
64,288,229597,2,0,L|18:256,1,56.25,8|0,0:0|0:0,0:0:0:0:
128,240,229803,2,0,L|180:276,1,56.25
172,356,230008,2,0,L|126:324,1,56.25,2|0,0:0|0:0,0:0:0:0:
174,272,230214,2,0,L|304:364,1,112.5,0|8,0:0|0:0,0:0:0:0:
432,364,230625,1,4,0:0:0:0:
432,364,230728,1,0,0:0:0:0:
432,364,230830,6,0,P|484:300|472:228,1,112.5,2|0,0:0|0:0,0:0:0:0:
404,124,231241,1,8,0:0:0:0:
244,172,231447,1,0,0:0:0:0:
368,284,231652,1,2,0:0:0:0:
316,124,231858,1,0,0:0:0:0:
259,283,232063,2,0,P|335:295|387:271,1,112.5,8|0,0:0|0:0,0:0:0:0:
316,124,232474,5,2,0:0:0:0:
192,12,232680,1,0,0:0:0:0:
40,84,232885,1,8,0:0:0:0:
168,196,233091,2,0,P|120:248|52:240,1,112.5,0|2,0:0|0:0,0:0:0:0:
40,84,233502,1,0,0:0:0:0:
81,251,233707,1,8,0:0:0:0:
240,312,233913,1,0,0:0:0:0:
240,312,234015,1,0,0:0:0:0:
240,312,234118,6,0,B|224:380|156:384,1,112.5,2|0,0:0|0:0,0:0:0:0:
4,322,234529,2,0,B|20:254|88:250,1,112.5,8|0,0:0|0:0,0:0:0:0:
240,312,234940,1,2,0:0:0:0:
80,250,235145,1,0,0:0:0:0:
244,208,235351,2,0,L|132:152,1,112.5,8|0,0:0|0:0,0:0:0:0:
40,24,235762,5,0,0:0:0:0:
204,0,235967,1,0,0:0:0:0:
143,157,236173,1,8,0:0:0:0:
88,316,236378,2,0,P|144:328|212:308,1,112.5,0|2,0:0|0:0,0:0:0:0:
344,228,236789,1,0,0:0:0:0:
252,84,236995,1,8,0:0:0:0:
180,236,237200,2,0,B|120:256|72:208,1,112.5,0|2,0:0|0:0,0:0:0:0:
44,48,237611,5,0,0:0:0:0:
208,12,237817,1,8,0:0:0:0:
296,156,238022,1,0,0:0:0:0:
132,192,238228,1,2,0:0:0:0:
408,48,238639,5,8,0:0:0:0:
463,158,238844,1,0,0:0:0:0:
427,274,239049,1,2,0:0:0:0:
315,330,239255,1,0,0:0:0:0:
195,298,239460,1,8,0:0:0:0:
132,192,239666,2,0,P|161:74|280:16,1,225,4|0,0:0|0:0,0:0:0:0:
288,16,240180,1,8,0:0:0:0:
328,24,240282,1,8,0:0:0:0:
368,36,240385,1,8,0:0:0:0:
408,48,240488,1,8,0:0:0:0:
463,158,240693,6,0,P|412:288|360:308,1,180
392,168,241310,1,0,0:0:0:0:
392,168,241413,1,0,0:0:0:0:
392,168,241515,2,0,P|376:224|344:240,1,90,2|0,0:0|0:0,0:0:0:0:
272,152,241925,1,8,0:0:0:0:
80,128,242337,6,0,P|96:180|144:208,1,90,2|0,0:0|0:0,0:0:0:0:
160,132,242645,1,0,0:0:0:0:
160,132,242748,2,0,P|200:80|184:24,1,90,8|0,0:0|0:0,0:0:0:0:
124,64,243056,1,0,0:0:0:0:
124,64,243159,2,0,P|84:48|8:100,1,135,2|0,0:0|0:0,0:0:0:0:
80,128,243570,1,8,0:0:0:0:
152,264,243775,1,0,0:0:0:0:
152,264,243878,1,0,0:0:0:0:
152,264,243981,6,0,P|176:328|260:336,1,135,2|0,0:0|0:0,0:0:0:0:
232,268,244392,2,0,P|272:216|256:160,1,90,8|0,0:0|0:0,0:0:0:0:
196,200,244700,1,0,0:0:0:0:
196,200,244803,1,2,0:0:0:0:
44,196,245008,1,0,0:0:0:0:
120,68,245214,1,8,0:0:0:0:
120,68,245317,1,0,0:0:0:0:
120,68,245419,1,8,0:0:0:0:
44,196,245625,5,4,0:0:0:0:
296,264,246036,2,0,P|345:233|353:176,1,90,8|0,0:0|0:0,0:0:0:0:
240,136,246447,2,0,P|209:87|152:79,1,90,2|0,0:0|0:0,0:0:0:0:
124,200,246858,1,8,0:0:0:0:
96,210,246960,1,0,0:0:0:0:
74,231,247063,1,0,0:0:0:0:
64,259,247166,1,0,0:0:0:0:
64,288,247269,6,4,P|95:337|156:348,1,112.5,4|0,0:0|0:0,0:0:0:0:
296,264,247680,2,0,L|392:188,1,112.5,8|0,0:0|0:0,0:0:0:0:
376,104,247988,1,0,0:0:0:0:
376,104,248091,2,0,L|316:154,2,56.25,2|0|0,0:0|0:0|0:0,0:0:0:0:
232,16,248502,2,0,L|124:102,1,112.5,8|0,0:0|0:0,0:0:0:0:
124,252,248913,6,0,P|64:248|24:188,1,112.5,2|0,0:0|0:0,0:0:0:0:
143,86,249323,2,0,P|203:90|243:150,1,112.5,2|0,0:0|0:0,0:0:0:0:
240,160,249632,1,0,0:0:0:0:
272,164,249734,1,2,0:0:0:0:
284,196,249837,1,0,0:0:0:0:
316,200,249939,1,0,0:0:0:0:
356,364,250145,1,8,0:0:0:0:
452,224,250351,1,0,0:0:0:0:
292,272,250556,5,2,0:0:0:0:
292,272,250967,2,0,P|372:248|384:216,1,112.5,8|0,0:0|0:0,0:0:0:0:
384,196,251276,1,0,0:0:0:0:
403,164,251378,1,2,0:0:0:0:
436,148,251481,1,0,0:0:0:0:
473,151,251584,1,0,0:0:0:0:
508,316,251789,1,8,0:0:0:0:
384,196,251994,1,2,0:0:0:0:
444,40,252200,6,0,P|368:32|316:48,1,112.5,2|0,0:0|0:0,0:0:0:0:
236,148,252611,2,0,P|160:156|108:140,1,112.5,8|0,0:0|0:0,0:0:0:0:
76,80,252919,1,0,0:0:0:0:
76,80,253022,2,0,P|131:70|186:79,1,112.5,2|0,0:0|0:0,0:0:0:0:
292,212,253433,2,0,P|332:288|376:288,1,112.5,8|0,0:0|0:0,0:0:0:0:
408,328,253741,1,0,0:0:0:0:
348,360,253844,6,0,P|276:336|224:240,1,168.75,4|0,0:0|0:0,0:0:0:0:
223,191,254255,2,0,P|247:103|327:47,1,168.75,8|0,0:0|0:0,0:0:0:0:
368,16,254666,1,2,0:0:0:0:
488,140,254871,1,2,0:0:0:0:
334,210,255077,2,0,L|214:190,1,112.5,8|0,0:0|0:0,0:0:0:0:
72,112,255488,6,0,P|44:164|56:228,1,112.5,2|0,0:0|0:0,0:0:0:0:
223,191,255899,2,0,P|251:139|240:76,1,112.5,2|0,0:0|0:0,0:0:0:0:
228,56,256207,1,0,0:0:0:0:
192,40,256310,1,2,0:0:0:0:
152,40,256413,1,0,0:0:0:0:
116,56,256515,1,0,0:0:0:0:
172,216,256721,1,8,0:0:0:0:
84,76,256926,1,0,0:0:0:0:
84,76,257029,1,0,0:0:0:0:
84,76,257132,6,0,P|136:44|196:48,1,112.5,2|0,0:0|0:0,0:0:0:0:
172,216,257543,1,8,0:0:0:0:
172,380,257748,1,0,0:0:0:0:
172,380,257851,1,0,0:0:0:0:
172,380,257954,1,2,0:0:0:0:
75,247,258160,1,0,0:0:0:0:
231,298,258365,1,8,0:0:0:0:
75,348,258571,1,0,0:0:0:0:
231,298,258776,5,2,0:0:0:0:
231,298,258981,2,0,L|296:264,1,56.25
308,204,259186,2,0,L|385:166,1,56.25,8|0,0:0|0:0,0:0:0:0:
408,124,259392,1,0,0:0:0:0:
408,124,259495,1,0,0:0:0:0:
408,124,259597,2,0,B|456:176|400:248,1,112.5,2|0,0:0|0:0,0:0:0:0:
308,328,260008,1,8,0:0:0:0:
344,356,260111,1,0,0:0:0:0:
396,356,260214,1,0,0:0:0:0:
414,227,260419,6,0,P|344:196|288:216,1,112.5,4|0,0:0|0:0,0:0:0:0:
252,220,260693,2,0,L|280:256,1,37.5
216,248,260830,2,0,P|176:212|80:216,1,112.5
100,372,261241,1,2,0:0:0:0:
216,248,261447,1,2,0:0:0:0:
128,92,261652,1,8,0:0:0:0:
216,248,262063,6,0,P|288:220|303:192,1,112.5,2|0,0:0|0:0,0:0:0:0:
128,92,262474,2,0,P|56:120|41:148,1,112.5,8|0,0:0|0:0,0:0:0:0:
48,188,262782,1,0,0:0:0:0:
64,224,262885,1,2,0:0:0:0:
96,248,262988,1,0,0:0:0:0:
132,264,263091,1,0,0:0:0:0:
196,108,263296,1,8,0:0:0:0:
176,252,263502,1,0,0:0:0:0:
348,212,263707,6,0,L|436:120,1,112.5,2|0,0:0|0:0,0:0:0:0:
289,50,264118,2,0,L|196:148,1,112.5,8|0,0:0|0:0,0:0:0:0:
211,131,264426,1,0,0:0:0:0:
211,131,264529,1,2,0:0:0:0:
120,8,264734,1,0,0:0:0:0:
289,50,264940,1,8,0:0:0:0:
132,108,265145,1,0,0:0:0:0:
124,276,265351,6,0,P|60:268|20:208,1,112.5,2|0,0:0|0:0,0:0:0:0:
28,234,265659,1,0,0:0:0:0:
28,234,265762,1,8,0:0:0:0:
132,108,265967,1,0,0:0:0:0:
132,108,266173,2,0,P|196:116|236:176,1,112.5,2|0,0:0|0:0,0:0:0:0:
124,276,266584,2,0,L|256:224,1,112.5,8|0,0:0|0:0,0:0:0:0:
300,196,266892,1,0,0:0:0:0:
300,196,266995,6,0,P|368:176|372:80,1,168.75,4|0,0:0|0:0,0:0:0:0:
300,116,267406,2,0,L|196:40,1,112.5,8|0,0:0|0:0,0:0:0:0:
128,76,267714,1,0,0:0:0:0:
128,76,267817,2,0,L|186:122,1,56.25,2|0,0:0|0:0,0:0:0:0:
300,116,268022,1,2,0:0:0:0:
128,76,268228,2,0,L|235:155,1,112.5,8|0,0:0|0:0,0:0:0:0:
312,284,268639,6,0,P|364:260|376:204,1,112.5,2|0,0:0|0:0,0:0:0:0:
218,142,269050,2,0,P|166:166|154:222,1,112.5,8|0,0:0|0:0,0:0:0:0:
312,284,269460,1,2,0:0:0:0:
339,278,269562,1,0,0:0:0:0:
361,262,269665,1,0,0:0:0:0:
375,237,269768,1,0,0:0:0:0:
377,210,269870,1,8,0:0:0:0:
352,40,270077,1,0,0:0:0:0:
352,40,270488,5,0,0:0:0:0:
284,192,270693,1,8,0:0:0:0:
448,144,270899,1,0,0:0:0:0:
316,112,271104,2,0,P|232:112|200:192,1,180,2|0,0:0|0:0,0:0:0:0:
216,308,271721,1,0,0:0:0:0:
188,56,272748,6,0,B|156:56|156:56|116:76,1,60,2|0,0:0|0:0,0:0:0:0:
96,92,272954,2,0,L|64:76,2,30
96,132,273159,2,0,B|73:204|73:204|116:242,1,90,8|0,0:0|0:0,0:0:0:0:
228,264,273570,6,0,L|304:168,1,112.5,4|0,0:0|0:0,0:0:0:0:
424,216,273981,6,0,P|384:240|376:308,1,90,8|0,0:0|0:0,0:0:0:0:
228,264,274392,2,0,L|296:180,1,90,2|0,0:0|0:0,0:0:0:0:
212,72,274803,2,0,P|204:112|140:136,1,90,8|0,0:0|0:0,0:0:0:0:
228,264,275214,6,0,L|296:180,1,90,2|0,0:0|0:0,0:0:0:0:
328,56,275625,2,0,P|380:76|400:116,1,90,8|0,0:0|0:0,0:0:0:0:
436,232,276035,1,2,0:0:0:0:
452,368,276241,1,0,0:0:0:0:
364,264,276446,1,8,0:0:0:0:
228,264,276652,1,0,0:0:0:0:
116,340,276858,6,0,P|88:308|88:256,1,90,2|0,0:0|0:0,0:0:0:0:
228,264,277269,2,0,P|256:296|256:348,1,90,8|0,0:0|0:0,0:0:0:0:
116,340,277680,1,2,0:0:0:0:
104,204,277885,1,0,0:0:0:0:
228,264,278090,1,8,0:0:0:0:
348,204,278296,1,0,0:0:0:0:
228,264,278502,5,2,0:0:0:0:
216,128,278707,1,0,0:0:0:0:
348,204,278913,1,8,0:0:0:0:
332,60,279118,2,0,L|340:108,1,45
416,136,279323,1,2,0:0:0:0:
416,136,279425,1,0,0:0:0:0:
416,136,279528,2,0,L|424:184,1,45
488,232,279734,1,8,0:0:0:0:
488,232,279836,1,0,0:0:0:0:
488,232,279939,2,0,L|496:280,1,45
456,348,280145,6,0,P|408:340|360:352,1,90,4|0,0:0|0:0,0:0:0:0:
252,376,280556,2,0,P|204:384|156:372,1,90,8|0,0:0|0:0,0:0:0:0:
76,296,280967,1,2,0:0:0:0:
166,215,281173,1,0,0:0:0:0:
276,264,281378,2,0,P|296:208|272:168,1,90,8|0,0:0|0:0,0:0:0:0:
166,215,281789,6,0,L|84:180,1,90,2|0,0:0|0:0,0:0:0:0:
166,298,282200,2,0,L|248:336,1,90,8|2,0:0|0:0,0:0:0:0:
84,180,282611,1,2,0:0:0:0:
168,300,282817,1,0,0:0:0:0:
84,180,283022,1,8,0:0:0:0:
168,300,283228,1,0,0:0:0:0:
252,168,283433,6,0,P|236:224|176:240,1,90,2|0,0:0|0:0,0:0:0:0:
328,112,283844,2,0,P|344:56|404:40,1,90,8|0,0:0|0:0,0:0:0:0:
468,124,284255,1,2,0:0:0:0:
388,244,284460,1,0,0:0:0:0:
328,112,284666,1,8,0:0:0:0:
248,232,284871,1,0,0:0:0:0:
328,112,285077,5,2,0:0:0:0:
208,32,285282,1,2,0:0:0:0:
120,144,285488,2,0,P|92:228|96:240,1,90,8|0,0:0|0:0,0:0:0:0:
120,292,285796,1,0,0:0:0:0:
120,292,285899,2,0,P|176:344|192:344,1,90,8|0,0:0|0:0,0:0:0:0:
256,344,286207,1,0,0:0:0:0:
256,344,286310,1,2,0:0:0:0:
388,292,286515,1,0,0:0:0:0:
280,198,286721,5,4,0:0:0:0:
368,84,286926,1,0,0:0:0:0:
280,198,287132,1,8,0:0:0:0:
136,196,287337,1,0,0:0:0:0:
136,196,287748,6,0,P|128:256|148:296,1,90
280,288,288159,2,0,L|280:198,1,90
424,196,288570,2,0,P|432:256|412:296,1,90
280,288,288981,1,0,0:0:0:0:
256,56,289392,5,0,0:0:0:0:
140,144,289597,1,8,0:0:0:0:
164,288,289803,1,0,0:0:0:0:
164,288,289906,1,0,0:0:0:0:
164,288,290008,5,6,0:0:0:0:
280,204,290214,1,0,0:0:0:0:
140,144,290419,1,8,0:0:0:0:
28,236,290625,1,0,0:0:0:0:
258,57,291035,1,0,0:0:0:0:
258,57,291447,6,0,L|260:20,4,22.5
140,144,291857,1,0,0:0:0:0:
282,203,292063,2,0,P|384:184|360:140,1,180,4|0,0:0|0:0,0:0:0:0:
373,152,292577,1,0,0:0:0:0:
373,152,292680,1,0,0:0:0:0:
258,57,292885,1,0,0:0:0:0:
282,203,293091,1,0,0:0:0:0:
282,203,293296,5,6,0:0:0:0:
370,318,293502,1,0,0:0:0:0:
284,204,293707,1,0,0:0:0:0:
138,206,293913,1,0,0:0:0:0:
138,206,294323,6,0,P|130:146|150:106,1,90
284,116,294734,2,0,L|284:206,1,90
428,206,295145,2,0,P|436:146|416:106,1,90
284,116,295556,1,0,0:0:0:0:
258,346,295968,1,0,0:0:0:0:
142,258,296173,1,0,0:0:0:0:
166,114,296379,1,0,0:0:0:0:
166,114,296481,1,0,0:0:0:0:
166,114,296584,5,6,0:0:0:0:
282,198,296790,1,0,0:0:0:0:
142,258,296995,1,0,0:0:0:0:
30,166,297200,5,2,0:0:0:0:
258,346,297628,2,0,L|304:348,3,30
258,346,298057,2,0,P|248:224|292:196,1,180,4|0,0:0|0:0,0:0:0:0:
432,308,298700,1,4,0:0:0:0:
256,192,298914,12,0,307485,0:0:0:0:
