osu file format v6

[General]
AudioFilename: Mix Argentina.mp3
AudioLeadIn: 1500
PreviewTime: 3066
Countdown: 0
SampleSet: Normal
StackLeniency: 0.7
Mode: 0
LetterboxInBreaks: 1

[Editor]
DistanceSpacing: 0.800000011920929
BeatDivisor: 4
GridSize: 8

[Metadata]
Title:Knullesangen
Artist:Mixed By Raastad
Creator:Teara
Version:Normal
Source:
Tags:

[Difficulty]
HPDrainRate:6
CircleSize:3
OverallDifficulty:4
SliderMultiplier:2
SliderTickRate:1

[Events]
//Background and Video events
0,0,"abstract-life-1.jpg"
//Break Periods
//Storyboard Layer 0 (Background)
//Storyboard Layer 1 (Fail)
//Storyboard Layer 2 (Pass)
//Storyboard Layer 3 (Foreground)
//Storyboard Sound Samples
//Background Colour Transformations
3,100,163,162,255

[TimingPoints]
240,424.959274736171,4,1,0,50,1,0
41984,-100,4,1,0,0,0,0

[Colours]
Combo1 : 0,0,0
Combo2 : 0,128,0
Combo3 : 0,128,255
Combo4 : 255,255,255

[HitObjects]
88,8,240,2,0,B|256:497|408:9,1,600
328,152,1939,5,0
168,152,2364,1,0
248,288,2789,1,0
408,288,3214,5,0
496,152,3639,1,0
344,152,4064,1,4
264,152,4277,1,0
256,192,4383,12,8,5339
336,192,5764,5,0
176,192,6189,1,0
336,192,6614,1,0
336,32,7039,1,4
256,32,7251,1,12
256,192,7358,12,0,8314
256,192,8739,5,4
120,112,9164,1,0
120,272,9589,1,0
256,192,10014,5,0
344,328,10439,1,4
488,256,10863,1,4
432,192,11076,1,4
352,192,11288,1,8
192,192,11713,1,0
32,192,12138,6,0,B|80:136|136:104|200:200,1,200,4|0
352,192,12988,1,4
352,352,13413,1,4
192,352,13838,1,4
192,272,14051,1,4
256,192,14263,12,4,15538
464,344,15963,6,0,B|336:344|400:192,1,200,0|12
232,200,16813,5,4
232,40,17238,2,8,B|180:39|144:96,1,100,12|0
48,216,17875,1,4
208,216,18300,5,8
288,216,18513,1,0
368,216,18725,1,8
447,215,18938,2,0,B|454:144|432:88|398:48|174:32|174:136,1,400
176,288,20213,1,4
336,288,20638,1,4
336,208,20850,1,12
256,192,21063,12,4,22337
168,192,22762,5,8
328,192,23187,1,4
184,264,23612,5,8
344,264,24037,1,4
104,248,24675,2,0,C|128:344|416:336|400:208,1,500
256,256,26162,5,12
256,96,26587,1,4
416,104,27012,1,4
384,176,27224,1,0
336,240,27437,1,4
272,288,27649,1,4
200,328,27862,1,4
40,328,28287,1,4
40,168,28712,1,12
200,168,29137,5,4
200,88,29349,1,8
280,88,29562,1,8
280,248,29987,1,0
440,248,30412,5,12
440,88,30837,1,4
280,88,31262,1,12
200,88,31474,2,0,B|456:168|176:240,1,300,12|0
32,232,32536,5,4
32,72,32961,1,8
32,232,33386,1,0
192,232,33811,1,8
352,232,34236,1,4
352,312,34449,1,4
256,192,34555,12,0,35511
256,192,35936,5,4
216,120,36149,1,4
296,120,36361,1,4
256,272,36786,2,0,B|260:333|168:344|80:256,1,200
96,112,37636,5,4
96,352,38273,1,4
256,352,38698,1,0
416,352,39123,1,0
416,272,39336,5,0
416,112,39761,1,0
256,112,40186,1,0
256,272,40611,1,0
416,272,41036,1,4
336,272,41248,1,4
336,192,41461,1,4
176,192,41886,1,4
256,192,41992,12,4,43160
