osu file format v8

[General]
AudioFilename: Sweet Dreams AKON Mix.mp3
AudioLeadIn: 0
PreviewTime: 103164
Countdown: 2
SampleSet: Soft
StackLeniency: 0.3
Mode: 0
LetterboxInBreaks: 0

[Editor]
Bookmarks: 223772
DistanceSpacing: 1
BeatDivisor: 4
GridSize: 8

[Metadata]
Title:Sweet Dreams (Akon Mix)
Artist:Miwa Yoshida Ft. Akon
Creator:ztrot
Version:Sweet Dreams
Source:Sonic The Hedgehog
Tags:YGOkid8 DiamondCrash

[Difficulty]
HPDrainRate:7
CircleSize:4
OverallDifficulty:8
ApproachRate:8
SliderMultiplier:1.7
SliderTickRate:2

[Events]
//Background and Video events
0,0,"wall04_1024.jpg"
//Break Periods
//Storyboard Layer 0 (Background)
//Storyboard Layer 1 (Fail)
//Storyboard Layer 2 (Pass)
//Storyboard Layer 3 (Foreground)
//Storyboard Sound Samples
//Background Colour Transformations
3,100,163,162,255

[TimingPoints]
26364.2906494141,400,4,2,1,60,1,0
125764,-100,4,2,1,47,0,0
126964,-100,4,2,1,36,0,0
127764,-100,4,2,1,23,0,0
128964,-100,4,2,1,0,0,0

[HitObjects]
256,56,26364,1,4
208,240,26764,1,0
304,240,26964,1,4
256,160,27164,1,8
408,264,27564,1,2
376,64,27964,1,2
376,64,28164,2,0,B|256:-8|128:64,1,255,0|8
168,248,29164,5,0
256,288,29364,1,4
336,336,29564,2,0,B|432:352|504:272|472:168,1,255,4|2
400,120,30364,1,8
200,136,30764,1,4
312,136,30964,1,4
256,64,31164,2,0,B|168:16|72:80|80:176,1,255,6|0
96,264,31964,1,8
176,304,32164,1,2
176,208,32364,1,6
256,264,32564,1,4
256,360,32764,1,4
312,184,33164,5,0
200,184,33364,1,4
184,96,33564,2,0,B|256:32|256:160|352:80,2,170,8|6|0
120,24,34564,2,0,B|48:72|48:192|128:256,1,255,2|8
192,192,35364,1,2
392,24,35764,1,2
392,24,35964,2,4,B|464:72|464:192|384:256,1,255,4|0
336,176,36764,2,0,B|384:72|256:-16|176:56,1,255,8|0
240,136,37564,6,0,B|152:88|80:176,1,170,4|0
184,224,38164,1,0
88,272,38364,2,0,B|152:350|240:302,1,170,8|4
392,264,39164,6,0,B|480:240|480:96|384:64,1,255,4|2
360,168,39964,1,8
256,16,40364,1,6
208,96,40564,1,0
304,96,40764,1,2
184,240,41164,2,0,B|257:321|332:236,2,170,0|8|0
136,56,42364,6,0,B|208:0|304:0|376:56,1,255,4|2
304,120,43164,1,8
208,120,43364,1,0
256,200,43564,1,4
440,192,43964,5,2
373,257,44164,2,0,B|300:316|209:315|136:255,1,255,0|8
256,112,45164,5,0
138,257,45564,2,0,B|209:315|300:316|373:257,1,255,6|2
256,216,46364,1,6
256,32,46764,1,4
256,216,47164,5,12
192,40,47564,1,0
128,104,47764,1,0
144,192,47964,1,14
256,128,48164,1,4
320,40,48364,1,0
384,104,48564,1,4
368,192,48764,1,6
256,344,49164,1,0
208,264,49364,1,4
304,264,49564,1,12
256,104,49964,5,4
256,272,50364,1,2
208,120,50764,2,0,B|96:144|88:264|160:352|264:328,1,340,2|0
304,120,51964,6,0,B|416:144|424:264|352:352|248:328,1,340,6|8
256,160,53164,1,4
376,56,53564,1,0
376,56,53764,2,0,B|256:-24|126:63,1,255
256,240,54764,5,2
304,168,54964,1,0
208,168,55164,1,4
336,64,55564,2,0,B|257:14|170:67,1,170,0|8
256,216,56364,5,2
208,288,56564,1,0
256,360,56764,2,0,B|352:376|408:296,1,170,4|0
464,240,57364,2,0,B|528:176|496:80,1,170,2|0
416,64,57964,2,0,B|400:160|304:184,1,170,2|6
256,32,58764,5,0
128,144,59164,1,10
88,216,59364,1,2
176,216,59564,1,4
128,288,59764,1,0
216,296,59964,2,0,B|195:345|256:352|256:352|320:342|295:295,2,170,0|0|8
352,192,61164,5,2
256,192,61364,1,4
208,120,61564,2,0,B|200:72|256:32|312:72|304:120,2,170,4|0|8
256,192,62764,5,4
208,120,62964,1,0
160,192,63164,1,4
72,48,63564,5,0
48,128,63764,1,0
72,208,63964,1,8
232,240,64364,2,0,B|168:312|64:288,1,170,0|4
280,240,65164,2,0,B|344:312|448:288,1,170,0|8
336,152,65964,6,0,B|256:104|168:152,2,170,4|0|0
256,0,67164,1,8
416,56,67564,1,2
464,128,67764,1,4
472,216,67964,2,0,B|448:304|368:344|264:312,1,255,4|0
336,240,68764,2,0,B|256:192|168:240,1,170,8|4
13,240,69564,6,0,B|93:192|181:240,1,170,2|0
56,120,70364,1,8
224,136,70764,1,4
152,96,70964,1,4
224,48,71164,2,0,B|328:32|400:96|392:200,1,255,4|0
480,192,71964,2,0,B|496:288|400:344,1,170,12|4
176,88,73164,6,0,B|256:35|343:93,1,170,4|8
208,208,73964,1,0
304,208,74164,1,0
256,280,74364,2,4,B|328:360|456:320|440:216,1,255
440,144,75164,2,0,B|440:40|328:40,2,170,12|4|4
352,128,76164,1,2
256,128,76364,1,0
304,200,76564,1,2
208,200,76764,2,0,B|112:200|80:304,2,170,8|0|0
120,48,77964,5,6
64,112,78164,1,4
72,200,78364,2,0,B|112:288|208:280,1,170,8|0
384,296,79164,1,6
456,248,79364,1,6
456,160,79564,2,0,B|440:64|336:48,1,170,0|8
144,72,80364,5,0
24,192,80764,2,0,B|40:288|136:320,1,170,4|0
120,216,81364,2,0,B|184:152|280:176,1,170,4|0
224,272,81964,2,0,B|192:320|256:368|320:320|288:272,4,170,4|0|0|8|0
104,144,83964,5,4
208,16,84364,1,2
256,88,84564,1,4
304,16,84764,1,8
368,72,84964,1,6
432,128,85164,1,4
368,184,85364,1,2
432,240,85564,2,0,B|392:328|280:312,2,170,0|2|8
256,192,86764,1,2
136,72,87164,6,0,B|200:16|320:16|376:80,2,255,4|4|4
168,152,88564,1,0
256,144,88764,1,0
368,72,89164,1,0
344,152,89364,1,0
256,144,89564,2,0,B|208:232|312:232|248:320,2,170,8|0|4
96,88,90764,1,0
256,24,91164,1,8
472,288,91964,6,0,B|400:336|304:288,2,170,0|0|8
336,184,93164,1,4
256,152,93364,1,4
176,184,93564,2,0,B|120:264|184:352,1,170,4|0
240,264,94164,2,0,B|304:344|408:304,1,170
328,232,94764,2,0,B|408:176|496:240,3,170,6|0|2|8
256,192,96364,12,8,99164
256,40,99964,5,0
144,168,100364,1,4
256,296,100764,1,4
368,168,101164,2,0,B|400:80|280:72|216:72|104:96|146:171,2,340,4|4|4
256,296,103164,5,4
96,232,103564,1,4
72,152,103764,1,4
96,72,103964,2,0,B|160:128|256:120,1,170,8|0
280,40,104564,1,4
336,104,104764,2,0,B|408:168|408:264,1,170,4|0
256,336,105564,1,8
424,336,105964,5,2
472,264,106164,1,4
472,176,106364,2,0,B|480:80|384:8|296:32,1,255,4|0
256,96,107164,1,8
256,264,107564,1,6
304,200,107764,1,4
208,200,107964,2,0,B|120:224|96:320,2,170,0|0|8
256,264,108964,2,0,B|320:328|424:320,1,170
448,256,109564,1,4
448,88,109964,5,2
376,48,110164,1,4
288,48,110364,2,0,B|192:32|136:112,1,170,8|0
80,168,110964,1,4
64,248,111164,1,4
216,184,111564,5,2
208,272,111764,1,0
264,336,111964,2,0,B|352:352|432:288,1,170,8|0
472,224,112564,1,4
472,136,112764,2,0,B|424:64|336:32|240:48,1,255,4|0
296,120,113564,1,8
128,88,113964,5,2
56,136,114164,1,0
16,216,114364,1,6
56,296,114564,1,6
128,344,114764,2,0,B|224:352|296:304,2,170,4|6|4
208,192,115964,6,0,B|288:240|376:240|456:184,1,255,4|0
440,104,116764,1,8
368,56,116964,1,0
280,56,117164,1,0
112,40,117564,6,0,B|48:104|104:208,1,170,4|0
256,128,118364,2,0,B|312:200|256:288,1,170,8|0
424,312,119164,1,4
488,152,119564,1,2
432,88,119764,1,0
408,168,119964,1,8
352,104,120164,1,0
376,24,120364,1,4
208,48,120764,6,0,B|168:136|48:128,3,170,0|0|8|0
96,296,122364,2,0,B|256:392|424:288,1,340,4|8
96,88,123564,2,0,B|256:-8|424:96,1,340,4|0
352,248,124764,5,8
256,184,124964,1,0
160,248,125164,1,0
72,32,125564,6,0,B|-24:176|64:360,1,340,4|0
440,32,126764,2,0,B|536:176|448:360,1,340,4|0
320,248,127964,1,8
256,168,128164,1,0
192,248,128364,2,0,B|128:312|32:288,1,170
256,192,128964,12,0,131964
