osu file format v13

[General]
AudioFilename: 1.mp3
AudioLeadIn: 0
PreviewTime: 109455
Countdown: 0
SampleSet: Soft
StackLeniency: 0.7
Mode: 0
LetterboxInBreaks: 0
WidescreenStoryboard: 0

[Editor]
DistanceSpacing: 1.2
BeatDivisor: 4
GridSize: 4
TimelineZoom: 1

[Metadata]
Title:Hizamakura de Sugosu Houkago
TitleUnicode:膝枕で過ごす放課後
Artist:Miwa Manabu
ArtistUnicode:三輪学
Creator:Minakami Yuki
Version:Hard
Source:ヨスガノソラ
Tags:galgame sphere mtbbsben sun_rainbow
BeatmapID:270397
BeatmapSetID:102294

[Difficulty]
HPDrainRate:5
CircleSize:4
OverallDifficulty:6
ApproachRate:6
SliderMultiplier:2.40000000596046
SliderTickRate:1

[Events]
//Background and Video events
0,0,"background.jpg",0,0
//Break Periods
//Storyboard Layer 0 (Background)
//Storyboard Layer 1 (Fail)
//Storyboard Layer 2 (Pass)
//Storyboard Layer 3 (Foreground)
//Storyboard Sound Samples
//Background Colour Transformations
3,100,163,162,255

[TimingPoints]
25299,779.220779220779,4,2,2,20,1,0
25299,-100,4,2,2,20,0,0
28513,-100,4,2,2,5,0,0
28708,-100,4,2,2,20,0,0
51792,-100,4,2,2,20,0,0
53350,-100,4,2,2,35,0,0
107409,-100,4,2,2,5,0,0
109357,-100,4,2,2,20,0,0
112669,-100,4,2,2,5,0,0
112863,-100,4,2,2,20,0,0
134389,-100,4,2,2,30,0,1
137604,-100,4,2,2,5,0,1
137799,-100,4,2,2,30,0,1
143837,-100,4,2,2,5,0,1
144032,-100,4,2,2,30,0,1
162442,-100,4,2,2,20,0,0

[Colours]
Combo1 : 255,255,128
Combo2 : 128,255,255
Combo3 : 255,255,255

[HitObjects]
96,132,25299,6,0,P|180:52|320:76,1,240.000000596046
356,100,26467,1,0,0:0:0:0:
380,128,26662,1,0,0:0:0:0:
396,160,26857,1,0,0:0:0:0:
420,228,27247,2,0,P|428:300|412:348,2,120.000000298023
360,272,28415,6,0,P|328:296|288:312,1,60.000000298023
276,312,28805,1,0,0:0:0:0:
204,296,29195,1,0,0:0:0:0:
144,256,29584,1,0,0:0:0:0:
92,204,29974,1,0,0:0:0:0:
76,96,30364,1,0,0:0:0:0:
140,64,30753,1,0,0:0:0:0:
212,64,31143,1,0,0:0:0:0:
248,68,31338,1,0,0:0:0:0:
280,80,31532,5,0,0:0:0:0:
272,152,31922,2,0,P|336:124|352:76,1,120.000000298023
296,248,32701,1,0,0:0:0:0:
324,228,32896,1,0,0:0:0:0:
356,216,33091,1,0,0:0:0:0:
412,264,33480,2,0,P|428:200|396:152,2,120.000000298023
360,316,34649,6,0,P|280:320|216:288,1,120.000000298023
180,272,35428,1,0,0:0:0:0:
156,204,35818,1,0,0:0:0:0:
188,140,36208,1,0,0:0:0:0:
120,116,36597,2,0,P|56:144|-12:148,2,120.000000298023
188,88,37766,5,0,0:0:0:0:
248,48,38156,1,0,0:0:0:0:
320,48,38545,1,0,0:0:0:0:
388,64,38935,2,0,P|421:111|434:183,1,120.000000298023
360,161,39714,2,0,P|369:217|411:277,1,120.000000298023
152,161,40883,6,0,P|142:217|100:277,2,120.000000298023
202,109,42052,2,0,P|258:99|318:57,1,120.000000298023
382,66,42831,2,0,P|391:122|433:182,2,120.000000298023
316,36,44000,6,0,P|259:45|199:87,2,120.000000298023
372,80,45169,1,0,0:0:0:0:
392,152,45558,1,0,0:0:0:0:
400,224,45948,2,0,P|374:277|329:316,2,120.000000298023
372,156,47117,5,0,0:0:0:0:
316,112,47506,1,0,0:0:0:0:
252,144,47896,2,0,P|195:135|135:93,2,120.000000298023
256,192,50234,5,0,0:0:0:0:
256,276,51792,6,0,P|320:328|368:332,1,120.000000298023
352,236,52571,2,0,P|404:172|408:124,1,120.000000298023
312,148,53350,1,0,0:0:0:0:
268,60,53740,2,0,P|216:124|212:172,2,120.000000298023
80,88,55299,5,0,0:0:0:0:
160,144,55688,1,0,0:0:0:0:
256,148,56078,2,0,P|340:64|468:84,2,240.000000596046
256,244,58026,1,0,0:0:0:0:
324,312,58415,1,0,0:0:0:0:
412,276,58805,6,0,P|464:208|468:140,1,120.000000298023
432,88,59584,2,0,P|380:156|376:224,1,120.000000298023
256,192,60364,12,0,63870,0:0:0:0:
72,192,64649,6,0,P|128:144|136:76,2,120.000000298023
112,280,65818,6,0,P|160:336|228:344,2,120.000000298023
204,252,66987,2,0,P|271:221|297:158,1,120.000000298023
308,88,67766,1,0,0:0:0:0:
392,132,68156,1,0,0:0:0:0:
484,160,68545,2,0,P|461:198|394:228,1,120.000000298023
392,132,69325,2,0,P|316:216|308:340,1,240.000000596046
212,340,70493,1,0,0:0:0:0:
76,204,70883,6,0,P|132:184|212:212,2,120.000000298023
140,276,72052,1,0,0:0:0:0:
228,308,72441,1,0,0:0:0:0:
256,192,72831,12,0,76338,0:0:0:0:
136,256,76727,5,0,0:0:0:0:
196,180,77117,2,0,P|224:216|228:300,2,120.000000298023
116,128,78286,6,0,P|152:100|236:96,1,120.000000298023
396,128,79065,2,0,P|360:100|276:96,1,120.000000298023
256,184,79844,1,0,0:0:0:0:
308,264,80234,6,0,P|336:228|340:144,2,120.000000298023
256,184,81402,2,0,P|220:156|136:152,1,120.000000298023
52,168,82182,1,0,0:0:0:0:
84,80,82571,1,0,0:0:0:0:
316,128,83351,5,0,0:0:0:0:
420,108,83740,1,0,0:0:0:0:
356,40,84130,1,0,0:0:0:0:
388,200,84519,2,0,P|416:260|404:324,2,120.000000596046
324,272,85688,2,0,P|268:268|212:228,1,120.000000596046
296,180,86467,5,0,0:0:0:0:
324,272,86857,1,0,0:0:0:0:
232,248,87247,1,0,0:0:0:0:
244,344,87636,2,0,P|184:340|136:284,1,120.000000298023
48,288,88415,2,0,P|76:234|146:213,1,120.000000298023
220,244,89195,2,0,P|224:186|189:137,1,120.000000298023
108,84,89974,2,0,P|154:46|212:46,1,120.000000298023
308,68,90753,5,0,0:0:0:0:
384,128,91143,1,0,0:0:0:0:
416,36,91532,1,0,0:0:0:0:
484,104,91922,2,0,P|472:164|432:216,1,120.000000298023
352,252,92700,1,0,0:0:0:0:
332,348,93091,2,0,P|282:316|248:264,1,120.000000298023
256,192,93870,12,0,95818,0:0:0:0:
372,128,96208,5,0,0:0:0:0:
456,180,96597,1,0,0:0:0:0:
432,272,96987,2,0,P|408:320|360:368,2,120.000000596046
352,220,98156,2,0,P|308:284|132:308,1,240.000001192092
68,280,99325,1,0,0:0:0:0:
140,216,99714,1,0,0:0:0:0:
80,144,100104,6,0,P|140:124|200:144,2,120.000000298023
140,216,101273,2,0,P|200:236|260:216,1,120.000000298023
200,144,102052,2,0,P|316:148|336:276,1,240.000000596046
256,352,103221,5,0,0:0:0:0:
387,291,103611,1,0,0:0:0:0:
423,163,104000,1,0,0:0:0:0:
360,60,104390,1,0,0:0:0:0:
256,28,104780,1,0,0:0:0:0:
164,56,105169,1,0,0:0:0:0:
112,123,105559,1,0,0:0:0:0:
96,192,105948,1,0,0:0:0:0:
256,192,106338,12,0,107506,0:0:0:0:
256,192,107896,12,0,109065,0:0:0:0:
168,248,109454,6,0,P|116:212|96:144,2,120.000000298023
212,136,110623,1,0,0:0:0:0:
256,96,110818,1,0,0:0:0:0:
300,136,111013,1,0,0:0:0:0:
344,248,111402,2,0,P|396:212|416:144,2,120.000000298023
288,200,112571,6,0,P|256:232|252:276,1,60.0000001490115
244,304,112961,1,0,0:0:0:0:
124,324,113351,1,0,0:0:0:0:
47,233,113740,2,0,P|104:204|172:216,1,120.000000298023
340,68,114519,6,0,P|416:96|456:156,1,120.000000298023
464,192,115298,1,0,0:0:0:0:
404,192,115493,1,0,0:0:0:0:
344,192,115688,1,0,0:0:0:0:
340,316,116078,2,0,P|416:288|456:228,1,120.000000298023
340,192,116857,5,0,0:0:0:0:
280,192,117052,1,0,0:0:0:0:
220,192,117247,1,0,0:0:0:0:
64,244,117636,2,0,P|128:232|164:192,1,120.000000298023
68,120,118415,2,0,P|80:56|120:20,1,120.000000298023
188,120,119195,2,0,P|252:132|288:172,2,120.000000298023
68,120,120364,1,0,0:0:0:0:
408,240,121143,2,0,P|472:288|480:348,1,120.000000596046
408,144,121922,6,0,P|472:96|480:36,2,120.000000596046
300,88,123091,1,0,0:0:0:0:
188,44,123480,1,0,0:0:0:0:
300,88,123870,2,0,P|252:136|252:208,1,120.000000596046
128,176,124649,5,0,0:0:0:0:
12,140,125039,1,0,0:0:0:0:
128,176,125428,2,0,P|80:224|80:296,1,120.000000596046
192,284,126208,5,0,0:0:0:0:
288,212,126597,1,0,0:0:0:0:
192,284,126987,2,0,P|240:332|312:332,1,120.000000596046
388,268,127766,5,0,0:0:0:0:
288,212,128156,1,0,0:0:0:0:
388,268,128545,2,0,P|436:220|436:148,1,120.000000596046
372,80,129325,5,0,0:0:0:0:
260,36,129714,1,0,0:0:0:0:
372,80,130104,2,0,P|324:128|252:128,1,120.000000596046
180,120,130883,1,0,0:0:0:0:
256,192,131273,12,0,134000,0:0:0:0:
164,100,134389,6,0,P|112:168|52:192,2,120.000000298023
220,232,135558,1,0,0:0:0:0:
256,296,135753,1,0,0:0:0:0:
292,232,135948,1,0,0:0:0:0:
348,100,136337,2,0,P|400:168|460:192,2,120.000000298023
397,235,137506,5,0,0:0:0:0:
252,224,137896,1,0,0:0:0:0:
168,340,138286,1,0,0:0:0:0:
40,276,138675,1,0,0:0:0:0:
124,160,139065,1,0,0:0:0:0:
332,72,139454,6,0,P|428:100|452:136,1,120.000000298023
368,240,140234,1,0,0:0:0:0:
316,192,140428,1,0,0:0:0:0:
368,144,140623,1,0,0:0:0:0:
438,272,141013,2,0,P|428:284|332:312,1,120.000000298023
188,300,141792,5,0,0:0:0:0:
116,288,141987,1,0,0:0:0:0:
76,228,142182,1,0,0:0:0:0:
220,208,142571,2,0,P|252:132|244:68,2,120.000000596046
159,77,143740,5,0,0:0:0:0:
288,12,144130,1,0,0:0:0:0:
432,24,144519,1,0,0:0:0:0:
436,168,144909,1,0,0:0:0:0:
292,156,145298,1,0,0:0:0:0:
292,300,145688,6,0,P|348:244|364:188,2,120.000000596046
148,300,146857,1,0,0:0:0:0:
72,176,147247,1,0,0:0:0:0:
152,56,147636,1,0,0:0:0:0:
296,52,148026,2,0,P|388:96|352:216,2,240.000000596046
152,56,149974,6,0,P|96:100|72:180,2,120.000000298023
75,240,151143,2,0,P|96:284|152:328,1,120.000000298023
296,352,151922,5,0,0:0:0:0:
424,285,152312,1,0,0:0:0:0:
304,207,152701,1,0,0:0:0:0:
424,284,153091,2,0,P|455:230|428:156,1,120.000000298023
304,208,153870,2,0,P|169:280|101:248,1,240.000000596046
212,156,155039,2,0,P|153:202|93:193,2,120.000000298023
284,32,156208,5,0,0:0:0:0:
424,72,156597,1,0,0:0:0:0:
396,212,156987,2,0,P|436:160|428:104,1,120.000000596046
304,180,157766,5,0,0:0:0:0:
168,224,158156,1,0,0:0:0:0:
216,360,158545,2,0,P|172:324|168:260,1,120.000000596046
256,192,159324,12,0,162441,0:0:0:0:
