osu file format v5

[General]
AudioFilename: 23-bara-no-jubai.mp3
AudioLeadIn: 0
PreviewTime: -1
Countdown: 1
SampleSet: Normal
StackLeniency: 0.6
Mode: 0
LetterboxInBreaks: 1

[Metadata]
Title:Bara no Jubai
Artist:Mitsumune Shinkichi
Creator:Tsuki_no_Kikyou
Version:Normal
Source:
Tags:Rozen Maiden

[Difficulty]
HPDrainRate:3
CircleSize:4
OverallDifficulty:4
SliderMultiplier:1.3
SliderTickRate:2

[Events]
//Background and Video events
0,0,"313864.jpg"
//Break Periods
//Storyboard Layer 0 (Background)
//Storyboard Layer 1 (Failing)
//Storyboard Layer 2 (Passing)
//Storyboard Layer 3 (Foreground)
//Storyboard Sound Samples
//Background Colour Transformations
3,100,0,0,202

[TimingPoints]
2016.52626418396,410.396716826265,4,1,0,67,1,0

[Colours]
Combo1 : 255,255,255
Combo2 : 5,240,5
Combo3 : 5,5,240
Combo4 : 240,5,5
Combo5 : 255,150,0

[HitObjects]
96,256,13507,1,2
96,192,13918,1,0
96,128,14328,1,8
224,128,15149,1,2
224,192,15559,1,0
224,256,15970,1,8
416,128,16790,5,2
416,192,17201,1,0
416,256,17611,1,8
288,128,18432,1,2
288,192,18842,1,0
288,256,19253,1,8
96,64,20073,5,2
160,96,20484,1,0
96,128,20894,1,8
94,136,21715,1,2
160,96,22125,1,0
96,64,22536,1,8
384,288,23357,5,2
448,256,23767,1,0
384,224,24177,1,8
376,219,24998,1,2
448,256,25409,1,0
384,288,25819,1,8
128,64,26640,5,2
192,128,27050,1,0
256,192,27461,1,8
256,204,28281,1,2
320,256,28692,1,0
384,320,29102,1,8
384,64,29923,5,2
320,128,30333,1,0
256,192,30744,1,8
256,179,31565,1,2
192,256,31975,1,0
128,320,32385,1,8
96,224,33206,5,2
160,160,33617,1,0
224,224,34027,1,8
416,160,34848,1,2
352,224,35258,1,0
288,160,35669,1,8
224,64,36489,5,2
288,128,36900,1,0
224,192,37310,1,8
288,320,38131,1,2
224,256,38541,1,0
288,192,38952,1,8
128,64,39773,5,2
384,64,40183,1,0
256,192,40593,1,8
128,320,41414,1,2
384,320,41825,1,0
256,192,42235,1,8
288,192,43056,5,2
256,160,43466,1,0
224,192,43876,1,8
256,224,44697,1,2
288,192,45108,1,0
256,160,45518,1,8
256,64,46339,5,2
384,192,46749,1,0
128,192,47160,1,8
256,320,47980,1,2
256,192,48391,1,0
256,64,48801,1,8
128,288,49622,5,2
384,288,50032,1,0
256,192,50443,1,8
128,128,51264,1,2
384,128,51674,1,0
256,288,52084,1,8
96,192,52905,5,2
160,192,53316,1,0
224,192,53726,1,8
288,192,54547,1,2
352,192,54957,1,0
416,192,55368,1,8
64,288,56188,5,2
64,192,56599,1,0
64,96,57009,1,8
448,96,57830,1,2
448,192,58240,1,0
448,288,58651,1,8
64,288,59472,5,2
64,96,59882,1,0
256,96,60292,1,8
448,96,61113,1,2
448,320,61524,1,0
256,320,61934,1,8
64,320,62755,5,2
64,256,63165,1,0
128,288,63576,1,8
128,224,64396,1,2
192,192,64807,1,0
128,160,65217,1,8
448,320,66038,5,4
448,256,66448,1,4
384,288,66859,1,10
384,224,67680,1,4
320,192,68090,1,4
384,160,68500,1,10
160,96,69321,5,4
256,192,69731,1,4
352,288,70142,1,10
352,96,70963,1,4
256,192,71373,1,4
160,288,71783,1,10
416,192,72604,5,4
96,192,73015,1,4
256,192,73425,1,10
256,64,74246,1,4
256,320,74656,1,4
256,192,75067,1,10
416,192,75887,5,4
256,96,76298,1,4
96,192,76708,1,10
103,201,77529,1,4
256,288,77939,1,4
416,192,78350,1,10
352,288,79171,5,4
352,96,79581,1,4
128,96,79991,1,10
128,288,80812,1,4
352,288,81223,1,4
256,192,81633,1,10
256,202,82454,5,4
384,288,82864,1,4
128,288,83275,1,10
128,96,84095,1,4
384,96,84506,1,4
256,192,84916,1,10
64,64,85737,5,4
32,128,86147,1,4
128,64,86558,1,10
96,128,87379,1,4
160,128,87789,1,4
64,192,88199,1,10
128,192,89020,5,4
96,256,89431,1,4
192,192,89841,1,10
160,256,90662,1,4
224,256,91072,1,4
128,320,91483,1,10
320,192,92303,5,6
256,128,92714,1,6
192,192,93124,1,6
256,256,93945,5,6
320,192,94355,1,6
256,128,94766,1,6
288,192,95586,5,10
224,192,95997,1,10
256,160,96818,1,10
256,224,97638,1,10
256,192,98459,1,0
256,192,98459,12,4,100511
