osu file format v9

[General]
AudioFilename: mp3.mp3
AudioLeadIn: 2000
PreviewTime: 129834
Countdown: 0
SampleSet: Normal
StackLeniency: 0.7
Mode: 0
LetterboxInBreaks: 0

[Editor]
Bookmarks: 20139,40139,60139,80139,100139,120139,140139,160139,170139,180139,190139,210139,220139,230139,240139,250139,40470
DistanceSpacing: 1
BeatDivisor: 4
GridSize: 8

[Metadata]
Title:Disappearing Queen
Artist:Mitsuki Nakae
Creator:KuraiPettan
Version:Normal
Source:Touhou
Tags:Aizawa Hachimitsu-Lemon comiket 77 C77 ZUN Complete Darkness Mima Story of Eastern Wonderland Kite bossandy Fight69

[Difficulty]
HPDrainRate:3
CircleSize:3
OverallDifficulty:2
ApproachRate:4
SliderMultiplier:1.2
SliderTickRate:2

[Events]
//Background and Video events
0,0,"BG.jpg"
//Break Periods
2,80347,88827
2,150347,158827
2,170347,178827
//Storyboard Layer 0 (Background)
//Storyboard Layer 1 (Fail)
//Storyboard Layer 2 (Pass)
//Storyboard Layer 3 (Foreground)
//Storyboard Sound Samples
//Background Colour Transformations
3,100,163,162,255

[TimingPoints]
147,312.5,4,1,1,70,1,0
147,-133.333333333333,4,1,1,70,0,0
20147,-100,4,1,1,70,0,0
24365,-100,4,2,0,100,0,0
24678,-100,4,1,1,70,0,0
34365,-100,4,2,1,100,0,0
34678,-100,4,1,1,70,0,0
60147,-133.333333333333,4,1,1,70,0,0
69834,-100,4,1,1,70,0,0
109834,-133.333333333333,4,1,1,70,0,0
119990,-100,4,1,1,70,0,0
130147,-100,4,1,1,70,0,1
134365,-100,4,2,0,100,0,1
134678,-100,4,1,1,70,0,1
144365,-100,4,2,0,100,0,1
144678,-100,4,1,1,70,0,1
150107,-100,4,1,1,70,0,0
150147,-100,4,1,1,70,0,1
150186,-100,4,1,1,70,0,0
190147,-100,4,1,1,70,0,1
194365,-100,4,2,0,100,0,1
194678,-100,4,1,1,70,0,1
204365,-100,4,2,0,100,0,1
204678,-100,4,1,1,70,0,1
209522,-100,4,1,1,70,0,0
210147,-100,4,1,1,70,0,1
214365,-100,4,2,0,100,0,1
214678,-100,4,1,1,70,0,1
220147,-100,4,1,1,70,0,0
224365,-100,4,2,0,100,0,0
224678,-100,4,1,1,70,0,0

[Colours]
Combo1 : 117,182,73
Combo2 : 218,160,27
Combo3 : 17,90,227
Combo4 : 232,13,112

[HitObjects]
360,64,147,2,0,B|320:112|328:184|376:224,1,134.999995976687
256,288,1084,1,0
163,190,1553,2,0,B|181:159|192:104|144:56,1,134.999995976687,0|8
328,88,2647,5,0
368,216,3115,1,0
256,288,3584,1,0
144,216,4053,1,0
184,88,4522,1,2
326,192,5147,6,0,B|374:216|390:272|374:328,2,134.999995976687
192,192,6553,2,0,B|144:216|128:272|144:328,1,134.999995976687,0|8
64,144,7647,5,0
152,40,8115,1,0
256,128,8584,1,0
360,40,9053,1,0
448,144,9522,1,2
256,192,10147,12,0,12647
344,256,13584,2,0,B|323:287|327:321|327:321|297:302|258:302,1,134.999995976687,0|0
160,216,14522,1,8
256,64,15147,6,0,B|296:136|384:160,1,134.999995976687
336,280,16084,2,0,B|296:208|208:184,1,134.999995976687,0|0
16,192,17178,1,8
256,192,17647,12,4,18897
32,192,20147,5,0
173,91,20615,2,0,B|232:40|288:160|337:94,2,180
144,272,22022,5,0
256,320,22334,1,8
368,272,22647,1,0
400,96,23115,5,0
256,208,23584,1,2
112,96,24053,1,0
184,264,24522,6,0,B|148:330|62:330,2,120,2|2|0
248,96,25615,2,0,B|248:72|260:39|296:24|342:25|370:65|373:108|336:144,2,180,0|8|0
184,264,27022,2,0,B|166:280|137:295|111:292|87:275|63:257|67:218,1,120
96,136,27647,5,0
256,56,28115,1,0
416,136,28584,1,8
272,248,29053,2,0,B|56:320,1,180,2|0
168,200,29834,2,0,B|312:152,1,120,0|4
480,232,30615,5,8
312,288,31084,1,8
344,112,31553,1,8
144,208,32022,6,0,B|104:208|72:192|48:144|64:96,1,120,0|8
176,104,32647,2,0,B|232:104|277:126|311:194|288:261,1,180,0|2
464,160,33584,2,0,B|324:338,1,180,0|2
176,272,34522,6,0,B|136:352|48:344,2,120,2|0|4
104,104,35615,1,8
256,192,36084,1,0
408,280,36553,1,8
336,112,37022,2,0,B|376:32|464:40,2,120,0|2|4
256,192,37803,12,4,40147
256,80,41709,6,0,B|232:64|176:56|144:112,1,120,0|2
104,216,42334,1,0
224,248,42647,2,0,B|269:256|309:249|358:229|385:188|400:159,2,180,0|8|8
432,104,44209,6,0,B|376:72|304:96,1,120,8|0
195,92,44834,2,0,B|132:72|78:103,1,120,8|0
256,264,45772,2,0,B|184:176|328:120|248:32,1,240,0|8
424,240,47022,5,0
312,200,47334,2,0,B|232:168|176:224,1,120,8|0
112,48,48115,2,0,B|24:224,1,180,2|2
152,176,48897,2,0,B|128:240|128:304,1,120,8|0
240,240,49522,1,8
320,328,49834,1,0
432,296,50147,6,4,B|368:256|408:168,1,120,4|2
192,72,51084,1,2
168,312,51709,1,2
272,248,52022,2,0,B|258:198|216:176|168:184,1,120,0|2
80,248,52647,2,0,B|40:160|72:56,1,180,0|8
248,56,53584,1,2
368,72,53897,6,0,B|440:192|432:320,1,240
320,336,54834,1,0
240,256,55147,1,0
208,136,55459,2,0,B|144:128|120:48,2,120,2|0|2
440,192,56709,1,2
360,288,57022,5,0
256,224,57334,2,0,B|216:176|128:176,1,120,8|4
376,88,58272,1,2
304,320,58897,1,8
136,144,59522,1,2
296,64,60147,6,0,B|312:144|392:160,2,134.999995976687,4|0|0
216,96,61397,2,8,B|192:176|192:240,1,134.999995976687
80,296,62334,5,0
168,328,62647,2,0,B|200:296|256:360|304:320,1,134.999995976687,2|2
376,216,63584,1,0
328,144,63897,2,0,B|288:112|296:48|296:56|296:56|272:72|248:80|216:72,1,179.999994635582,10|12
40,72,65147,5,2
128,176,65615,2,0,B|88:224|100:282|137:311,1,134.999995976687,2|2
192,240,66397,2,0,B|204:287|240:304|280:300|309:277,1,134.999995976687,2|0
352,160,67334,5,0
392,80,67647,1,2
256,56,68115,1,0
120,80,68584,1,2
160,160,68897,1,12
408,320,70147,5,4
256,232,70615,1,4
104,320,71084,1,2
144,208,71397,2,0,B|88:168|80:112|104:48,2,180,4|2|0
224,120,72647,5,8
392,192,73115,1,8
216,240,73584,2,0,B|152:256|120:328,1,120,0|8
96,80,74522,1,4
256,264,75147,6,0,B|256:192|344:192|344:112,1,180,2|2
456,256,76084,1,8
456,136,76397,1,2
296,56,76865,2,0,B|248:128|152:168,1,180,0|2
48,112,77647,2,0,B|88:216|64:320,1,180,0|8
256,192,78272,12,4,80147
257,209,90147,6,0,B|217:145|305:113|255:36,2,180,4|2|2
376,184,91397,1,8
320,288,91709,1,2
200,288,92022,2,0,B|136:304|112:368,2,120,8|2|8
200,104,93115,1,0
40,176,93584,1,2
232,320,94209,5,8
304,224,94522,2,0,B|339:157|420:167,1,120,0|8
400,280,95147,2,0,B|336:160|272:56,2,240,0|8|0
160,264,97022,5,8
56,208,97334,1,2
80,88,97647,1,0
256,128,98115,1,2
432,88,98584,1,0
456,208,98897,2,0,B|493:229|500:267|496:296|474:333|448:344|408:336,1,180,0|10
256,320,99834,1,0
184,224,100147,6,0,B|128:192|136:120,1,120,12|2
368,56,101084,2,0,B|482:121|465:268,1,240,2|2
360,312,102022,1,8
256,256,102334,1,2
152,312,102647,2,0,B|81:316|52:219|124:171,1,180
272,104,103584,1,0
392,88,103897,5,0
344,320,104522,1,0
104,296,105147,1,0
152,64,105772,1,0
256,304,107022,5,8
176,216,107334,1,2
296,208,107647,2,0,B|408:192|432:80,1,180,0|8
128,72,108897,2,0,B|96:160|160:232|120:320,1,240
304,304,110147,6,0,B|328:232|408:224,2,134.999995976687,12|2|0
392,312,111397,2,0,B|328:264|312:184,1,134.999995976687,0|2
344,72,112334,6,0,B|304:112|248:136,1,89.9999973177911
152,64,113115,1,2
112,192,113584,1,0
200,192,113897,2,0,B|208:240|173:294|125:299|83:291|65:274,1,179.999994635582,0|10
256,336,115147,5,0
376,272,115615,2,0,B|408:224|424:184|440:128|440:112,1,134.999995976687,0|8
344,136,116397,2,0,B|304:216|224:232,1,134.999995976687,0|2
168,120,117334,5,0
144,208,117647,1,0
256,280,118115,2,0,B|296:240|360:216|400:232,1,134.999995976687
464,240,118897,1,8
144,80,120147,6,0,B|152:144|120:200|32:192,2,180,12|2|8
256,128,121397,2,0,B|256:320,2,180,8|2|8
368,80,122647,6,0,B|360:144|392:200|480:192,2,180,8|2|8
256,128,123897,1,8
256,128,124522,1,0
73,281,125147,5,2
57,105,125615,1,0
193,225,126084,1,2
319,225,126397,1,0
455,105,126865,1,2
439,281,127334,1,0
328,328,127647,2,0,B|288:328|256:376|256:376|224:328|176:328,1,180
256,192,128272,12,4,129522
256,144,130147,5,0
128,72,130615,2,0,B|168:136|152:192|96:240,1,180,0|2
192,312,131397,1,2
256,144,131865,1,0
320,312,132334,5,2
408,232,132647,2,0,B|348:179|353:116|385:71,2,180
304,288,133897,2,0,B|259:241|243:190|241:134|256:96|264:72|288:48,1,240,0|2
480,192,135147,5,8
376,336,135615,1,0
192,328,136084,2,0,B|104:232,1,120,8|8
88,64,136865,2,0,B|208:200,1,180,2|0
288,288,137647,2,0,B|318:313|355:324|393:314|429:296|444:260,2,180,2|0|2
400,72,140147,5,12
256,184,140615,2,0,B|256:240|176:264|176:352,1,180,0|2
112,240,141397,2,0,B|112:168|72:120|16:88,2,180,0|2|0
224,280,142647,5,8
384,312,143115,2,0,B|320:248|328:184|352:136,1,180,0|2
392,40,143897,2,0,B|152:88,1,240,0|2
88,312,145147,5,8
256,248,145615,1,0
424,312,146084,1,8
424,192,146397,1,0
256,128,146865,1,8
88,192,147334,2,0,B|40:304,1,120,0|4
256,192,147803,12,4,150147
141,78,160147,6,0,B|265:89|248:298|387:321,1,360,4|2
456,224,161397,2,0,B|375:211|354:129|313:76,1,180,8|2
152,80,162334,1,0
80,176,162647,2,0,B|155:219|144:304|104:344,1,180,12|2
296,88,163897,6,0,B|342:61|386:57|432:80|461:121|467:176|448:216|424:248|381:256|344:264|319:236,1,360
240,328,165147,5,0
150,106,165772,1,2
240,328,166397,1,8
388,135,167022,1,2
150,106,167647,1,8
256,192,167803,12,4,170147
104,64,180147,5,12
256,152,180615,1,2
408,64,181084,1,0
368,176,181397,2,0,B|424:216|432:272|408:336,2,180,0|2|0
288,264,182647,5,8
120,192,183115,1,0
296,144,183584,2,0,B|360:128|392:56,1,120,2|0
416,304,184522,1,2
256,120,185147,6,0,B|256:192|168:192|168:272,1,180,2|0
56,128,186084,1,2
56,248,186397,1,0
216,328,186865,2,0,B|264:256|360:216,1,180,2|0
464,272,187647,2,0,B|424:168|448:64,1,180
256,192,188272,12,12,189522
256,264,190147,5,0
256,48,190615,1,8
144,192,191084,2,0,B|112:256|120:312,1,120,0|2
256,192,191865,1,0
392,307,192334,6,0,B|398:242|363:184,1,120,0|2
256,48,193115,1,8
256,232,193584,1,0
160,160,193897,2,0,B|96:232|168:296|128:352|56:360,1,240,2|2
304,320,195147,6,0,B|320:248|384:216|448:248,2,180,8|2|8
256,208,196397,2,0,B|256:24,2,180,8|2|8
208,320,197647,2,0,B|192:248|128:216|64:248,2,180,8|2|8
256,208,198897,2,0,B|312:152|368:136|424:144|464:152|488:168,2,240,0|0|4
256,48,200615,5,2
144,192,201084,2,0,B|136:256|72:288,1,120,2|0
256,312,201865,1,2
368,192,202334,6,0,B|376:256|440:288,1,120,0|2
344,112,203115,2,0,B|256:80|256:80|176:112,1,180,8|0
64,160,203897,2,0,B|144:200|160:288|128:376,1,240,2|2
304,208,205147,6,0,B|275:133|275:133|405:87,2,180,12|0|0
200,152,206397,2,0,B|228:226|228:226|98:272,2,180,8|8|8
256,192,207647,12,4,209522
56,192,210147,2,0,B|216:328,1,180,12|0
368,328,211084,2,0,B|272:240,1,120,0|10
152,120,211865,1,0
320,64,212334,5,2
424,120,212647,1,0
288,240,213115,1,0
320,64,213584,1,2
200,72,213897,2,0,B|128:88|80:136|64:192|72:264,1,240,0|2
312,272,215147,5,8
448,160,215615,1,0
272,112,216084,1,2
232,224,216397,2,0,B|208:304|128:336|56:312,2,180,0|2|0
112,208,217647,2,0,B|136:128|216:96|288:120,2,180,0|8|8
80,96,218897,2,0,B|120:56|168:32|208:24|240:32|264:32|288:32|320:48,1,240
256,240,220147,5,4
384,312,220615,2,0,B|344:248|360:192|416:144,1,180,0|2
320,72,221397,1,2
256,240,221865,1,0
192,72,222334,5,2
104,152,222647,2,0,B|164:205|159:268|127:313,2,180
208,96,223897,2,0,B|253:143|269:194|271:250|256:288|248:312|224:336,1,240,0|2
32,192,225147,5,8
136,48,225615,1,0
320,56,226084,2,0,B|408:152,1,120,8|8
352,256,226709,2,8,B|240:128,2,120
232,280,227647,6,4,B|208:312|174:331|135:330|96:320|73:288,2,180
256,192,228740,12,12,230147
