osu file format v9

[General]
AudioFilename: mp3.mp3
AudioLeadIn: 2000
PreviewTime: 129834
Countdown: 0
SampleSet: Normal
StackLeniency: 0.7
Mode: 0
LetterboxInBreaks: 0

[Editor]
Bookmarks: 20139,40139,60139,80139,100139,120139,140139,160139,170139,180139,190139,210139,220139,230139,240139,250139
DistanceSpacing: 0.7
BeatDivisor: 4
GridSize: 4

[Metadata]
Title:Disappearing Queen
Artist:Mitsuki Nakae
Creator:KuraiPettan
Version:Collab
Source:Touhou
Tags:Aizawa Hachimitsu-Lemon comiket 77 C77 ZUN Complete Darkness Mima Story of Eastern Wonderland Kite bossandy Fight69

[Difficulty]
HPDrainRate:7
CircleSize:4
OverallDifficulty:7
ApproachRate:9
SliderMultiplier:1.7
SliderTickRate:2

[Events]
//Background and Video events
0,0,"BG.jpg"
//Break Periods
2,170347,179547
//Storyboard Layer 0 (Background)
//Storyboard Layer 1 (Fail)
//Storyboard Layer 2 (Pass)
//Storyboard Layer 3 (Foreground)
Sprite,Foreground,Centre,"Kite.png",320,240 L,139,1 M,0,0,312,91,332,105,304 F,0,0,312,0,1 S,0,0,312,0.9759994,0.9439992 F,0,312,19375,1 F,0,19375,19687,1,0 L,40139,1 M,0,0,312,91,332,105,304 F,0,0,312,0,1 S,0,0,312,0.9759994,0.9439992 F,0,312,19375,1 F,0,19375,19687,1,0 L,80139,1 M,0,0,312,91,332,105,304 F,0,0,312,0,1 S,0,0,312,0.9759994,0.9439992 F,0,312,19375,1 F,0,19375,19687,1,0 L,120139,1 M,0,0,312,91,332,105,304 F,0,0,312,0,1 S,0,0,312,0.9759994,0.9439992 F,0,312,19375,1 F,0,19375,19687,1,0 L,160139,1 M,0,0,312,91,332,105,304 F,0,0,312,0,1 S,0,0,312,0.9759994,0.9439992 F,0,312,8375,1 F,0,8375,8687,1,0 L,190139,1 M,0,0,312,91,332,105,304 F,0,0,312,0,1 S,0,0,312,0.9759994,0.9439992 F,0,312,19375,1 F,0,19375,19687,1,0 L,220139,1 M,0,0,312,91,332,105,304 F,0,0,312,0,1 S,0,0,312,0.9759994,0.9439992 F,0,312,8375,1 F,0,8375,8687,1,0
Sprite,Foreground,Centre,"Kurai.png",320,240 L,20139,1 S,0,0,,0.8800002 M,0,0,312,79,123,120,194 F,0,0,312,0,1 F,0,312,19375,1 F,0,19375,19687,1,0 L,60139,1 S,0,0,,0.8800002 M,0,0,312,79,123,120,194 F,0,0,312,0,1 F,0,312,19375,1 F,0,19375,19687,1,0 L,100139,1 S,0,0,,0.8800002 M,0,0,312,79,123,120,194 F,0,0,312,0,1 F,0,312,19375,1 F,0,19375,19687,1,0 L,140139,1 S,0,0,,0.8800002 M,0,0,312,79,123,120,194 F,0,0,312,0,1 F,0,312,19375,1 F,0,19375,19687,1,0 L,180139,1 S,0,0,,0.8800002 M,0,0,312,79,123,120,194 F,0,0,312,0,1 F,0,312,8375,1 F,0,8375,8687,1,0 L,210139,1 S,0,0,,0.8800002 M,0,0,312,79,123,120,194 F,0,0,312,0,1 F,0,312,8375,1 F,0,8375,8687,1,0
//Storyboard Sound Samples
//Background Colour Transformations
3,100,163,162,255

[TimingPoints]
147,312.5,4,1,1,70,1,0
147,-133.333333333333,4,1,1,70,0,0
20147,-100,4,1,1,70,0,0
24482,-100,4,2,0,100,0,0
24561,-100,4,1,1,70,0,0
34443,-100,4,2,0,100,0,0
34600,-100,4,1,1,70,0,0
39834,-100,4,1,1,5,0,0
40147,-100,4,1,1,70,0,0
60147,-133.333333333333,4,1,1,60,0,0
69834,-100,4,1,1,70,0,0
110068,-133.333333333333,4,1,1,70,0,0
120147,-100,4,1,1,70,0,0
130147,-100,4,1,1,70,0,1
134482,-100,4,2,0,100,0,1
134561,-100,4,1,1,70,0,1
144482,-100,4,2,0,100,0,1
144561,-100,4,1,1,70,0,1
150107,-100,4,1,1,70,0,0
150147,-100,4,1,1,70,0,1
150186,-100,4,1,1,70,0,0
190147,-100,4,1,1,70,0,1
194482,-100,4,2,0,100,0,1
194561,-100,4,1,1,70,0,1
204482,-100,4,2,0,100,0,1
204561,-100,4,1,1,70,0,1
209522,-100,4,1,1,70,0,0
210147,-100,4,1,1,70,0,1
214482,-100,4,2,0,100,0,1
214561,-100,4,1,1,70,0,1
220147,-133.333333333333,4,1,1,70,0,0
224482,-133.333333333333,4,2,0,100,0,0
224561,-133.333333333333,4,1,1,70,0,0
225147,-100,4,1,1,70,0,0

[Colours]
Combo1 : 117,182,73
Combo2 : 218,160,27
Combo3 : 17,90,227
Combo4 : 232,13,112

[HitObjects]
256,264,147,2,0,B|304:296|384:272|368:216|424:208,1,191.249994300306,4|8
256,120,1084,2,0,B|208:88|128:112|144:168|88:176,1,191.249994300306,0|8
200,328,2022,1,0
256,296,2178,1,0
312,328,2334,1,8
304,200,2647,6,0,B|360:240|424:216,1,127.499996200204,4|0
424,215,3115,1,8
208,184,3584,2,0,B|152:144|88:168,1,127.499996200204
87,168,4053,1,8
256,88,4522,2,0,B|248:64|248:64|256:28,2,63.749998100102,0|0|8
296,208,5147,6,0,B|336:240|344:280|320:320,1,127.499996200204,4|0
319,320,5615,1,8
192,320,5928,1,0
192,320,6084,2,0,B|168:280|176:240|216:208,1,127.499996200204
216,207,6553,1,8
256,72,6865,1,0
256,72,7022,2,0,B|260:104|260:104|256:136,2,63.749998100102,0|0|8
128,88,7647,6,0,B|160:168|80:240|96:272,1,191.249994300306,4|8
416,270,8584,2,0,B|432:240|352:168|384:88,1,191.249994300306,0|8
256,296,9522,1,0
256,232,9678,1,0
256,168,9834,1,8
200,56,10147,6,0,B|224:24|288:24|312:56,1,127.499996200204,4|0
344,112,10615,2,0,B|392:200|352:296,1,191.249994300306,8|0
160,296,11553,2,0,B|120:200|168:112,1,191.249994300306,0|8
256,208,12334,1,8
320,96,12647,6,0,B|344:168|424:168|448:232,1,191.249994300306,4|8
192,288,13584,2,0,B|168:216|88:216|64:152,2,191.249994300306,0|8|8
256,40,15147,6,0,B|184:48|160:112,1,127.499996200204,4|0
128,168,15615,2,0,B|192:224|184:280,1,127.499996200204,8|0
200,336,16084,2,0,B|256:376|320:336,1,127.499996200204
327,276,16553,2,0,B|320:224|384:168,1,127.499996200204,8|0
352,112,17022,2,0,B|328:48|256:40,1,127.499996200204,0|8
256,192,17647,12,8,20147
256,48,20459,6,0,B|256:144,1,85,2|0
128,288,20928,2,0,B|211:240,1,85,0|8
384,288,21397,2,0,B|300:240,1,85,0|8
424,120,21865,6,0,B|424:168|384:200,1,85
344,128,22178,1,0
328,136,22256,1,0
312,144,22334,1,2
248,88,22490,1,0
192,152,22647,6,0,B|159:192|126:209|63:195|43:145,1,170,0|2
116,107,23115,2,0,B|137:148|149:191|137:250|102:291,1,170
56,336,23584,1,8
224,312,23897,1,0
304,296,24053,1,0
384,144,24365,5,0
384,144,24443,1,0
384,144,24522,2,0,B|368:104|312:96,1,85,2|0
248,56,24834,1,8
176,104,24990,1,0
152,184,25147,6,0,B|160:240|124:279|90:299|36:290,1,170,0|2
54,196,25615,2,0,B|190:316,1,170
279,297,26084,2,0,B|143:177,1,170,8|0
88,128,26553,1,0
256,96,26865,5,0
328,144,27022,1,0
368,72,27178,2,0,B|416:103|416:160,1,85,0|8
400,224,27490,2,0,B|392:264,2,42.5,0|0|0
224,192,27959,5,2
168,256,28115,2,0,B|126:213|133:162|154:121|211:109,1,170,8|0
256,64,28584,1,8
344,104,28740,1,8
440,64,28897,1,0
456,192,29053,1,2
472,320,29209,1,2
208,336,29522,6,0,B|184:296|192:256,1,85,2|0
256,192,29834,1,8
320,254,29990,2,0,B|328:304|301:340,1,85,0|4
104,112,30459,5,2
168,168,30615,1,0
256,32,30928,1,0
256,120,31084,1,8
408,112,31397,1,0
344,168,31553,1,8
256,312,31865,5,0
256,296,31943,1,0
256,280,32022,1,0
188,228,32178,2,0,B|188:180|212:148,1,85,0|2
324,228,32490,2,0,B|324:180|300:148,1,85
464,192,32959,5,2
448,272,33115,2,0,B|433:325|400:368|344:368|304:338,1,170,8|0
237,348,33584,2,0,B|237:300|269:260|313:260|350:259|373:285,1,170,8|0
322,349,34053,2,0,B|219:174,1,170,2|0
168,248,34522,5,2
152,168,34678,1,0
216,112,34834,1,0
296,136,34990,1,0
368,88,35147,1,8
440,240,35459,5,2
440,240,35615,2,0,B|475:301|438:354|392:380|335:365|293:301|327:248,1,255,0|8
72,240,36553,2,0,B|36:301|73:354|119:380|176:365|218:301|184:248,1,255,2|8
192,200,37178,1,0
200,112,37334,1,8
256,48,37490,1,0
328,96,37647,6,0,B|336:180|390:252,1,170,4|0
472,232,38115,2,0,B|488:274|463:323|435:347|394:354|349:328,1,170,4|0
300,314,38584,1,8
176,272,38740,1,0
64,336,38897,1,0
256,192,39053,12,0,39834
312,336,40147,6,0,B|408:312|408:208,1,170,4|2
320,64,40772,1,8
256,120,40928,1,0
192,64,41084,2,0,B|112:64|112:64|128:48|128:48|56:48,1,170,2|8
52,132,41553,1,0
52,132,41709,2,0,B|40:304,1,170,2|8
124,324,42178,1,0
176,256,42334,6,0,B|216:224|224:176|208:128|176:104,1,170,2|8
344,56,42959,1,2
400,120,43115,1,0
456,184,43272,1,8
312,304,43584,2,0,B|312:256|348:228,2,85,2|0|8
256,88,44209,6,0,B|232:48|184:40,1,85,2|0
56,48,44522,2,0,B|88:72|128:104,1,85,8|0
248,200,44834,2,0,B|216:176|176:144,1,85,2|0
96,184,45147,2,0,B|136:224|136:304|72:336,1,170,12|2
44,252,45615,1,0
44,252,45772,2,0,B|212:284,1,170,8|2
268,348,46240,2,0,B|308:308|316:232|236:196,1,170
250,203,46709,1,2
60,48,47022,6,0,B|100:32|144:40,1,85,8|0
288,88,47334,2,0,B|248:104|204:96,1,85,2|0
120,112,47647,2,0,B|48:168|72:264,1,170,8|2
172,352,48115,2,0,B|244:296|220:200,1,170
208,116,48584,2,0,B|188:72|144:64,1,85,2|0
20,96,48897,2,0,B|40:140|84:148,1,85,8|0
116,228,49209,1,8
192,260,49365,2,0,B|168:324|80:328|40:272,1,170
116,228,49834,6,0,B|84:60,2,170,8|6|2
172,292,50615,1,0
244,340,50772,1,8
412,316,51084,1,2
364,244,51240,1,0
296,192,51397,1,8
216,168,51553,1,0
132,164,51709,6,0,B|68:140|56:68|96:20,2,170,2|8|2
156,84,52490,1,0
156,84,52647,2,0,B|328:84,1,170,8|2
424,184,53115,2,0,B|256:184,1,170
254,184,53584,1,2
208,256,53740,1,0
128,284,53897,6,0,B|56:224|88:128,1,170,8|2
172,120,54365,1,0
272,32,54522,2,0,B|344:92|312:188,1,170,8|2
228,196,54990,1,0
212,280,55147,2,0,B|256:340|328:332|376:284,1,170,8|2
440,260,55615,1,0
440,260,55772,2,0,B|396:200|324:208|276:256,1,170,0|2
212,280,56240,1,0
56,236,56397,1,8
144,144,56553,1,0
32,48,56709,1,2
296,60,57022,6,0,B|332:32|376:52,2,85,8|0|2
340,132,57490,1,0
260,164,57647,2,0,B|212:108|148:116|108:156,1,170,12|2
32,192,58115,2,0,B|80:248|144:240|184:200,1,170
260,164,58584,1,2
344,164,58740,1,0
380,244,58897,2,0,B|344:324|256:368|156:360|84:312,1,340,12|8
76,296,59600,1,0
72,276,59678,1,0
76,256,59756,1,0
88,240,59834,1,2
320,192,60147,6,0,B|456:40,2,191.249994300306,4|8|0
192,192,61397,2,0,B|56:344,2,191.249994300306,0|8|0
374,193,62647,5,0
197,88,63115,1,0
195,294,63584,1,0
256,192,63897,1,0
256,192,64522,1,8
352,352,65147,6,0,B|464:336|480:200,2,191.249994300306,0|8|0
352,224,66397,2,0,B|232:240|224:376,2,191.249994300306,0|8|0
440,128,67647,1,0
256,80,68115,1,8
72,128,68584,1,0
256,192,68897,12,8,69834
256,192,70147,5,4
312,352,70459,2,0,B|360:256,1,85,2|0
200,352,70928,2,0,B|152:256,1,85,0|8
112,112,71397,6,0,B|120:66|157:27|219:34|248:67,1,170,0|2
192,120,71865,2,0,B|229:149|236:190|231:236|197:266|154:268,1,170
144,184,72334,2,0,B|191:204|239:215|287:217|336:202,1,170,8|0
424,80,72959,5,2
480,144,73115,1,0
480,312,73428,1,0
424,248,73584,1,8
256,288,73897,6,0,B|192:320|120:288|112:200,1,170,0|2
118,151,74365,2,0,B|132:104|171:82|213:72|264:100,1,170
320,152,74834,1,8
488,192,75147,5,0
344,280,75459,1,2
264,312,75615,1,0
216,144,75928,1,0
136,112,76084,1,2
32,224,76397,6,0,B|37:291|158:246|156:349,1,170,0|2
72,352,76865,2,0,B|112:264|179:188,1,170
216,144,77334,1,2
377,90,77647,2,0,B|426:49|496:71|531:129|521:212|444:231|425:226,1,255
426,148,78272,2,0,B|288:260,1,170,0|2
256,88,78897,6,0,B|232:128|184:136,1,85
104,136,79209,1,8
96,224,79365,1,0
184,232,79522,1,0
192,240,79600,1,0
200,248,79678,1,2
208,256,79756,1,2
216,264,79834,1,2
368,192,80147,6,0,B|352:148|312:128,2,85,4|0|2
328,268,80615,2,0,B|308:328|228:340|188:292,1,170
252,236,81084,2,0,B|213:189|133:201|113:261,1,170,2|8
28,248,81553,2,0,B|51:329,2,85,0|2|0
80,104,82022,5,8
80,104,82178,1,0
216,40,82334,1,2
216,40,82490,1,0
368,76,82647,6,0,B|308:108|296:172|328:224,1,170,12|2
185,220,83115,2,0,B|216:172|204:108|144:76,1,170
96,208,83584,2,0,B|89:265|127:317|195:321,1,170,2|8
317,321,84053,2,0,B|384:317|422:265|416:208,1,170
360,80,84522,5,8
360,80,84678,1,0
208,72,84834,1,2
208,72,84990,1,0
152,252,85147,6,0,B|176:288|228:284,1,85,6|0
360,132,85459,2,0,B|336:96|284:100,1,85,2|0
72,124,85772,2,0,B|68:172|108:204,1,85,2|0
440,260,86084,2,0,B|444:212|404:180,1,85,2|0
200,40,86397,2,0,B|152:40|120:76,1,85,2|0
312,344,86709,2,0,B|360:344|392:308,1,85,2|0
344,192,87022,5,2
344,192,87178,1,0
172,192,87334,1,2
172,192,87490,1,0
164,112,87647,6,0,B|96:124|68:196|112:252,1,170,12|2
172,192,88115,2,0,B|340:192,1,170,4|0
350,112,88584,2,0,B|416:120|444:196|407:241,1,170,6|8
256,192,89053,12,2,89834
332,340,90147,6,0,B|312:272|364:224|420:228,1,170,4|2
412,312,90615,2,0,B|276:212,1,170
275,211,91084,1,2
140,316,91397,1,8
48,172,91709,6,0,B|96:168|116:128,1,85,2|0
160,16,92022,2,0,B|112:20|92:60,2,85,8|0|2
216,80,92490,1,0
296,44,92647,2,0,B|364:40|400:100|380:160,1,170,8|2
300,128,93115,2,0,B|192:260,1,170
200,344,93584,2,0,B|132:348|96:288|112:228,1,170,2|8
52,40,94209,6,0,B|120:36|156:96|140:156,2,170,2|8|2
60,124,94990,1,0
60,124,95147,2,0,B|200:24,1,170,8|2
308,40,95615,1,0
308,40,95772,2,0,B|168:140,1,170,8|2
104,196,96240,2,0,B|60:220|68:272,1,85,0|8
144,344,96553,2,0,B|188:320|180:268,1,85,0|2
388,304,97022,5,8
256,352,97334,1,2
124,304,97647,2,0,B|196:280|232:216|216:136|172:88,2,255,8|0|2
388,80,98897,2,0,B|316:104|280:168|296:248|340:296,2,255,8|0|2
224,32,100147,6,0,B|140:86|140:86|124:158,1,170,4|2
208,130,100615,2,0,B|193:198|193:198|99:259,1,170
32,292,101084,5,2
100,344,101240,1,0
196,304,101397,1,0
308,260,101553,1,0
424,308,101709,2,0,B|392:236|408:188|424:132,1,170,2|0
180,56,102334,5,2
116,112,102490,1,0
153,188,102647,2,0,B|188:247|159:295|122:331|60:320,1,170,0|2
87,235,103115,2,0,B|167:278|252:301,1,170
329,303,103584,1,2
418,158,103897,5,0
336,180,104209,1,2
320,96,104522,1,0
240,120,104834,1,2
224,36,105147,1,0
80,128,105459,6,0,B|120:160|128:216,1,85,2|0
98,279,105772,1,0
256,336,106084,1,2
400,244,106397,5,0
308,184,106553,1,0
404,132,106709,1,2
400,244,106865,1,0
308,184,107022,1,0
124,60,107334,6,0,B|172:136|80:160|136:248,1,170,2|0
228,188,107803,1,0
208,296,107959,1,8
123,224,108115,1,0
298,86,108428,5,0
372,128,108584,2,0,B|432:180|432:180|456:288,1,170,2|0
304,344,109209,1,0
212,340,109365,1,0
256,268,109522,5,0
228,240,109600,1,0
228,200,109678,1,0
256,172,109756,1,8
284,148,109834,1,0
284,108,109912,1,0
255,80,109990,1,0
172,56,110147,6,0,B|152:104|120:120|72:116|44:96,1,127.499996200204,4|2
100,40,110615,2,0,B|132:96|136:188,1,127.499996200204
80,216,111084,2,0,B|60:300|92:356,1,127.499996200204,2|0
204,248,111709,5,2
256,304,111865,2,0,B|284:336|284:336|312:368|344:368|384:344,1,127.499996200204
340,280,112334,2,0,B|328:252|340:220|352:204|368:188|400:180|428:188,1,127.499996200204,2|0
336,48,112959,5,2
312,120,113115,1,0
176,48,113428,1,0
200,120,113584,1,2
256,264,113897,1,0
256,264,114522,1,8
436,192,115147,6,0,B|448:252|420:288|360:308,1,127.499996200204,0|2
368,224,115615,2,0,B|248:144,1,127.499996200204
196,196,116084,2,0,B|324:280,1,127.499996200204,2|0
152,288,116709,5,2
100,232,116865,2,0,B|72:212|69:171|84:136|127:123,1,127.499996200204
192,112,117334,2,0,B|264:108|308:40,1,127.499996200204,2|0
412,156,117959,1,2
460,216,118115,1,0
336,304,118428,1,0
336,228,118584,1,2
256,192,118897,12,0,119834
340,336,120147,6,0,B|388:336|412:296,1,85,4|0
340,252,120459,1,2
340,252,120615,2,0,B|272:232|260:156|304:116,1,170
302,117,121084,1,2
248,52,121240,2,0,B|160:64,1,85,0|8
104,124,121553,6,0,B|152:172|136:244|80:272,1,170
44,192,122022,2,0,B|212:220,1,170,8|2
296,212,122490,1,0
360,156,122647,2,0,B|412:88,2,85,8|0|2
392,236,123115,6,0,B|416:288|408:332|368:360|328:368,1,170
316,284,123584,1,2
316,284,123740,1,0
240,320,123897,2,0,B|160:344,2,85,8|0|2
220,236,124365,1,0
220,236,124522,2,8,B|136:228,1,85
80,292,124834,6,0,B|36:256|40:180|100:148,2,170,2|12|2
80,292,125615,1,0
256,316,125928,1,0
256,316,126084,1,2
432,292,126397,2,0,B|476:256|472:180|412:148,1,170,8|8
336,116,126865,2,0,B|332:160|332:160|308:196,1,85,0|2
256,264,127178,1,0
202,193,127334,2,0,B|180:160|180:160|176:116,1,85,8|0
256,88,127647,1,2
256,192,127725,12,0,129834
140,332,130147,6,0,B|184:312|184:260,1,85,4|0
180,180,130459,1,2
128,112,130615,1,0
96,192,130772,1,8
180,180,130928,1,0
240,120,131084,6,0,B|268:72|328:56|392:96,1,170,2|12
436,164,131553,1,0
432,248,131709,1,2
368,304,131865,1,0
452,328,132022,1,8
432,248,132178,1,0
352,220,132334,6,0,B|300:180|232:200|212:260,1,170,2|12
164,328,132803,1,0
80,348,132959,1,2
20,288,133115,2,0,B|80:128,1,170
164,140,133584,2,0,B|200:192|272:188|312:140,1,170,2|8
408,56,134053,5,0
408,56,134209,1,2
408,56,134365,1,0
310,141,134522,1,2
440,184,134678,1,0
408,56,134834,6,0,B|368:4|300:4|256:44,1,170,0|8
204,112,135303,1,0
136,164,135459,1,2
52,180,135615,1,0
80,100,135772,1,8
136,164,135928,1,0
120,248,136084,6,0,B|124:320|180:348|240:328,1,170,2|8
312,288,136553,2,0,B|384:240,1,85,0|2
416,112,136865,2,8,B|344:160,1,85
264,180,137178,1,0
180,160,137334,6,0,B|143:152|103:124|95:80|116:28,2,170,2|12|2
260,192,138115,2,0,B|260:280,2,85,0|8|0
332,160,138584,2,0,B|368:152|408:124|416:80|396:28,1,170,2|12
316,52,139053,6,0,B|288:88|236:88,1,85,0|2
56,104,139365,2,0,B|84:68|140:72,2,85,0|2|0
20,200,139834,1,2
22,225,139912,1,0
32,248,139990,1,0
52,264,140068,1,0
76,272,140147,5,4
200,156,140459,1,2
272,200,140615,1,0
352,168,140772,2,0,B|420:200|444:272|432:328,1,170,0|2
364,352,141240,1,0
284,320,141397,5,0
208,356,141553,1,0
148,296,141709,1,2
68,328,141865,1,0
52,244,142022,2,0,B|40:200|48:144|76:116|112:88,1,170,0|2
256,60,142647,5,0
352,96,142803,1,0
368,196,142959,2,0,B|384:296,1,85,2|0
256,192,143272,2,0,B|256:284,1,85
144,196,143584,2,0,B|128:296,2,85,2|0|0
192,32,144209,5,0
256,88,144365,1,0
320,32,144522,1,2
256,192,144834,1,0
404,276,145147,5,4
336,328,145303,1,0
256,304,145459,1,2
176,328,145615,1,0
108,276,145772,1,0
256,192,146084,1,2
176,44,146397,6,0,B|176:100|224:136,1,85
256,52,146709,1,2
336,44,146865,2,0,B|336:100|288:136,1,85
256,284,147334,1,0
256,192,147647,12,0,150147
256,104,150459,5,2
256,276,150772,1,0
112,188,151084,5,2
112,188,151240,1,0
112,188,151397,2,0,B|88:244|88:244|72:280|76:332|136:344,1,170,0|2
400,188,152022,1,0
400,188,152178,1,0
400,188,152335,2,0,B|424:244|424:244|440:280|436:332|376:344,1,170,2|0
256,280,152959,5,2
256,364,153115,1,0
256,192,153428,1,0
256,24,153740,1,4
88,132,154209,6,0,B|112:148|128:180|128:208|120:236|104:264|72:276|56:264,1,170,2|0
24,196,154678,1,0
24,196,154834,2,0,B|196:208,1,170,2|4
436,100,155459,5,2
356,124,155615,1,0
436,284,155928,1,0
356,260,156084,1,2
256,192,156397,1,0
76,100,156709,1,0
156,124,156865,1,2
76,284,157178,1,2
156,260,157334,1,0
299,260,157647,6,0,B|345:236|345:184|337:140|297:120,1,170,4|0
213,120,158115,2,0,B|173:140|161:184|165:236|213:260,1,170,4|0
257,192,158584,1,4
468,48,159053,1,0
432,300,159522,2,0,B|456:120,1,170,0|2
256,72,160147,6,0,B|212:72|212:72|172:88,1,85,6|0
56,240,160459,2,0,B|100:240|100:240|140:224,1,85,2|0
268,144,160772,2,0,B|224:144|224:144|184:160,1,85,2|0
68,312,161084,2,0,B|112:312|112:312|152:296,1,85,2|0
252,228,161397,5,2
252,228,161553,1,0
340,332,161709,2,0,B|380:312|380:312|400:276,1,85,2|0
408,136,162022,2,0,B|368:156|368:156|348:192,2,85,2|0|2
408,136,162490,1,0
468,64,162647,6,0,B|432:16|360:12|316:44,1,170,2|2
208,152,163115,2,0,B|160:192|91:180|56:136,1,170
80,32,163584,2,0,B|140:96,1,85,2|0
268,228,163897,6,0,B|312:280|312:280|352:276|352:276|396:324,2,170,2|2|2
324,164,164678,1,0
452,272,164834,2,0,B|396:208,1,85,2|0
304,72,165147,6,0,B|248:36|248:36|152:88,1,170,6|2
136,192,165615,2,0,B|208:148,2,85,0|2|0
60,304,166084,6,0,B|112:356|112:356|208:332,1,170,2|4
205,332,166553,1,0
288,224,166709,2,0,B|332:200|332:200|396:236|360:304,1,170,2|6
361,301,167178,1,0
361,301,167334,1,2
68,128,167647,6,0,B|124:60|220:68,1,170,6|2
240,72,168037,1,0
256,80,168115,1,0
280,184,168272,1,2
376,120,168428,2,0,B|368:80,2,42.5,0|0|2
392,240,168740,1,6
256,192,168818,12,4,170147
96,56,180147,6,0,B|64:88|68:126|97:169|136:168|180:148,1,170,4|2
184,72,180615,2,0,B|211:58|250:57|279:100|283:138|251:170,1,170
200,236,181084,1,8
352,312,181397,6,0,B|468:172,1,170,0|2
428,104,181865,2,0,B|312:244,1,170
264,300,182334,1,2
92,300,182647,5,0
52,136,182959,1,2
68,220,183115,1,0
92,300,183272,1,0
172,152,183584,6,0,B|156:92|219:24|312:64,2,170,8|0|2
256,140,184365,2,0,B|320:208,1,85
189,317,184834,1,2
128,260,184990,1,0
128,260,185147,2,0,B|104:196|112:136|128:88,1,170,0|2
180,28,185615,1,0
232,96,185772,1,0
400,84,186084,6,0,B|320:248,1,170,8|0
156,264,186709,1,2
156,264,186865,1,0
232,304,187022,1,0
408,304,187334,5,8
408,304,187647,2,0,B|380:256|304:300|256:224,1,170,0|2
332,184,188115,1,0
256,144,188272,2,0,B|200:140|152:192|160:256|192:288,1,170,0|8
140,96,188897,6,0,B|176:64|224:56,1,85
300,52,189209,1,2
384,64,189365,1,0
452,116,189522,1,0
476,152,189600,1,0
488,192,189678,2,0,B|496:228|488:272,2,42.5,2|2|2
72,264,190147,6,0,B|88:308|132:320,2,85,4|0|2
152,240,190615,2,0,B|192:184|176:120|112:100,1,170
88,180,191084,1,2
240,256,191240,1,0
248,124,191397,6,0,B|272:92|272:92|312:72,1,85,8|0
404,204,191709,1,2
420,40,191865,2,0,B|424:104|424:104|324:152,1,170
248,180,192334,1,2
176,60,192490,1,0
88,180,192647,6,0,B|52:232|68:296|136:316,1,170,8|2
188,212,193115,2,0,B|256:160|256:160|324:212,1,170
378,315,193584,2,0,B|444:296|460:232|424:180,1,170,2|8
364,80,194053,2,0,B|320:56|320:56|288:72,1,85,0|2
221,113,194365,1,0
252,252,194522,1,2
252,252,194678,1,0
108,216,194834,2,0,B|64:144,1,85,2|0
96,52,195147,6,0,B|184:200,1,170,12|2
292,216,195615,2,0,B|244:144,2,85,0|8|0
356,304,196084,2,0,B|424:324|424:324|484:244,2,170,2|8|2
356,304,196865,1,0
172,80,197178,1,0
120,148,197334,1,2
256,192,197647,12,2,199834
168,320,200147,6,0,B|224:256,2,85,4|0|2
84,332,200615,2,0,B|32:288|32:288|60:188,1,170
80,108,201084,1,2
144,220,201240,1,0
216,116,201397,6,0,B|280:64|280:64|368:48,1,170,0|2
444,112,201865,2,0,B|360:128,1,85,0|8
288,224,202178,2,0,B|371:208,2,85,0|2|0
184,324,202647,6,0,B|120:304|120:304|80:272|88:212,1,170,4|2
108,128,203115,1,0
328,48,203428,2,0,B|276:116,2,85,0|2|0
380,116,203897,2,0,B|432:156|428:224|368:256,1,170,4|2
288,284,204365,1,0
448,312,204522,1,2
448,312,204678,1,0
288,284,204834,2,0,B|204:264,1,85,2|0
184,136,205147,6,0,B|160:96|160:96|120:88,1,85,6|0
256,116,205459,2,0,B|256:32,1,85,2|0
328,136,205772,2,0,B|352:96|352:96|392:88,1,85,2|0
256,192,206084,1,2
256,192,206162,1,0
256,192,206240,1,0
389,295,206397,6,0,B|352:288|352:288|328:248,1,85,2|0
256,353,206709,2,0,B|256:268,1,85,2|0
122,295,207022,2,0,B|160:288|160:288|184:248,1,85,2|0
256,192,207334,1,2
256,192,207412,1,0
256,192,207490,1,0
256,192,207647,12,4,209522
160,100,210147,6,0,B|112:108|85:160|96:212|140:236,1,170,4|2
212,200,210615,2,0,B|392:236,1,170
428,304,211084,1,2
476,128,211397,5,0
392,128,211553,1,0
320,80,211709,1,2
240,48,211865,2,0,B|184:44|140:80|128:128|148:176,1,170
224,136,212334,2,0,B|237:163|225:211|181:247|125:243,1,170,2|0
300,316,212959,6,0,B|388:324,1,85,2|0
432,244,213272,2,0,B|344:236,2,85,0|0|2
344,80,213897,6,0,B|256:56|176:112,1,170,0|2
124,172,214365,1,0
104,256,214522,1,2
184,232,214678,1,0
124,172,214834,1,2
104,256,214990,1,0
164,316,215147,5,0
332,288,215459,1,2
332,288,215615,2,0,B|444:264,2,85
268,228,216084,2,0,B|216:196|212:116|272:80,1,170,2|0
312,156,216553,1,0
348,80,216709,1,2
308,4,216865,1,0
224,8,217022,1,0
80,100,217334,5,2
80,100,217647,1,0
116,264,217959,1,2
180,320,218115,1,0
256,280,218272,1,0
332,320,218428,1,0
396,264,218584,1,2
256,192,218740,12,0,219834
76,324,220147,6,0,B|92:256|160:224|228:264,1,191.249994300306,4|0
226,262,220772,1,10
440,168,221084,1,2
272,92,221397,6,0,B|240:36,2,63.749998100102,0|0|2
320,200,221865,2,0,B|352:256,2,63.749998100102
320,200,222334,1,2
64,192,222647,5,2
24,84,222803,1,0
208,248,223115,5,2
192,360,223272,1,0
304,136,223584,5,2
320,24,223740,1,0
448,192,224053,5,2
488,300,224209,1,0
304,136,224522,5,2
276,116,224600,1,0
248,104,224678,1,0
216,104,224756,1,0
184,112,224834,2,0,B|152:132,3,31.874999050051,2|0|0|0
132,144,225147,6,0,B|93:167|93:167|68:200,1,85,6|0
0,280,225459,2,0,B|39:301|39:301|79:307,1,85,2|0
168,244,225772,2,0,B|228:208|228:208|328:212,1,170,2|2
327,211,226240,1,0
384,300,226397,6,0,B|300:296,1,85,2|0
204,124,226709,2,0,B|288:128,1,85,2|0
470,171,227022,2,0,B|446:231|380:245|326:209,1,170,2|2
368,68,227490,2,0,B|392:152,1,85,0|6
256,192,227725,12,4,230147
