osu file format v14

[General]
AudioFilename: Fuyu ni Saku Hana.mp3
AudioLeadIn: 0
PreviewTime: 48171
Countdown: 0
SampleSet: Normal
StackLeniency: 0.7
Mode: 1
LetterboxInBreaks: 0
WidescreenStoryboard: 0

[Editor]
DistanceSpacing: 0.9
BeatDivisor: 4
GridSize: 32
TimelineZoom: 1

[Metadata]
Title:Fuyu ni Saku Hana
TitleUnicode:冬に咲く華
Artist:Mitsuki Kotono
ArtistUnicode:美月琴音
Creator:Nardoxyribonucleic
Version:Futsuu
Source:彼女のセイイキ
Tags:Taiko feng9th Visual Novel Kanojo no Seiiki Sanctuary Opening
BeatmapID:901216
BeatmapSetID:401086

[Difficulty]
HPDrainRate:5
CircleSize:5
OverallDifficulty:4
ApproachRate:4
SliderMultiplier:1.4
SliderTickRate:1

[Events]
//Background and Video events
0,0,"bg1.jpg",0,-20
//Break Periods
//Storyboard Layer 0 (Background)
//Storyboard Layer 1 (Fail)
//Storyboard Layer 2 (Pass)
//Storyboard Layer 3 (Foreground)
//Storyboard Sound Samples

[TimingPoints]
176,352.941176470588,4,1,0,60,1,0
5823,-100,4,1,0,90,0,0
11470,-100,4,1,0,40,0,0
28411,-100,4,1,0,80,0,0
39705,-100,4,1,0,65,0,0
42528,-100,4,1,0,80,0,0
48175,-100,4,1,0,95,0,1
90528,-100,4,1,0,65,0,0
93352,-100,4,1,0,80,0,0
101823,-100,4,1,0,72,0,0
103234,-100,4,1,0,64,0,0
104646,-100,4,1,0,56,0,0
106058,-100,4,1,0,48,0,0
107470,-100,4,1,0,40,0,0
124411,-100,4,1,0,80,0,0
135705,-100,4,1,0,65,0,0
138528,-100,4,1,0,80,0,0
144175,-100,4,1,0,95,0,1
187940,-100,4,1,0,50,0,0
190764,-100,4,1,0,40,0,0
199234,-100,4,1,0,60,0,0
200646,-100,4,1,0,80,0,0
214764,-100,4,1,0,40,0,0
231705,-100,4,1,0,80,0,0
237705,-100,4,1,0,95,0,1
262764,-100,4,1,0,50,0,0
265587,-100,4,1,0,80,0,0
277764,-100,4,1,0,50,0,0
278646,-100,4,1,0,40,0,0
279705,-100,4,1,0,30,0,0
280764,-100,4,1,0,20,0,0
281823,-100,4,1,0,10,0,0

[HitObjects]
256,192,4411,5,8,0:0:0:0:
256,192,5117,1,0,0:0:0:0:
256,192,5470,1,8,0:0:0:0:
256,192,5823,1,12,0:0:0:0:
256,192,6528,1,8,0:0:0:0:
256,192,7234,1,0,0:0:0:0:
256,192,7587,1,8,0:0:0:0:
256,192,7940,1,0,0:0:0:0:
256,192,8117,1,0,0:0:0:0:
256,192,8293,1,8,0:0:0:0:
256,192,8646,1,0,0:0:0:0:
256,192,9352,1,8,0:0:0:0:
256,192,9528,1,8,0:0:0:0:
256,192,9705,1,8,0:0:0:0:
256,192,10058,1,0,0:0:0:0:
256,192,10764,1,8,0:0:0:0:
256,192,11117,1,8,0:0:0:0:
256,192,11470,1,0,0:0:0:0:
256,192,12881,1,8,0:0:0:0:
256,192,13587,1,0,0:0:0:0:
256,192,14293,1,8,0:0:0:0:
256,192,14999,1,0,0:0:0:0:
256,192,15352,1,0,0:0:0:0:
256,192,15705,1,8,0:0:0:0:
256,192,17117,1,0,0:0:0:0:
256,192,18528,1,8,0:0:0:0:
256,192,19234,1,8,0:0:0:0:
256,192,19940,1,0,0:0:0:0:
256,192,20646,1,8,0:0:0:0:
256,192,20999,1,0,0:0:0:0:
256,192,21352,1,0,0:0:0:0:
256,192,22764,1,8,0:0:0:0:
256,192,24175,1,8,0:0:0:0:
256,192,24881,1,8,0:0:0:0:
256,192,25587,1,0,0:0:0:0:
256,192,26293,1,0,0:0:0:0:
256,192,26646,1,0,0:0:0:0:
256,192,26999,1,8,0:0:0:0:
256,192,27705,1,8,0:0:0:0:
256,192,28411,1,4,0:0:0:0:
256,192,29117,1,8,0:0:0:0:
256,192,29470,1,0,0:0:0:0:
256,192,29823,1,8,0:0:0:0:
256,192,30175,1,8,0:0:0:0:
256,192,30528,1,0,0:0:0:0:
256,192,30881,1,0,0:0:0:0:
256,192,31058,1,0,0:0:0:0:
256,192,31234,1,8,0:0:0:0:
256,192,31940,1,0,0:0:0:0:
256,192,32293,1,8,0:0:0:0:
256,192,32646,1,8,0:0:0:0:
256,192,32999,1,0,0:0:0:0:
256,192,33352,1,8,0:0:0:0:
256,192,33528,1,8,0:0:0:0:
256,192,33705,1,8,0:0:0:0:
256,192,34058,1,4,0:0:0:0:
256,192,34411,1,8,0:0:0:0:
256,192,34587,1,0,0:0:0:0:
256,192,34764,1,0,0:0:0:0:
256,192,35117,1,8,0:0:0:0:
256,192,35293,1,0,0:0:0:0:
256,192,36528,1,8,0:0:0:0:
256,192,36705,1,0,0:0:0:0:
256,192,36881,1,8,0:0:0:0:
256,192,37234,1,8,0:0:0:0:
256,192,37587,1,0,0:0:0:0:
256,192,37764,1,0,0:0:0:0:
256,192,37940,1,8,0:0:0:0:
256,192,38293,1,0,0:0:0:0:
256,192,38646,1,8,0:0:0:0:
256,192,38999,1,8,0:0:0:0:
256,192,39352,1,0,0:0:0:0:
256,192,39705,1,12,0:0:0:0:
256,192,40411,1,0,0:0:0:0:
256,192,41117,1,0,0:0:0:0:
256,192,41470,1,8,0:0:0:0:
256,192,41823,1,8,0:0:0:0:
256,192,41999,1,8,0:0:0:0:
256,192,42175,1,0,0:0:0:0:
256,192,42528,1,4,0:0:0:0:
256,192,43234,1,8,0:0:0:0:
256,192,43587,1,8,0:0:0:0:
256,192,43940,1,0,0:0:0:0:
256,192,44117,1,0,0:0:0:0:
256,192,44293,1,8,0:0:0:0:
256,192,44646,1,8,0:0:0:0:
256,192,44999,1,0,0:0:0:0:
256,192,45352,1,12,0:0:0:0:
256,192,45705,1,0,0:0:0:0:
256,192,45881,1,0,0:0:0:0:
256,192,46058,1,0,0:0:0:0:
256,192,46411,1,0,0:0:0:0:
256,192,46764,1,12,0:0:0:0:
256,192,48175,1,4,0:0:0:0:
256,192,48528,1,8,0:0:0:0:
256,192,48881,1,0,0:0:0:0:
256,192,49234,1,8,0:0:0:0:
256,192,49411,1,8,0:0:0:0:
256,192,49940,1,8,0:0:0:0:
256,192,50293,1,0,0:0:0:0:
256,192,50646,1,8,0:0:0:0:
256,192,50999,1,0,0:0:0:0:
256,192,51352,1,8,0:0:0:0:
256,192,51528,1,0,0:0:0:0:
256,192,51705,1,8,0:0:0:0:
256,192,53117,1,0,0:0:0:0:
256,192,53293,1,0,0:0:0:0:
256,192,53470,1,8,0:0:0:0:
256,192,53823,1,0,0:0:0:0:
256,192,54175,1,8,0:0:0:0:
256,192,54528,1,0,0:0:0:0:
256,192,54881,1,8,0:0:0:0:
256,192,55058,1,8,0:0:0:0:
256,192,55587,1,8,0:0:0:0:
256,192,55940,1,8,0:0:0:0:
256,192,56293,1,0,0:0:0:0:
256,192,56646,1,8,0:0:0:0:
256,192,56999,1,0,0:0:0:0:
256,192,57175,1,8,0:0:0:0:
256,192,57352,1,0,0:0:0:0:
256,192,58764,1,8,0:0:0:0:
256,192,58940,1,8,0:0:0:0:
256,192,59117,1,8,0:0:0:0:
256,192,59470,1,4,0:0:0:0:
256,192,59823,1,8,0:0:0:0:
256,192,59999,1,0,0:0:0:0:
256,192,60352,1,8,0:0:0:0:
256,192,60705,1,0,0:0:0:0:
256,192,61234,1,0,0:0:0:0:
256,192,61411,1,8,0:0:0:0:
256,192,61764,1,8,0:0:0:0:
256,192,62117,1,0,0:0:0:0:
256,192,62293,1,0,0:0:0:0:
256,192,62646,1,8,0:0:0:0:
256,192,62823,1,0,0:0:0:0:
256,192,63175,1,0,0:0:0:0:
256,192,63528,1,12,0:0:0:0:
256,192,64411,1,8,0:0:0:0:
256,192,64764,1,8,0:0:0:0:
256,192,65117,1,4,0:0:0:0:
256,192,65470,1,8,0:0:0:0:
256,192,65823,1,0,0:0:0:0:
256,192,66175,1,8,0:0:0:0:
256,192,66352,1,8,0:0:0:0:
256,192,66881,1,8,0:0:0:0:
256,192,67234,1,0,0:0:0:0:
256,192,67587,1,8,0:0:0:0:
256,192,67764,1,8,0:0:0:0:
256,192,67940,1,0,0:0:0:0:
256,192,68646,1,0,0:0:0:0:
256,192,68999,1,8,0:0:0:0:
256,192,69175,1,8,0:0:0:0:
256,192,69528,1,0,0:0:0:0:
256,192,69705,1,8,0:0:0:0:
256,192,70058,1,8,0:0:0:0:
256,192,70234,1,8,0:0:0:0:
256,192,70411,1,8,0:0:0:0:
256,192,70764,1,4,0:0:0:0:
256,192,71117,1,8,0:0:0:0:
256,192,71470,1,0,0:0:0:0:
256,192,71823,1,8,0:0:0:0:
256,192,71999,1,8,0:0:0:0:
256,192,72528,1,8,0:0:0:0:
256,192,72881,1,0,0:0:0:0:
256,192,73234,1,8,0:0:0:0:
256,192,73587,1,0,0:0:0:0:
256,192,73940,1,8,0:0:0:0:
256,192,74117,1,0,0:0:0:0:
256,192,74293,1,8,0:0:0:0:
256,192,75705,1,0,0:0:0:0:
256,192,75881,1,0,0:0:0:0:
256,192,76058,1,8,0:0:0:0:
256,192,76411,1,0,0:0:0:0:
256,192,76764,1,8,0:0:0:0:
256,192,77117,1,0,0:0:0:0:
256,192,77470,1,8,0:0:0:0:
256,192,77646,1,8,0:0:0:0:
256,192,78175,1,8,0:0:0:0:
256,192,78528,1,8,0:0:0:0:
256,192,78881,1,0,0:0:0:0:
256,192,79234,1,8,0:0:0:0:
256,192,79587,1,0,0:0:0:0:
256,192,79764,1,8,0:0:0:0:
256,192,79940,1,0,0:0:0:0:
256,192,81352,1,8,0:0:0:0:
256,192,81528,1,8,0:0:0:0:
256,192,81705,1,8,0:0:0:0:
256,192,82058,1,4,0:0:0:0:
256,192,82411,1,8,0:0:0:0:
256,192,82587,1,0,0:0:0:0:
256,192,82940,1,0,0:0:0:0:
256,192,83293,1,12,0:0:0:0:
256,192,84175,1,0,0:0:0:0:
256,192,84528,1,8,0:0:0:0:
256,192,84881,1,4,0:0:0:0:
256,192,85234,1,8,0:0:0:0:
256,192,85411,1,0,0:0:0:0:
256,192,85764,1,0,0:0:0:0:
256,192,86117,1,12,0:0:0:0:
256,192,86646,1,8,0:0:0:0:
256,192,86999,1,0,0:0:0:0:
256,192,87352,1,8,0:0:0:0:
256,192,87705,1,4,0:0:0:0:
256,192,88234,1,4,0:0:0:0:
256,192,88764,1,12,0:0:0:0:
256,192,89293,1,12,0:0:0:0:
256,192,89823,1,0,0:0:0:0:
256,192,90175,1,8,0:0:0:0:
256,192,90352,1,0,0:0:0:0:
256,192,90528,1,8,0:0:0:0:
256,192,91058,1,0,0:0:0:0:
256,192,91234,1,0,0:0:0:0:
256,192,91940,1,0,0:0:0:0:
256,192,92470,1,8,0:0:0:0:
256,192,92999,1,8,0:0:0:0:
256,192,93352,1,4,0:0:0:0:
256,192,93881,1,8,0:0:0:0:
256,192,94411,1,0,0:0:0:0:
256,192,94764,1,12,0:0:0:0:
256,192,95470,1,4,0:0:0:0:
256,192,95823,1,8,0:0:0:0:
256,192,96175,1,12,0:0:0:0:
256,192,96881,1,4,0:0:0:0:
256,192,97587,1,8,0:0:0:0:
256,192,97764,1,8,0:0:0:0:
256,192,97940,1,8,0:0:0:0:
256,192,98293,1,0,0:0:0:0:
256,192,98470,1,0,0:0:0:0:
256,192,98646,1,0,0:0:0:0:
256,192,98999,1,4,0:0:0:0:
256,192,99705,1,0,0:0:0:0:
256,192,100058,1,8,0:0:0:0:
256,192,100234,1,0,0:0:0:0:
256,192,100411,1,8,0:0:0:0:
256,192,100764,1,12,0:0:0:0:
256,192,101117,1,8,0:0:0:0:
256,192,101470,1,0,0:0:0:0:
256,192,101823,1,12,0:0:0:0:
256,192,103234,1,8,0:0:0:0:
256,192,104646,1,0,0:0:0:0:
256,192,106058,1,0,0:0:0:0:
256,192,107470,1,0,0:0:0:0:
256,192,108175,1,0,0:0:0:0:
256,192,108881,1,8,0:0:0:0:
256,192,109587,1,0,0:0:0:0:
256,192,110293,1,8,0:0:0:0:
256,192,110999,1,0,0:0:0:0:
256,192,111352,1,0,0:0:0:0:
256,192,111705,1,8,0:0:0:0:
256,192,113117,1,0,0:0:0:0:
256,192,114528,1,8,0:0:0:0:
256,192,115234,1,8,0:0:0:0:
256,192,115940,1,0,0:0:0:0:
256,192,116646,1,8,0:0:0:0:
256,192,116999,1,0,0:0:0:0:
256,192,117352,1,0,0:0:0:0:
256,192,118058,1,8,0:0:0:0:
256,192,118764,1,0,0:0:0:0:
256,192,120175,1,8,0:0:0:0:
256,192,120881,1,8,0:0:0:0:
256,192,121587,1,0,0:0:0:0:
256,192,122293,1,0,0:0:0:0:
256,192,122646,1,0,0:0:0:0:
256,192,122999,1,8,0:0:0:0:
256,192,123705,1,8,0:0:0:0:
256,192,123881,1,0,0:0:0:0:
256,192,124058,1,8,0:0:0:0:
256,192,124411,1,4,0:0:0:0:
256,192,125117,1,8,0:0:0:0:
256,192,125470,1,8,0:0:0:0:
256,192,125823,1,0,0:0:0:0:
256,192,126175,1,8,0:0:0:0:
256,192,126528,1,0,0:0:0:0:
256,192,126705,1,0,0:0:0:0:
256,192,126881,1,8,0:0:0:0:
256,192,127234,1,8,0:0:0:0:
256,192,127940,1,0,0:0:0:0:
256,192,128293,1,8,0:0:0:0:
256,192,128470,1,0,0:0:0:0:
256,192,128823,1,0,0:0:0:0:
256,192,128999,1,8,0:0:0:0:
256,192,129352,1,8,0:0:0:0:
256,192,129705,1,8,0:0:0:0:
256,192,130058,1,4,0:0:0:0:
256,192,130764,1,8,0:0:0:0:
256,192,131117,1,8,0:0:0:0:
256,192,131293,1,0,0:0:0:0:
256,192,131646,1,8,0:0:0:0:
256,192,131999,1,0,0:0:0:0:
256,192,132175,1,8,0:0:0:0:
256,192,132528,1,0,0:0:0:0:
256,192,132881,1,8,0:0:0:0:
256,192,133587,1,8,0:0:0:0:
256,192,133940,1,8,0:0:0:0:
256,192,134117,1,0,0:0:0:0:
256,192,134293,1,0,0:0:0:0:
256,192,134646,1,0,0:0:0:0:
256,192,134999,1,8,0:0:0:0:
256,192,135352,1,0,0:0:0:0:
256,192,135705,1,8,0:0:0:0:
256,192,136411,1,0,0:0:0:0:
256,192,137117,1,0,0:0:0:0:
256,192,137470,1,8,0:0:0:0:
256,192,137823,1,8,0:0:0:0:
256,192,137999,1,8,0:0:0:0:
256,192,138175,1,0,0:0:0:0:
256,192,138528,1,4,0:0:0:0:
256,192,138881,1,0,0:0:0:0:
256,192,139234,1,8,0:0:0:0:
256,192,139587,1,8,0:0:0:0:
256,192,139940,1,0,0:0:0:0:
256,192,140117,1,0,0:0:0:0:
256,192,140293,1,0,0:0:0:0:
256,192,140646,1,8,0:0:0:0:
256,192,140999,1,0,0:0:0:0:
256,192,141352,1,8,0:0:0:0:
256,192,142587,1,0,0:0:0:0:
256,192,142764,1,12,0:0:0:0:
256,192,143470,1,0,0:0:0:0:
256,192,143646,1,0,0:0:0:0:
256,192,143823,1,8,0:0:0:0:
256,192,144175,1,4,0:0:0:0:
256,192,144528,1,8,0:0:0:0:
256,192,144881,1,0,0:0:0:0:
256,192,145234,1,8,0:0:0:0:
256,192,145411,1,8,0:0:0:0:
256,192,145940,1,8,0:0:0:0:
256,192,146293,1,0,0:0:0:0:
256,192,146646,1,8,0:0:0:0:
256,192,146999,1,0,0:0:0:0:
256,192,147352,1,8,0:0:0:0:
256,192,147528,1,0,0:0:0:0:
256,192,147705,1,8,0:0:0:0:
256,192,149117,1,0,0:0:0:0:
256,192,149293,1,0,0:0:0:0:
256,192,149470,1,8,0:0:0:0:
256,192,149823,1,0,0:0:0:0:
256,192,150175,1,8,0:0:0:0:
256,192,150528,1,0,0:0:0:0:
256,192,150881,1,8,0:0:0:0:
256,192,151058,1,8,0:0:0:0:
256,192,151587,1,8,0:0:0:0:
256,192,151940,1,8,0:0:0:0:
256,192,152293,1,0,0:0:0:0:
256,192,152646,1,8,0:0:0:0:
256,192,152999,1,0,0:0:0:0:
256,192,153175,1,8,0:0:0:0:
256,192,153352,1,0,0:0:0:0:
256,192,154764,1,8,0:0:0:0:
256,192,154940,1,8,0:0:0:0:
256,192,155117,1,8,0:0:0:0:
256,192,155470,1,4,0:0:0:0:
256,192,155823,1,8,0:0:0:0:
256,192,155999,1,0,0:0:0:0:
256,192,156352,1,8,0:0:0:0:
256,192,156705,1,0,0:0:0:0:
256,192,157234,1,8,0:0:0:0:
256,192,157411,1,0,0:0:0:0:
256,192,157587,1,8,0:0:0:0:
256,192,157940,1,8,0:0:0:0:
256,192,158293,1,0,0:0:0:0:
256,192,158646,1,8,0:0:0:0:
256,192,158823,1,0,0:0:0:0:
256,192,159175,1,0,0:0:0:0:
256,192,159528,1,12,0:0:0:0:
256,192,160411,1,8,0:0:0:0:
256,192,160764,1,8,0:0:0:0:
256,192,161117,1,4,0:0:0:0:
256,192,161470,1,8,0:0:0:0:
256,192,161823,1,0,0:0:0:0:
256,192,162175,1,8,0:0:0:0:
256,192,162352,1,8,0:0:0:0:
256,192,162881,1,8,0:0:0:0:
256,192,163234,1,0,0:0:0:0:
256,192,163587,1,8,0:0:0:0:
256,192,163764,1,8,0:0:0:0:
256,192,163940,1,0,0:0:0:0:
256,192,164646,1,0,0:0:0:0:
256,192,164999,1,8,0:0:0:0:
256,192,165175,1,8,0:0:0:0:
256,192,165528,1,0,0:0:0:0:
256,192,165705,1,8,0:0:0:0:
256,192,166058,1,8,0:0:0:0:
256,192,166234,1,8,0:0:0:0:
256,192,166411,1,8,0:0:0:0:
256,192,166764,1,4,0:0:0:0:
256,192,167117,1,8,0:0:0:0:
256,192,167470,1,0,0:0:0:0:
256,192,167823,1,8,0:0:0:0:
256,192,167999,1,8,0:0:0:0:
256,192,168528,1,8,0:0:0:0:
256,192,168881,1,0,0:0:0:0:
256,192,169234,1,8,0:0:0:0:
256,192,169587,1,0,0:0:0:0:
256,192,169940,1,8,0:0:0:0:
256,192,170117,1,0,0:0:0:0:
256,192,170293,1,8,0:0:0:0:
256,192,171705,1,0,0:0:0:0:
256,192,171881,1,0,0:0:0:0:
256,192,172058,1,8,0:0:0:0:
256,192,172411,1,0,0:0:0:0:
256,192,172764,1,8,0:0:0:0:
256,192,173117,1,0,0:0:0:0:
256,192,173470,1,8,0:0:0:0:
256,192,173646,1,8,0:0:0:0:
256,192,174175,1,8,0:0:0:0:
256,192,174528,1,8,0:0:0:0:
256,192,174881,1,0,0:0:0:0:
256,192,175234,1,8,0:0:0:0:
256,192,175587,1,0,0:0:0:0:
256,192,175764,1,8,0:0:0:0:
256,192,175940,1,0,0:0:0:0:
256,192,177352,1,8,0:0:0:0:
256,192,177528,1,8,0:0:0:0:
256,192,177705,1,8,0:0:0:0:
256,192,178058,1,4,0:0:0:0:
256,192,178411,1,8,0:0:0:0:
256,192,178587,1,0,0:0:0:0:
256,192,178940,1,0,0:0:0:0:
256,192,179293,1,12,0:0:0:0:
256,192,180175,1,0,0:0:0:0:
256,192,180528,1,8,0:0:0:0:
256,192,180881,1,4,0:0:0:0:
256,192,181234,1,8,0:0:0:0:
256,192,181411,1,0,0:0:0:0:
256,192,181764,1,0,0:0:0:0:
256,192,182117,1,12,0:0:0:0:
256,192,182646,1,8,0:0:0:0:
256,192,182999,1,0,0:0:0:0:
256,192,183352,1,8,0:0:0:0:
256,192,183705,1,4,0:0:0:0:
256,192,184234,1,0,0:0:0:0:
256,192,184764,1,8,0:0:0:0:
256,192,185470,1,8,0:0:0:0:
256,192,185823,1,0,0:0:0:0:
256,192,185999,1,0,0:0:0:0:
256,192,186175,1,0,0:0:0:0:
256,192,186528,1,12,0:0:0:0:
256,192,186881,1,0,0:0:0:0:
256,192,187234,1,8,0:0:0:0:
256,192,187411,1,8,0:0:0:0:
256,192,187587,1,8,0:0:0:0:
256,192,187940,1,0,0:0:0:0:
256,192,188470,1,8,0:0:0:0:
256,192,188999,1,0,0:0:0:0:
256,192,189352,1,8,0:0:0:0:
256,192,190764,1,8,0:0:0:0:
256,192,191470,1,0,0:0:0:0:
256,192,191823,1,0,0:0:0:0:
256,192,192175,1,8,0:0:0:0:
256,192,193587,1,0,0:0:0:0:
256,192,194293,1,8,0:0:0:0:
256,192,194646,1,8,0:0:0:0:
256,192,194999,1,0,0:0:0:0:
256,192,196411,1,8,0:0:0:0:
256,192,197117,1,0,0:0:0:0:
256,192,197470,1,0,0:0:0:0:
256,192,197823,1,8,0:0:0:0:
256,192,198528,1,0,0:0:0:0:
256,192,199234,1,12,0:0:0:0:
256,192,199587,1,0,0:0:0:0:
256,192,199940,1,0,0:0:0:0:
256,192,200293,1,8,0:0:0:0:
256,192,200646,1,12,0:0:0:0:
256,192,201352,1,8,0:0:0:0:
256,192,202058,1,0,0:0:0:0:
256,192,202411,1,0,0:0:0:0:
256,192,202587,1,0,0:0:0:0:
256,192,202764,1,8,0:0:0:0:
256,192,203117,1,0,0:0:0:0:
256,192,203470,1,12,0:0:0:0:
256,192,204175,1,8,0:0:0:0:
256,192,204528,1,0,0:0:0:0:
256,192,204881,1,12,0:0:0:0:
256,192,205234,1,0,0:0:0:0:
256,192,205587,1,8,0:0:0:0:
256,192,205764,1,8,0:0:0:0:
256,192,205940,1,8,0:0:0:0:
256,192,206293,1,4,0:0:0:0:
256,192,206999,1,8,0:0:0:0:
256,192,207352,1,8,0:0:0:0:
256,192,207705,1,0,0:0:0:0:
256,192,208058,1,8,0:0:0:0:
256,192,208411,1,8,0:0:0:0:
256,192,208587,1,0,0:0:0:0:
256,192,208764,1,8,0:0:0:0:
256,192,209117,1,0,0:0:0:0:
256,192,209823,1,8,0:0:0:0:
256,192,210175,1,8,0:0:0:0:
256,192,210528,1,0,0:0:0:0:
256,192,210705,1,0,0:0:0:0:
256,192,210881,1,8,0:0:0:0:
256,192,211234,1,0,0:0:0:0:
256,192,211940,1,12,0:0:0:0:
256,192,212293,1,0,0:0:0:0:
256,192,212470,1,12,0:0:0:0:
256,192,212823,1,8,0:0:0:0:
256,192,212999,1,8,0:0:0:0:
256,192,213352,1,12,0:0:0:0:
256,192,214764,1,0,0:0:0:0:
256,192,216175,1,8,0:0:0:0:
256,192,216881,1,0,0:0:0:0:
256,192,217234,1,8,0:0:0:0:
256,192,217587,1,0,0:0:0:0:
256,192,218293,1,0,0:0:0:0:
256,192,218999,1,8,0:0:0:0:
256,192,219705,1,8,0:0:0:0:
256,192,220411,1,0,0:0:0:0:
256,192,221823,1,8,0:0:0:0:
256,192,222528,1,8,0:0:0:0:
256,192,222881,1,0,0:0:0:0:
256,192,223234,1,8,0:0:0:0:
256,192,223940,1,8,0:0:0:0:
256,192,224646,1,0,0:0:0:0:
256,192,225352,1,0,0:0:0:0:
256,192,225705,1,8,0:0:0:0:
256,192,226058,1,8,0:0:0:0:
256,192,226764,1,8,0:0:0:0:
256,192,227470,1,0,0:0:0:0:
256,192,228881,1,8,0:0:0:0:
256,192,229587,1,0,0:0:0:0:
256,192,230293,1,12,0:0:0:0:
256,192,230646,1,8,0:0:0:0:
256,192,230999,1,0,0:0:0:0:
256,192,231175,1,0,0:0:0:0:
256,192,231352,1,8,0:0:0:0:
256,192,231705,1,4,0:0:0:0:
256,192,232411,1,0,0:0:0:0:
256,192,232764,1,8,0:0:0:0:
256,192,232940,1,8,0:0:0:0:
256,192,233117,1,0,0:0:0:0:
256,192,233470,1,8,0:0:0:0:
256,192,233823,1,0,0:0:0:0:
256,192,233999,1,0,0:0:0:0:
256,192,234175,1,8,0:0:0:0:
256,192,234528,1,4,0:0:0:0:
256,192,234881,1,8,0:0:0:0:
256,192,235234,1,0,0:0:0:0:
256,192,235940,1,12,0:0:0:0:
256,192,236293,1,8,0:0:0:0:
256,192,236646,1,0,0:0:0:0:
256,192,236999,1,8,0:0:0:0:
256,192,237175,1,8,0:0:0:0:
256,192,237352,1,0,0:0:0:0:
256,192,237705,1,12,0:0:0:0:
256,192,238058,1,0,0:0:0:0:
256,192,238411,1,8,0:0:0:0:
256,192,238587,1,8,0:0:0:0:
256,192,239117,1,8,0:0:0:0:
256,192,239470,1,0,0:0:0:0:
256,192,239823,1,8,0:0:0:0:
256,192,240175,1,0,0:0:0:0:
256,192,240528,1,8,0:0:0:0:
256,192,240705,1,0,0:0:0:0:
256,192,240881,1,8,0:0:0:0:
256,192,242293,1,8,0:0:0:0:
256,192,242470,1,8,0:0:0:0:
256,192,242646,1,8,0:0:0:0:
256,192,242999,1,4,0:0:0:0:
256,192,243352,1,8,0:0:0:0:
256,192,243705,1,0,0:0:0:0:
256,192,244058,1,8,0:0:0:0:
256,192,244234,1,8,0:0:0:0:
256,192,244764,1,8,0:0:0:0:
256,192,245117,1,8,0:0:0:0:
256,192,245470,1,0,0:0:0:0:
256,192,245823,1,8,0:0:0:0:
256,192,246175,1,0,0:0:0:0:
256,192,246352,1,8,0:0:0:0:
256,192,246528,1,0,0:0:0:0:
256,192,247940,1,8,0:0:0:0:
256,192,248117,1,8,0:0:0:0:
256,192,248293,1,8,0:0:0:0:
256,192,248646,1,4,0:0:0:0:
256,192,248999,1,8,0:0:0:0:
256,192,249175,1,0,0:0:0:0:
256,192,249528,1,0,0:0:0:0:
256,192,249881,1,12,0:0:0:0:
256,192,250764,1,0,0:0:0:0:
256,192,251117,1,8,0:0:0:0:
256,192,251470,1,4,0:0:0:0:
256,192,251823,1,8,0:0:0:0:
256,192,251999,1,0,0:0:0:0:
256,192,252352,1,0,0:0:0:0:
256,192,252705,1,12,0:0:0:0:
256,192,253234,1,8,0:0:0:0:
256,192,253587,1,0,0:0:0:0:
256,192,253940,1,8,0:0:0:0:
256,192,254293,1,4,0:0:0:0:
256,192,254646,1,0,0:0:0:0:
256,192,254823,1,12,0:0:0:0:
256,192,255175,1,8,0:0:0:0:
256,192,255352,1,4,0:0:0:0:
256,192,256411,1,0,0:0:0:0:
256,192,256587,1,0,0:0:0:0:
256,192,256764,1,8,0:0:0:0:
256,192,257117,1,12,0:0:0:0:
256,192,257470,1,8,0:0:0:0:
256,192,257646,1,4,0:0:0:0:
256,192,257999,1,0,0:0:0:0:
256,192,258175,1,12,0:0:0:0:
256,192,259234,1,0,0:0:0:0:
256,192,259411,1,0,0:0:0:0:
256,192,259587,1,8,0:0:0:0:
256,192,259940,1,4,0:0:0:0:
256,192,260293,1,0,0:0:0:0:
256,192,260470,1,12,0:0:0:0:
256,192,260823,1,8,0:0:0:0:
256,192,260999,1,4,0:0:0:0:
256,192,262058,1,0,0:0:0:0:
256,192,262411,1,8,0:0:0:0:
256,192,262587,1,0,0:0:0:0:
256,192,262764,1,8,0:0:0:0:
256,192,263293,1,0,0:0:0:0:
256,192,263470,1,0,0:0:0:0:
256,192,264175,1,0,0:0:0:0:
256,192,264705,1,8,0:0:0:0:
256,192,265234,1,8,0:0:0:0:
256,192,265587,1,4,0:0:0:0:
256,192,266117,1,8,0:0:0:0:
256,192,266646,1,0,0:0:0:0:
256,192,266999,1,12,0:0:0:0:
256,192,267705,1,4,0:0:0:0:
256,192,268058,1,8,0:0:0:0:
256,192,268411,1,12,0:0:0:0:
256,192,269117,1,4,0:0:0:0:
256,192,269823,1,8,0:0:0:0:
256,192,269999,1,8,0:0:0:0:
256,192,270175,1,8,0:0:0:0:
256,192,270528,1,0,0:0:0:0:
256,192,270705,1,0,0:0:0:0:
256,192,270881,1,0,0:0:0:0:
256,192,271234,1,4,0:0:0:0:
256,192,271940,1,0,0:0:0:0:
256,192,272293,1,8,0:0:0:0:
256,192,272470,1,0,0:0:0:0:
256,192,272646,1,8,0:0:0:0:
256,192,272999,1,12,0:0:0:0:
256,192,273352,1,8,0:0:0:0:
256,192,273705,1,0,0:0:0:0:
256,192,274058,1,12,0:0:0:0:
256,192,274764,1,8,0:0:0:0:
256,192,275117,1,0,0:0:0:0:
256,192,275470,1,8,0:0:0:0:
256,192,275823,1,8,0:0:0:0:
256,192,276175,1,8,0:0:0:0:
256,192,276352,1,8,0:0:0:0:
256,192,276528,1,8,0:0:0:0:
256,192,276705,1,8,0:0:0:0:
256,192,277587,1,4,0:0:0:0:
256,192,277764,12,0,281823,0:0:0:0:
