osu file format v14

[General]
AudioFilename: fuyunisakuhana.mp3
AudioLeadIn: 0
PreviewTime: 47998
Countdown: 0
SampleSet: Soft
StackLeniency: 0.7
Mode: 0
LetterboxInBreaks: 0
WidescreenStoryboard: 0

[Editor]
DistanceSpacing: 1
BeatDivisor: 4
GridSize: 4
TimelineZoom: 1

[Metadata]
Title:Fuyu ni Saku Hana
TitleUnicode:冬に咲く華
Artist:Mitsuki Kotono
ArtistUnicode:美月琴音
Creator:CloudSplash16
Version:Normal
Source:彼女のセイイキ
Tags:kanojo no seiiki feng 9th game eroge hentai visual novel galgame opening baldrace Tsukuyomi
BeatmapID:560644
BeatmapSetID:242600

[Difficulty]
HPDrainRate:4
CircleSize:3
OverallDifficulty:4
ApproachRate:5
SliderMultiplier:1.2
SliderTickRate:1

[Events]
//Background and Video events
0,0,"cg01.jpg",0,0
//Break Periods
//Storyboard Layer 0 (Background)
//Storyboard Layer 1 (Fail)
//Storyboard Layer 2 (Pass)
//Storyboard Layer 3 (Foreground)
//Storyboard Sound Samples

[TimingPoints]
174,705.882352941176,4,2,1,50,1,0
5821,352.941176470588,4,2,1,60,1,0
11468,705.882352941176,4,2,1,50,1,0
11468,-57.1428571428571,4,2,1,50,0,0
28410,352.941176470588,4,2,1,60,1,0
34057,-100,4,2,2,60,0,0
39704,-100,4,2,1,60,0,0
48174,-100,4,2,1,70,0,1
65115,-100,4,2,2,70,0,1
68027,-100,4,2,1,70,0,1
70674,-100,4,2,1,70,0,0
70762,-100,4,2,1,75,0,1
90527,-100,4,2,1,70,0,0
105527,-100,4,2,1,40,0,0
107468,-100,4,2,1,30,0,0
108527,-100,4,2,1,20,0,0
109233,-100,4,2,1,10,0,0
109586,-100,4,2,1,5,0,0

[Colours]
Combo1 : 220,169,99
Combo2 : 23,121,168
Combo3 : 168,23,23
Combo4 : 128,128,128

[HitObjects]
108,120,5821,6,0,P|163:140|222:129,1,120,4|0,3:2|3:0,0:0:0:0:
336,96,6526,2,0,L|332:155,1,60,0|0,3:0|0:0,0:0:0:0:
368,204,6879,2,0,L|364:263,1,60,0|0,3:0|0:0,0:0:0:0:
360,324,7232,1,2,3:2:0:0:
256,264,7585,1,2,3:2:0:0:
152,324,7938,1,2,3:2:0:0:
48,263,8291,1,2,3:2:0:0:
48,141,8644,6,0,P|80:93|137:78,1,120,4|0,3:2|3:0,0:0:0:0:
228,156,9350,2,0,P|255:167|285:169,1,60,8|8,3:2|3:2,0:0:0:0:
344,188,9703,2,0,P|371:177|394:157,1,60,8|8,3:2|3:2,0:0:0:0:
440,120,10056,2,0,L|432:239,1,120,8|0,3:2|3:0,0:0:0:0:
348,324,10762,2,0,L|288:320,2,60,0|0|0,3:0|3:0|3:0,0:0:0:0:
327,219,11468,6,0,P|276:212|227:230,1,105.000001001358,2|0,3:2|0:0,0:0:0:0:
132,272,12173,2,0,P|40:235|43:136,1,210.000002002716,2|2,0:0|0:0,0:0:0:0:
128,76,13232,1,0,0:0:0:0:
228,108,13585,2,0,P|279:116|328:100,1,105.000001001358,2|0,0:0|0:0,0:0:0:0:
428,64,14291,6,0,L|412:220,2,157.500001502037,2|0|0,0:0|0:0|0:0,0:0:0:0:
328,100,15703,2,0,P|279:116|228:108,1,105.000001001358,2|0,0:0|0:0,0:0:0:0:
123,108,16409,2,0,P|96:151|94:203,1,105.000001001358,2|0,0:0|0:0,0:0:0:0:
152,292,17115,6,0,B|252:320|252:320|354:292,2,210.000002002716,2|2|2,0:0|0:0|0:0,0:0:0:0:
94,204,18879,2,0,P|95:152|123:108,1,105.000001001358,0|2,0:0|0:0,0:0:0:0:
212,52,19585,1,0,0:0:0:0:
299,111,19938,6,0,P|397:132|467:60,1,210.000002002716,2|2,0:0|0:0,0:0:0:0:
368,32,20997,1,0,0:0:0:0:
368,32,21350,2,0,L|383:241,1,210.000002002716,2|2,0:0|0:0,0:0:0:0:
194,142,22762,6,0,P|94:138|37:220,1,210.000002002716,2|2,0:0|0:0,0:0:0:0:
140,232,23820,1,0,0:0:0:0:
140,232,24173,2,0,P|189:246|240:237,1,105.000001001358,2|0,0:0|0:0,0:0:0:0:
287,216,24703,2,0,P|362:196|435:223,1,157.500001502037,0|0,0:0|0:0,0:0:0:0:
404,323,25585,6,0,P|352:332|304:313,2,105.000001001358,2|0|2,0:0|0:0|0:0,0:0:0:0:
435,223,26644,1,0,0:0:0:0:
468,124,26997,1,2,0:0:0:0:
468,124,28410,6,0,L|349:140,1,120,4|0,3:2|3:0,0:0:0:0:
236,100,29115,2,0,L|117:116,1,120,0|0,3:0|3:0,0:0:0:0:
20,188,29821,2,0,P|4:240|36:316,1,120,2|0,3:2|3:0,0:0:0:0:
128,356,30527,2,0,L|246:339,1,120,0|0,3:0|3:0,0:0:0:0:
344,271,31233,6,0,P|359:215|341:158,1,120,2|0,3:2|3:0,0:0:0:0:
233,105,31939,2,0,P|217:161|235:217,1,120,0|0,3:0|3:0,0:0:0:0:
341,159,32645,2,0,L|392:124,2,60,8|8|8,3:2|3:2|3:2,0:0:0:0:
288,188,33174,2,0,L|148:180,1,120,8|8,3:2|3:2,0:0:0:0:
108,180,33704,1,8,3:2:0:0:
36,276,34057,6,0,P|63:327|120:340,1,120,4|10,3:2|0:0,0:0:0:0:
240,328,34762,2,0,L|304:324,1,60,0|0,3:0|3:0,0:0:0:0:
360,320,35115,1,10,0:0:0:0:
460,252,35468,2,0,L|463:132,1,120,2|10,3:2|0:0,0:0:0:0:
443,75,35998,2,0,P|393:46|334:51,1,120,0|0,3:0|3:0,0:0:0:0:
276,72,36527,1,10,0:0:0:0:
168,124,36880,6,0,P|116:144|48:128,1,120,0|10,3:0|0:0,0:0:0:0:
0,104,37409,2,0,L|14:223,1,120,0|0,3:0|3:0,0:0:0:0:
24,284,37939,1,10,0:0:0:0:
120,352,38292,1,0,3:0:0:0:
212,272,38645,1,12,0:0:0:0:
308,344,38998,2,0,P|368:340|408:188,1,240,8|4,3:2|3:2,0:0:0:0:
104,128,41115,6,0,P|156:140|232:120,1,120,0|0,0:0|0:0,0:0:0:0:
276,104,41645,2,0,L|268:224,1,120,0|8,3:0|3:2,0:0:0:0:
264,284,42174,1,8,0:0:0:0:
160,220,42527,6,0,P|124:208|36:240,1,120,4|0,3:2|3:0,0:0:0:0:
47,289,43057,2,0,L|152:345,1,120,2|8,0:0|3:2,0:0:0:0:
204,376,43586,1,8,3:2:0:0:
324,356,43939,2,0,P|342:332|356:305,1,60,8|8,3:2|3:2,0:0:0:0:
399,264,44292,2,0,P|395:234|386:205,1,60,8|8,3:2|3:2,0:0:0:0:
344,160,44645,2,0,L|212:144,1,120,4|8,3:2|3:2,0:0:0:0:
116,200,45351,6,0,P|108:258|134:312,1,120,4|8,3:2|3:2,0:0:0:0:
248,352,46057,2,0,P|255:293|229:239,1,120,4|8,3:2|3:2,0:0:0:0:
116,200,46762,1,4,3:2:0:0:
116,200,48174,6,0,P|104:152|124:80,1,120,4|8,3:2|0:0,0:0:0:0:
240,64,48880,2,0,P|280:72|368:60,1,120,0|8,3:0|0:0,0:0:0:0:
416,76,49409,2,0,P|444:128|436:208,1,120,4|0,3:2|3:0,0:0:0:0:
424,244,49939,1,8,0:0:0:0:
344,336,50292,1,0,3:0:0:0:
228,308,50645,1,8,0:0:0:0:
204,192,50998,6,0,L|180:74,1,120,0|8,3:0|0:0,0:0:0:0:
68,36,51704,2,0,P|27:78|20:137,1,120,0|8,3:0|0:0,0:0:0:0:
28,195,52233,2,0,P|40:251|40:315,1,120,4|0,3:2|3:0,0:0:0:0:
36,372,52762,1,8,0:0:0:0:
140,312,53115,1,0,3:0:0:0:
252,360,53468,1,8,0:0:0:0:
364,316,53821,6,0,P|396:276|392:192,1,120,0|8,3:0|0:0,0:0:0:0:
312,124,54527,2,0,L|194:101,1,120,0|8,3:0|0:0,0:0:0:0:
132,96,55057,2,0,P|76:136|56:184,1,120,0|0,3:0|3:0,0:0:0:0:
48,240,55586,1,8,0:0:0:0:
148,304,55939,2,0,L|276:320,1,120,0|8,3:0|0:0,0:0:0:0:
383,296,56645,6,0,P|428:223|381:152,1,180,0|8,3:0|0:0,0:0:0:0:
320,148,57351,2,0,P|252:152|200:140,1,120,0|8,3:0|0:0,0:0:0:0:
148,116,57880,2,0,L|152:240,1,120,0|0,3:0|3:0,0:0:0:0:
156,296,58409,1,8,0:0:0:0:
40,268,58762,1,8,0:0:0:0:
32,148,59115,1,0,3:0:0:0:
148,116,59468,6,0,P|192:136|272:128,1,120,4|8,3:2|0:0,0:0:0:0:
320,120,59998,1,0,0:0:0:0:
428,176,60351,1,0,3:0:0:0:
424,296,60704,2,0,P|404:328|264:328,1,180,2|8,3:2|0:0,0:0:0:0:
220,312,61409,2,0,P|172:304|88:320,1,120,0|0,0:0|3:0,0:0:0:0:
44,332,61939,1,8,0:0:0:0:
44,332,62292,6,0,L|56:212,1,120,2|8,3:2|0:0,0:0:0:0:
96,168,62821,2,0,L|84:48,2,120,2|0|4,3:2|3:0|3:2,0:0:0:0:
208,308,64057,1,8,0:0:0:0:
208,308,64409,2,0,P|264:325|321:310,1,120,0|8,3:0|0:0,0:0:0:0:
412,228,65115,6,0,L|419:108,1,120,4|10,3:2|0:0,0:0:0:0:
307,64,65821,2,0,P|281:77|251:83,1,60,2|0,3:2|3:0,0:0:0:0:
192,92,66174,1,10,0:0:0:0:
72,84,66527,2,0,L|86:203,1,120,2|10,3:2|0:0,0:0:0:0:
136,311,67233,2,0,P|192:295|248:314,1,120,2|10,3:2|0:0,0:0:0:0:
368,308,67939,6,0,P|422:239|407:153,1,180,2|8,3:2|0:0,0:0:0:0:
372,104,68645,1,0,3:0:0:0:
256,72,68998,1,8,0:0:0:0:
256,72,69174,2,0,P|200:93|141:87,1,120,4|0,3:2|3:0,0:0:0:0:
84,72,69704,2,0,L|84:192,1,120,8|8,0:0|0:0,0:0:0:0:
132,304,70409,2,0,L|183:335,1,60,0|8,3:0|0:0,0:0:0:0:
240,360,70762,6,0,P|299:368|356:352,1,120,4|8,3:2|0:0,0:0:0:0:
436,264,71468,2,0,L|436:144,1,120,0|8,3:0|0:0,0:0:0:0:
391,104,71998,2,0,P|340:133|280:135,1,120,4|0,3:2|3:0,0:0:0:0:
220,132,72527,1,8,0:0:0:0:
288,232,72880,1,0,3:0:0:0:
212,328,73233,1,8,0:0:0:0:
96,304,73586,6,0,P|61:224|103:148,1,180,0|8,3:0|0:0,0:0:0:0:
156,120,74292,2,0,P|196:128|288:116,1,120,0|8,3:0|0:0,0:0:0:0:
332,108,74821,1,4,3:2:0:0:
460,236,75351,2,0,P|454:294|416:339,2,120,8|8|8,0:0|3:2|0:0,0:0:0:0:
344,208,76409,6,0,L|220:228,1,120,4|8,3:2|0:0,0:0:0:0:
104,224,77115,2,0,P|84:184|100:108,1,120,0|8,3:0|0:0,0:0:0:0:
144,72,77645,2,0,L|272:68,1,120,0|0,3:0|3:0,0:0:0:0:
324,64,78174,1,8,0:0:0:0:
404,152,78527,1,0,3:0:0:0:
392,272,78880,2,0,L|348:320,1,60,8|0,0:0|3:0,0:0:0:0:
296,340,79233,6,0,P|252:332|160:348,1,120,0|12,3:0|0:0,0:0:0:0:
104,248,79939,2,0,P|164:252|228:224,1,120,0|8,3:0|0:0,0:0:0:0:
268,196,80468,2,0,L|276:76,1,120,4|0,3:2|3:0,0:0:0:0:
280,20,80998,1,8,0:0:0:0:
392,64,81351,1,12,0:0:0:0:
436,176,81704,1,0,3:0:0:0:
400,292,82057,6,0,P|364:336|244:336,1,180,4|0,3:2|0:0,0:0:0:0:
144,284,82939,1,0,0:0:0:0:
144,284,83292,2,0,L|140:148,1,120,8|0,0:0|0:0,0:0:0:0:
136,104,83821,1,0,3:0:0:0:
252,80,84174,2,0,P|300:100|384:80,1,120,0|0,3:0|3:0,0:0:0:0:
476,44,84880,6,0,L|452:232,1,180,4|0,3:2|0:0,0:0:0:0:
376,312,85762,1,8,0:0:0:0:
376,312,86115,2,0,P|332:296|240:312,1,120,12|8,0:0|0:0,0:0:0:0:
204,324,86645,1,8,3:2:0:0:
148,216,86998,1,8,0:0:0:0:
92,108,87351,1,8,3:2:0:0:
92,108,87704,6,0,P|136:108|212:64,1,120,4|0,3:2|3:0,0:0:0:0:
264,72,88233,2,0,P|296:96|316:192,1,120,8|0,0:0|3:0,0:0:0:0:
304,228,88762,2,0,P|332:284|396:312,1,120,12|0,0:0|3:0,0:0:0:0:
440,320,89292,1,12,0:0:0:0:
484,208,89645,1,0,3:0:0:0:
484,208,89821,2,0,L|492:80,2,120,8|8|2,0:0|3:2|0:0,0:0:0:0:
352,276,92468,6,0,L|216:284,1,120,8|0,3:0|3:0,0:0:0:0:
172,288,92998,1,4,3:0:0:0:
64,240,93351,6,0,P|44:196|116:88,1,180,4|8,3:2|0:0,0:0:0:0:
224,100,94233,2,0,L|308:108,1,60,0|4,3:0|3:0,0:0:0:0:
404,124,94762,2,0,P|436:180|432:236,1,120,4|2,3:2|0:0,0:0:0:0:
332,296,95468,2,0,P|256:288|208:304,1,120,4|2,3:2|0:0,0:0:0:0:
96,308,96174,6,0,P|72:264|144:168,1,180,4|0,3:2|0:0,0:0:0:0:
200,164,96880,1,4,3:2:0:0:
384,320,97586,1,4,3:2:0:0:
456,224,97939,1,8,0:0:0:0:
408,113,98292,1,8,0:0:0:0:
287,99,98645,1,8,0:0:0:0:
180,152,98998,6,0,P|128:164|44:144,1,120,4|8,3:2|0:0,0:0:0:0:
28,268,99704,1,2,3:2:0:0:
132,332,100057,1,10,0:0:0:0:
232,264,100409,2,0,P|288:256|360:268,1,120,2|14,3:2|0:0,0:0:0:0:
460,320,101115,2,0,L|448:200,1,120,10|10,0:0|3:2,0:0:0:0:
388,96,101821,6,0,P|328:68|220:112,1,180,6|10,3:2|3:2,0:0:0:0:
188,152,102527,1,10,0:0:0:0:
280,308,103057,1,10,0:0:0:0:
280,308,103233,2,0,L|360:147,1,180,10|10,0:0|0:0,0:0:0:0:
388,96,103939,1,10,0:0:0:0:
460,192,104292,1,8,0:0:0:0:
100,192,105351,5,4,0:0:0:0:
256,192,105527,12,0,109586,0:0:0:0:
