osu file format v9

[General]
AudioFilename: Innocent Sin.mp3
AudioLeadIn: 0
PreviewTime: 124178
Countdown: 0
SampleSet: Normal
StackLeniency: 0.7
Mode: 0
LetterboxInBreaks: 1

[Editor]
DistanceSpacing: 0.5
BeatDivisor: 4
GridSize: 8

[Metadata]
Title:Innocent Sin (Short Ver.)
Artist:Mitsuki
Creator:RinNa
Version:Hard
Source:Shoujo Byou
Tags:gina91189

[Difficulty]
HPDrainRate:8
CircleSize:4
OverallDifficulty:8
ApproachRate:8
SliderMultiplier:2
SliderTickRate:1

[Events]
//Background and Video events
0,0,"BG.jpg"
//Break Periods
2,82846,85325
//Storyboard Layer 0 (Background)
//Storyboard Layer 1 (Fail)
//Storyboard Layer 2 (Pass)
//Storyboard Layer 3 (Foreground)
//Storyboard Sound Samples
//Background Colour Transformations
3,100,163,162,255

[TimingPoints]
67218,428.571428571429,4,1,1,70,1,0
123789,-100,4,1,1,70,0,1
149503,-100,4,1,1,70,0,0

[Colours]
Combo1 : 192,192,192
Combo2 : 255,0,0

[HitObjects]
216,56,67217,1,8
96,216,67646,1,8
296,224,68075,1,8
296,224,68289,2,8,B|352:192,4,50
264,128,68932,2,2,B|152:64|64:160,1,200
152,216,69575,2,2,B|264:280|352:184,1,200
400,120,70217,5,8
424,128,70325,1,8
448,136,70432,1,8
432,232,70646,1,8
408,232,70753,1,8
384,232,70860,1,8
288,272,71075,2,0,B|256:336,2,50
264,176,71503,2,8,B|256:112|176:96,3,100
104,112,72360,6,2,B|24:200|112:296,1,200
176,224,73003,2,2,B|256:136|168:40,1,200
272,56,73646,1,8
296,64,73753,1,8
320,72,73860,1,8
344,80,73967,1,8
368,88,74075,1,8
416,176,74289,1,4
416,176,74503,1,0
368,264,74717,1,4
368,264,74932,1,0
272,296,75146,1,0
248,296,75253,1,0
224,296,75360,1,0
136,248,75575,5,8
120,232,75682,1,8
104,216,75789,2,8,B|16:128|120:48,1,200
224,56,76432,2,8,B|312:144|208:224,1,200
208,223,77075,1,4
280,288,77289,1,0
208,223,77503,1,4
280,288,77717,2,0,B|336:296|360:232,1,100
357,238,78146,2,8,B|376:184|352:128,1,100
356,139,78575,2,8,B|336:80|264:48,2,100
256,144,79217,6,2,B|56:144,1,200
120,224,79860,2,2,B|320:224,1,200
320,224,80503,1,0
320,224,80717,1,0
392,152,80932,2,8,B|432:96,2,50
304,104,81360,2,8,B|320:32,2,50
200,104,81789,2,0,B|192:32,2,50
200,104,82217,1,8
184,120,82325,1,8
168,136,82432,1,8
152,152,82539,1,8
136,168,82646,1,8
104,64,86075,6,2,B|208:48|296:128,1,200
288,121,86717,2,2,B|376:208|336:320,1,200
240,320,87360,1,0
152,272,87575,1,8
128,256,87682,1,8
104,240,87789,1,8
104,144,88003,1,0
176,80,88217,2,8,B|232:48|288:96,1,100
328,168,88646,2,8,B|272:200|216:152,1,100
224,264,89075,1,4
224,264,89289,1,0
320,304,89503,6,2,B|448:320|496:208,1,200
392,184,90146,2,2,B|264:200|216:88,1,200
128,80,90789,1,4
88,168,91003,1,0
120,264,91217,1,8
200,320,91432,1,8
224,320,91539,1,8
248,320,91646,1,8
344,320,91860,1,8
368,320,91967,1,8
392,320,92075,1,8
456,240,92289,2,0,B|480:176|416:144,2,100
360,216,92932,6,2,B|144:216,1,200
96,136,93575,2,2,B|320:136,1,200
384,88,94217,2,8,B|432:40,2,50
440,168,94646,2,4,B|488:224|432:280,1,100
352,264,95075,2,0,B|304:208|360:152,1,100
440,168,95503,2,4,B|488:224|432:280,1,100
352,264,95932,2,0,B|304:208|360:152,1,100
272,104,96360,6,8,B|152:72|96:176,1,200
256,192,97003,12,0,97860
120,72,98075,5,4
120,72,98289,2,0,B|72:120|128:176,1,100
208,128,98717,1,8
232,120,98825,1,8
256,112,98932,1,8
352,88,99146,2,8,B|408:104|416:160,2,100
312,176,99789,6,2,B|176:200|224:336,1,200
304,264,100432,2,2,B|440:240|392:104,1,200
397,121,100967,1,0
397,121,101075,1,0
304,80,101289,1,0
208,72,101503,2,8,B|184:24,2,50
128,128,101932,2,8,B|48:88,2,50
112,224,102360,1,8
184,288,102575,1,8
208,288,102682,1,8
232,288,102789,1,8
320,240,103003,5,8
336,224,103110,1,8
352,208,103217,2,8,B|440:120|336:40,1,200
240,56,103860,2,4,B|112:48|112:184,1,200
168,256,104503,1,0
192,272,104610,1,0
216,280,104717,1,0
240,280,104825,1,0
264,272,104932,1,0
352,216,105146,1,8
352,216,105360,1,8
400,128,105575,2,2,B|392:64|312:56,1,100
240,72,106003,2,2,B|248:136|328:144,1,100
224,200,106432,1,4
136,160,106646,6,2,B|0:184|56:320,1,200
144,264,107289,2,2,B|232:352|336:256,1,200
322,268,107825,1,8
322,268,107932,1,8
376,184,108146,1,8
376,184,108253,1,8
376,184,108360,1,8
328,96,108575,1,8
328,96,108682,1,8
328,96,108789,1,8
232,64,109003,2,4,B|160:40|136:112,1,100
208,168,109432,2,0,B|280:144|304:216,2,100
128,112,110075,6,2,B|0:64|48:232,1,200
144,248,110717,2,2,B|256:336|328:224,1,200
384,160,111360,1,8
376,136,111467,1,8
360,120,111575,1,8
344,104,111682,1,8
320,88,111789,1,8
224,64,112003,6,0,B|160:56,2,50
160,144,112432,2,0,B|72:160,2,50
176,240,112860,1,0
176,240,112967,1,0
176,240,113075,2,4,B|200:304|280:288,1,100
344,248,113503,6,2,B|408:168|384:48,1,200
288,40,114146,2,2,B|208:128|104:88,1,200
72,184,114789,1,8
72,208,114896,1,8
80,232,115003,1,8
96,256,115110,1,8
112,272,115217,2,0,B|176:320,2,50
184,208,115646,1,8
184,184,115753,1,8
192,160,115860,1,8
208,136,115967,1,8
224,120,116075,2,0,B|272:80,2,50
304,176,116503,2,4,B|416:176,1,100
404,176,116932,6,2,B|488:280|328:320,1,200
288,232,117575,2,2,B|204:128|364:88,1,200
448,128,118217,1,8
448,152,118325,1,8
448,176,118432,1,8
448,200,118539,1,8
448,224,118646,2,8,B|456:296|376:288,1,100
328,208,119075,2,4,B|336:136|256:144,1,100
184,96,119503,2,4,B|112:80|104:168,1,100
104,240,119932,2,0,B|176:256|184:168,1,100
264,136,120360,6,2,B|352:72|456:144,1,200
368,200,121003,2,2,B|416:312|272:336,1,200
184,288,121646,2,0,B|104:296,2,50
152,192,122075,2,0,B|96:168,2,50
216,112,122503,2,2,B|288:64,1,50
272,136,122717,2,2,B|328:152,1,50
288,192,122932,2,2,B|328:248,1,50
272,248,123146,2,2,B|248:304,1,50
240,312,123360,1,8
224,328,123467,1,8
200,336,123575,1,8
176,336,123682,1,8
152,336,123789,6,8,B|32:320|32:192,1,200
128,224,124432,2,0,B|272:224|272:96,1,200
368,112,125075,1,8
392,128,125182,1,8
408,144,125289,1,8
424,168,125396,1,8
432,192,125503,1,8
424,288,125717,2,4,B|392:360|304:304,1,100
336,224,126146,2,0,B|304:152|216:208,2,100
256,280,126789,2,0,B|200:328|144:272,1,100
96,216,127217,6,8,B|48:120|104:24,1,200
192,72,127860,2,8,B|280:192|392:104,1,200
448,176,128503,1,4
392,256,128717,1,0
368,272,128825,1,0
344,288,128932,1,0
296,200,129146,1,8
280,176,129253,1,8
264,152,129360,1,8
184,96,129575,2,2,B|128:40,2,50
120,176,130003,2,2,B|48:176,2,50
120,176,130432,1,0
160,272,130646,6,8,B|392:272,1,200
416,184,131289,2,8,B|200:184,1,200
208,88,131932,1,8
184,80,132039,1,8
160,80,132146,1,8
136,88,132253,1,8
120,104,132360,1,8
72,192,132575,1,8
144,256,132789,1,8
168,240,132896,1,8
192,232,133003,1,0
216,232,133110,1,8
240,240,133217,2,4,B|288:264|344:208,1,100
331,219,133646,2,0,B|376:184|376:112,1,100
375,132,134075,6,2,B|384:64|360:16|272:8|216:16,1,200
152,24,134717,2,2,B|96:88|176:120|208:176|152:232,1,200
112,288,135360,1,8
120,312,135468,1,8
144,328,135575,1,8
168,328,135682,1,8
192,320,135789,1,8
280,272,136003,1,4
280,272,136217,1,0
368,216,136432,1,0
368,216,136539,1,0
368,216,136646,1,0
392,120,136860,1,8
392,120,136967,1,8
392,120,137075,1,8
320,48,137289,1,8
320,48,137396,1,8
320,48,137503,6,8,B|208:16|144:120,1,200
120,208,138146,2,10,B|152:296|224:264|248:208|296:240,1,200
360,304,138789,1,8
384,312,138896,1,8
408,312,139003,1,8
432,304,139110,1,8
448,288,139217,2,4,B|480:224|448:176,1,100
360,216,139646,2,0,B|328:152|360:104,1,100
264,80,140075,1,8
240,72,140182,1,8
216,72,140289,1,8
192,80,140396,1,8
176,96,140503,1,8
160,112,140610,1,8
152,136,140717,1,8
152,160,140825,1,8
152,184,140932,2,8,B|152:240|224:256,1,100
304,288,141360,2,8,B|304:344|232:360,2,100
344,192,142003,1,8
352,168,142110,1,8
360,144,142217,1,8
288,72,142432,1,4
288,72,142646,6,0,B|152:32|144:160,1,200
248,160,143289,2,0,B|312:272|184:320,1,200
88,304,143932,1,8
64,288,144039,1,8
56,264,144146,1,8
48,240,144253,1,8
48,216,144360,1,8
88,128,144575,1,4
88,128,144682,1,0
88,128,144789,1,0
184,160,145003,1,4
184,160,145110,1,0
184,160,145218,1,0
272,112,145432,1,0
272,112,145646,1,0
368,120,145860,1,0
368,120,146075,6,8,B|464:200|368:320,1,200
304,360,146718,2,8,B|208:280|304:160,1,200
304,160,147253,1,8
320,144,147360,1,8
400,88,147575,1,8
400,88,147682,1,8
400,88,147789,1,8
472,152,148003,1,4
472,152,148110,1,0
472,152,148218,1,0
432,240,148432,1,8
336,272,148646,1,8
312,272,148753,1,8
288,272,148860,1,8
264,272,148968,1,8
240,272,149075,1,8
216,272,149182,1,8
192,272,149289,1,8
168,272,149396,1,8
144,272,149503,6,2,B|8:264|48:104,1,200
128,184,150146,2,2,B|264:176|224:16,1,200
328,56,150789,1,8
408,120,151003,1,8
416,144,151110,1,8
424,168,151218,1,8
392,264,151432,1,12
376,280,151539,1,8
360,296,151646,1,0
264,304,151860,1,8
168,280,152075,1,8
168,256,152182,1,8
168,232,152289,1,8
168,208,152396,1,8
168,184,152503,1,8
168,160,152610,1,8
168,136,152718,1,8
168,112,152825,1,8
168,88,152932,6,8,B|168:24|248:24|264:112|360:56,1,200
416,128,153575,2,4,B|504:232|360:288,1,200
272,280,154218,2,0,B|232:328,2,50
184,232,154646,1,8
168,208,154753,1,8
152,184,154860,1,8
136,160,154968,1,8
120,136,155075,1,8
160,48,155289,2,4,B|208:88|256:48,1,100
272,152,155718,2,0,B|320:112|368:152,1,100
416,232,156146,1,8
416,232,156253,1,8
416,232,156360,6,8,B|368:352|232:312,1,200
160,280,157003,2,8,B|208:168|304:256|328:168,1,200
321,184,157646,1,4
320,88,157860,1,0
321,184,158075,1,0
320,88,158289,2,0,B|256:64|216:128,2,100
408,128,158932,1,8
424,152,159039,1,8
432,176,159146,1,8
432,200,159253,1,8
424,224,159360,1,8
360,304,159575,1,4
360,304,159682,1,0
360,304,159789,6,0,B|264:272|184:336|136:280,1,200
64,272,160432,2,8,B|80:160|200:232|240:176,1,200
296,120,161075,1,8
392,96,161289,1,8
392,96,161396,1,8
392,96,161503,1,8
432,184,161718,2,8,B|480:184,2,50
360,256,162146,1,8
360,256,162253,1,8
360,256,162360,1,8
264,280,162575,1,4
264,280,162789,1,0
264,280,163003,1,0
168,256,163218,6,2,B|72:184|96:72,1,200
168,16,163860,2,2,B|264:88|240:200,1,200
336,168,164503,2,4,B|392:136|448:192,1,100
376,256,164932,2,0,B|320:288|264:232,1,100
224,168,165360,1,8
200,160,165468,1,8
176,160,165575,1,8
152,168,165682,1,8
136,184,165789,2,8,B|96:224|136:272,3,100
136,272,166646,1,8
256,192,166860,12,0,168146
