osu file format v9

[General]
AudioFilename: Innocent Sin.mp3
AudioLeadIn: 0
PreviewTime: 124178
Countdown: 0
SampleSet: Soft
StackLeniency: 0.7
Mode: 0
LetterboxInBreaks: 1

[Editor]
DistanceSpacing: 0.8
BeatDivisor: 2
GridSize: 4

[Metadata]
Title:Innocent Sin (Short Ver.)
Artist:Mitsuki
Creator:RinNa
Version:Gina's Easy
Source:Shoujo Byou
Tags:gina91189

[Difficulty]
HPDrainRate:1
CircleSize:3
OverallDifficulty:1
ApproachRate:2
SliderMultiplier:0.999999999999999
SliderTickRate:0.5

[Events]
//Background and Video events
0,0,"BG.jpg"
//Break Periods
//Storyboard Layer 0 (Background)
//Storyboard Layer 1 (Fail)
//Storyboard Layer 2 (Pass)
//Storyboard Layer 3 (Foreground)
//Storyboard Sound Samples
//Background Colour Transformations
3,100,163,162,255

[TimingPoints]
67218,428.571428571429,4,1,0,80,1,0
82860,-100,4,2,0,80,0,0
96146,-200,4,1,0,80,0,0
97860,-133.333333333333,4,2,0,70,0,0
104718,-133.333333333333,4,1,0,70,0,0
105146,-100,4,2,0,80,0,0
108146,-100,4,1,0,80,0,0
108575,-100,4,2,0,80,0,0
111575,-100,4,1,0,80,0,0
112432,-100,4,2,0,80,0,0
115003,-100,4,1,0,80,0,0
115432,-100,4,2,0,80,0,0
118432,-100,4,1,0,80,0,0
118860,-100,4,2,0,80,0,0
120253,-100,4,1,0,80,0,0
120789,-100,4,2,0,80,0,0
123789,-100,4,1,0,90,0,1
149503,-100,4,1,0,90,0,0
150146,-100,4,2,0,80,0,0
157860,-100,4,2,0,90,0,0
158289,-100,4,2,0,80,0,0
159575,-100,4,1,0,80,0,0
160432,-100,4,2,0,80,0,0
163003,-100,4,1,0,80,0,0
164075,-100,4,2,0,80,0,0
164718,-100,4,2,0,90,0,0
165146,-100,4,2,0,80,0,0

[Colours]
Combo1 : 192,192,192
Combo2 : 255,0,0

[HitObjects]
208,92,67218,2,0,B|256:72|312:92,1,99.9999999999999,4|4
352,156,68075,2,0,B|372:204|352:260,1,99.9999999999999,4|4
304,316,68932,2,0,B|200:332|108:288,1,200,4|0
60,228,70218,1,2
76,148,70646,5,4
140,100,71075,2,0,B|196:188,1,99.9999999999999,2|0
260,140,71932,2,0,B|204:52,1,99.9999999999999,2|0
284,36,72789,2,0,B|384:60|384:60|444:136,1,200,2|2
484,204,74075,5,0
404,204,74503,2,0,B|376:252|376:252|324:264,2,99.9999999999999,2|0|2
328,184,75789,2,2,B|304:140|244:120|184:140|160:184,1,200,4|0
112,244,77075,1,2
192,256,77503,6,0,B|192:308,2,50,0|0|2
272,248,78360,2,0,B|292:300,2,50,0|0|2
348,224,79218,2,2,B|448:224|448:224|472:120,1,200,4|0
392,124,80503,6,0,B|340:124,2,50,2|0|0
392,44,81360,2,0,B|448:44,2,50,2|0|0
311,44,82218,1,2
236,68,82646,5,4
176,120,83075,1,2
156,196,83503,1,0
164,276,83932,6,0,B|232:348,1,99.9999999999999,2|0
312,332,84789,2,0,B|388:264,1,99.9999999999999,2|0
392,184,85646,2,0,B|324:112,1,99.9999999999999,2|4
252,76,86503,6,0,B|200:52|160:92,1,99.9999999999999,2|0
216,148,87360,1,2
180,220,87789,2,0,B|232:244|272:204,1,99.9999999999999,0|2
336,156,88646,1,0
408,124,89075,6,0,B|432:176|392:216,1,99.9999999999999,2|4
340,276,89932,2,0,B|260:300|176:256|176:156|240:92,1,300,2|0
308,52,91646,2,0,B|364:52|404:92,1,99.9999999999999,2|0
428,164,92503,1,2
256,192,92932,12,4,96360
256,108,98075,5,4
340,192,98932,1,2
255,276,99789,1,0
170,191,100646,1,2
240,132,101289,1,2
240,132,101503,6,0,B|240:176|264:208,1,74.9999977648258,0|2
344,172,102575,2,0,B|344:232|388:276,2,112.499996647239,0|4|2
272,304,104932,5,4
196,328,105360,2,0,B|144:328|100:300,1,99.9999999999999,2|0
116,224,106218,2,0,B|168:224|212:252,1,99.9999999999999,2|0
272,304,107075,5,2
392,288,107718,2,0,B|460:256|488:176,1,150,0|4
436,116,108789,1,2
356,108,109218,2,0,B|256:152|232:260,1,200
232,336,110503,5,2
420,184,111789,2,0,B|352:100|244:100,1,200,4|0
164,104,113075,2,0,B|164:160,2,50,2|0|0
312,240,114575,1,0
312,240,114789,6,0,B|212:240,1,99.9999999999999,2|4
240,164,115646,2,0,B|140:144,1,99.9999999999999,2|0
172,72,116503,2,0,B|80:28,1,99.9999999999999,2|0
400,52,118646,6,0,B|448:84|432:152,2,99.9999999999999,4|2|0
356,120,119932,2,0,B|308:120,2,50,2|0|4
396,232,121003,2,0,B|332:284|332:284|256:284,1,150,0|2
256,192,122075,12,4,123789
256,144,125289,1,4
328,288,126146,2,0,B|256:312|180:288,1,150,0|8
108,252,127218,1,0
176,108,128075,2,0,B|176:208,1,99.9999999999999,0|8
256,192,128932,12,4,130646
256,252,131932,1,8
256,332,132360,1,4
188,292,132789,1,8
96,160,133646,6,0,B|120:104|176:92,1,99.9999999999999,8|0
244,80,134503,1,8
324,92,134932,1,0
388,140,135360,1,8
436,204,135789,6,0,B|452:252|436:304,1,99.9999999999999,4|8
364,340,136646,1,0
284,344,137075,2,0,B|232:344|188:320,1,99.9999999999999,8|4
120,276,137932,1,8
80,208,138360,1,0
60,132,138789,6,0,B|60:80,2,50,8|0|0
160,64,139860,1,0
160,64,140075,2,0,B|268:64|348:128,2,200,0|4|0
256,192,142646,5,0
336,192,143075,1,8
296,124,143503,1,0
215,124,143932,1,8
176,192,144360,5,0
372,148,145432,1,0
372,148,145646,2,0,B|408:192|376:240,2,99.9999999999999,8|4|8
260,192,147146,2,0,B|200:192,2,50,0|8|0
256,192,147789,12,4,149503
256,192,150360,12,2,152075
124,288,152932,5,4
124,168,153575,1,0
228,228,154218,5,2
224,148,154646,1,4
224,68,155075,2,0,B|324:68,1,99.9999999999999,2|0
424,192,156360,5,4
368,300,157003,2,0,B|336:224|272:184,1,150,0|2
220,244,158075,1,4
200,168,158503,1,2
180,92,158932,6,0,B|132:68|84:96,2,99.9999999999999,0|2|4
152,248,160646,2,0,B|160:304|224:328,2,99.9999999999999,0|2|4
232,240,161932,2,0,B|276:200,2,50,2|0|0
184,176,162789,1,2
232,112,163218,5,4
352,272,164289,2,0,B|376:208|376:208|376:128,1,150,0|4
304,96,165360,2,0,B|248:96,2,50,2|0|0
368,48,166218,1,2
256,192,166646,12,4,168360
