osu file format v9

[General]
AudioFilename: Mitsudomoe Zouryouchuu Opening HD! WITH SUBTITLES COM LEGENDAS!.mp3
AudioLeadIn: 1500
PreviewTime: -1
Countdown: 0
SampleSet: Normal
StackLeniency: 0.7
Mode: 0
LetterboxInBreaks: 1

[Editor]
DistanceSpacing: 1
BeatDivisor: 2
GridSize: 8

[Metadata]
Title:Wagana wa Shougakusei
Artist:Mitsudomoe Cast
Creator:KoiSuru_
Version:Hard
Source:Mitsudomoe Zouryouchuu!
Tags:VocaloidTACU

[Difficulty]
HPDrainRate:2
CircleSize:3
OverallDifficulty:3
ApproachRate:3
SliderMultiplier:0.7
SliderTickRate:1

[Events]
//Background and Video events
0,0,"Mitsudomoe Zouryouchu.png"
Video,0,"[video]OP off vocal ver.avi"
//Break Periods
2,20156,20698
//Storyboard Layer 0 (Background)
//Storyboard Layer 1 (Fail)
//Storyboard Layer 2 (Pass)
//Storyboard Layer 3 (Foreground)
//Storyboard Sound Samples
//Background Colour Transformations
3,100,192,254,177

[TimingPoints]
320,272.727272727273,4,2,1,100,1,0
320,-100,4,2,1,25,0,0
865,-100,4,2,1,50,0,0
1410,-100,4,2,1,75,0,0
2229,-100,4,2,1,80,0,0
2501,-100,4,1,1,80,0,1
2638,-100,4,1,1,80,0,0
6865,-100,4,1,1,80,0,1
7001,-100,4,1,1,80,0,0
10956,-100,4,2,1,80,0,0
11229,-100,4,1,1,80,0,1
11365,-100,4,1,1,80,0,0
18865,-100,4,1,2,50,0,0
22138,-100,4,1,1,80,0,0
26229,-100,4,2,1,80,0,0
26501,-100,4,1,1,80,0,0
34956,-100,4,2,1,80,0,0
35229,-100,4,1,1,80,0,0
39592,-100,4,1,2,80,0,0
46956,-100,4,1,1,80,0,0
48320,-100,4,2,2,50,0,0
52410,-100,4,2,1,80,0,0
52683,-100,4,1,1,80,0,0
60865,-100,4,1,2,80,0,0
61138,-100,4,2,1,80,0,0
61410,-100,4,1,1,100,0,1
69865,-100,4,2,1,100,0,1
70001,-100,4,2,1,100,0,0
70138,-100,4,1,1,100,0,1
74501,-100,4,1,2,50,0,0
75320,-100,4,1,2,100,0,0
75592,-100,4,1,2,50,0,0
76410,-100,4,1,2,100,0,0
76683,-100,4,1,1,100,0,0
78865,-100,4,2,1,100,0,0
81046,-100,4,1,1,100,0,1
81183,-100,4,1,1,100,0,0
85410,-100,4,1,1,100,0,1
85547,-100,4,1,1,100,0,0

[Colours]
Combo1 : 64,64,64
Combo2 : 64,253,73
Combo3 : 186,64,50
Combo4 : 250,255,142
Combo5 : 57,57,119

[HitObjects]
256,192,320,1,10
256,192,865,1,10
256,192,1410,2,0,B|256:272,2,70,10|8|10
256,192,2229,1,4
256,120,2501,6,0,B|232:96|192:96,1,70,6|10
120,96,3047,2,2,B|64:152,1,70,2|10
120,200,3592,2,2,B|64:256,2,70,2|10|2
264,200,4683,6,0,B|320:144|320:72,3,140,4|2|2|2
392,72,6592,1,10
464,72,6865,5,4
464,144,7138,1,10
464,216,7410,1,0
392,216,7683,1,10
320,216,7956,2,0,B|296:192|296:152,2,70,2|10|2
400,344,9047,6,0,B|256:344,1,140,4|10
160,344,10001,1,4
160,344,10274,2,4,B|120:344,5,35,10|10|10|10|0|4
56,344,11229,6,0,B|56:272|112:216,1,140,6|2
256,224,12320,2,0,B|328:224|384:168,1,140,2|2
384,96,13138,1,10
376,24,13410,6,0,B|304:24|248:80,1,140,4|2
176,88,14229,1,10
112,48,14501,2,2,B|48:48|48:112,2,105,2|2|10
144,112,15592,6,0,B|144:184|200:240,1,140,6|2
344,240,16683,2,2,B|448:240,2,105,2|2|10
264,240,17774,6,2,B|160:240,2,105,6|2|10
256,192,18865,12,8,19956
256,192,22138,6,0,B|200:248|128:248,1,140,6|2
128,104,23229,2,0,B|128:64|152:40,2,70,2|8|2
272,104,24320,2,2,B|272:176|328:232,1,140,2|2
380,104,25410,2,2,B|380:176|324:232,1,140,2|2
256,232,26229,1,4
184,232,26501,6,2,B|112:232|112:128|8:128,2,210,2|8|2
328,232,28683,2,2,B|400:232|400:128|504:128,2,210,2|8|2
184,232,30865,6,2,B|128:176|128:104,1,140,6|2
272,104,31956,2,0,B|344:104,2,70,2|8|2
272,248,33047,2,0,B|192:328,4,105,2|2|10|2|2
272,248,34956,1,4
328,200,35229,6,2,B|408:120|512:104,2,210,2|10|2
184,200,37410,2,2,B|104:120|0:104,2,210,2|10|2
328,200,39592,6,0,B|400:200,2,70,8|4|8
296,264,40410,2,0,B|368:264,2,70,4|8|4
224,264,41229,2,0,B|200:288|200:328,2,70,8|4|8
288,224,42047,2,0,B|312:248|312:288,2,70,4|8|4
224,192,42865,6,0,B|184:192|160:168,2,70,8|4|8
296,192,43683,2,0,B|336:192|360:168,2,70,4|8|4
264,128,44501,2,0,B|264:48,2,70,8|4|8
224,192,45320,2,0,B|224:264,2,70,4|8|4
192,128,46138,2,0,B|136:72,3,70,8|4|8|4
256,192,47229,12,2,48320
256,192,48865,6,0,B|256:272,2,70,8|2|2
368,112,49956,2,0,B|312:56|240:56,1,140,8|2
128,136,51047,1,8
128,136,51592,2,0,B|72:192,3,70,2|2|2|4
80,256,52683,6,0,B|136:312|208:312,3,140,4|2|2|2
352,312,54865,2,0,B|408:256,3,70,0|10|0|10
352,312,55956,2,0,B|352:240,3,70,0|10|0|10
352,168,57047,6,0,B|352:96|272:96,4,105,2|2|10|2|2
352,168,58956,2,0,B|280:168,1,70,10|4
136,168,59774,5,2
280,168,60320,2,0,B|320:168,6,35,4|0|10|0|8|8|4
208,168,61410,6,0,B|184:144|184:104,1,70,4|10
256,104,61956,2,0,B|256:64|288:32,1,70,0|10
352,40,62501,2,0,B|424:40,3,70,0|10|0|10
424,112,63592,6,0,B|424:176|392:208,2,105,4|2|10
352,112,64683,2,2,B|296:56|224:56,1,140,2|2
224,128,65501,2,0,B|168:184,1,70,10|4
176,320,66320,6,0,B|200:296|240:296,2,70,0|10|0
104,320,67138,2,0,B|80:344|40:344,2,70,10|0|10
104,248,67956,2,2,B|104:104,3,140
104,108,69865,1,4
176,104,70138,6,0,B|232:48|304:48,1,140,4|2
376,48,70956,1,8
448,48,71229,2,0,B|504:104,3,70,2|8|2|8
496,168,72320,6,0,B|432:168|432:240,2,105,4|2|8
496,96,73410,2,2,B|496:32|424:32,2,105,2|2|10
432,136,74501,6,0,B|400:168|368:168,1,70,8|0
296,168,75047,2,0,B|224:168,1,70,8|4
152,168,75592,2,0,B|112:168|88:144,1,70,8|0
88,72,76138,2,0,B|144:16,1,70,8|4
256,192,76683,12,8,78320
256,192,78865,1,10
256,192,79410,1,10
256,192,79955,2,0,B|256:112,2,70,10|8|10
256,192,80774,1,4
256,264,81046,6,0,B|280:288|320:288,1,70,6|10
392,288,81592,2,2,B|448:232,1,70,2|10
392,184,82137,2,2,B|448:128,2,70,2|10|2
248,184,83228,6,0,B|192:240|192:312,3,140,4|2|2|2
120,312,85137,1,10
48,312,85410,5,4
48,240,85683,1,10
48,168,85956,1,0
120,168,86228,1,10
192,168,86501,2,0,B|216:192|216:232,2,70,2|10|2
256,48,87592,5,4
256,192,88138,1,2
256,192,88547,2,0,B|256:232,5,35,4|0|10|10|10|10
