osu file format v5

[General]
AudioFilename: Mistabishi - Printer Jam.mp3
AudioLeadIn: 0
PreviewTime: -1
Countdown: 1
SampleSet: Normal
StackLeniency: 0.7
Mode: 0
LetterboxInBreaks: 1

[Editor]
DistanceSpacing: 0.800000011920929
BeatDivisor: 8
GridSize: 32

[Metadata]
Title:Printer Jam
Artist:Mitsabishi
Creator:EvilTaco
Version:Easy
Source:
Tags:Mitsabishi Printer Jam

[Difficulty]
HPDrainRate:0
CircleSize:3
OverallDifficulty:0
SliderMultiplier:1.4
SliderTickRate:1

[Events]
//Background and Video events
//Break Periods
//Storyboard Layer 0 (Background)
//Storyboard Layer 1 (Fail)
//Storyboard Layer 2 (Pass)
//Storyboard Layer 3 (Foreground)
//Storyboard Sound Samples
//Background Colour Transformations
3,100,163,162,255

[TimingPoints]
1708.22302923596,686.973394495413,4,1,0,100,1,0

[Colours]
Combo1 : 235,192,45
Combo2 : 73,177,143
Combo3 : 192,26,21
Combo4 : 24,100,190
Combo5 : 120,30,20

[HitObjects]
96,128,1622,1,0
192,128,2223,1,0
288,128,2910,1,0
416,128,3511,1,0
384,160,3855,1,0
384,160,3940,1,0
384,160,4026,1,0
320,224,4713,1,0
224,224,5400,1,0
96,224,6087,1,0
160,128,6774,1,0
288,128,7461,1,0
384,128,8148,1,0
288,160,8835,1,0
192,160,9522,1,0
160,64,10209,1,0
64,128,10896,1,0
160,160,11583,1,0
256,128,12270,1,0
352,192,12957,1,0
224,192,13644,1,0
192,96,14331,1,0
96,128,15018,1,0
160,224,15705,1,0
256,160,16392,1,0
352,128,17079,1,0
256,96,17766,1,0
128,96,18453,1,0
224,128,19140,1,0
320,96,19827,1,0
224,160,20514,1,0
128,128,21201,1,0
224,192,21888,1,0
288,192,22231,1,0
0,96,23948,5,0
96,128,24635,1,0
192,128,25322,1,0
320,160,26095,1,0
288,64,26782,1,0
192,96,27469,1,0
96,128,28156,1,0
192,192,28843,1,0
256,96,29530,5,0
288,192,30217,1,0
192,160,30904,1,0
256,64,31591,1,0
256,160,32278,1,0
160,96,32965,1,0
184,208,33652,1,0
264,128,34339,1,0
352,200,35026,1,0
352,88,35713,1,0
248,136,36400,1,0
136,160,37087,1,0
248,128,37774,5,0
144,168,38461,1,0
248,208,39148,1,0
160,136,39835,1,0
248,208,40522,1,0
160,136,41209,1,0
240,216,41896,1,0
288,120,42583,1,0
296,232,43270,1,0
288,152,43699,1,0
296,200,43957,1,0
296,200,44214,1,0
296,200,44300,1,0
280,192,44386,1,0
72,176,50655,6,0,B|176:176,9,87.5
32,280,55549,2,0,B|208:280|192:280,1,157.5
160,248,67829,1,0
168,160,68344,1,0
288,208,69117,1,0
72,104,70577,1,0
224,160,71607,1,0
176,128,71951,1,0
48,184,72809,1,0
128,176,73325,1,0
264,128,74183,1,0
176,144,74699,1,0
296,216,75557,1,0
224,168,76073,1,0
168,160,76416,1,0
104,176,76845,1,0
104,176,77103,1,0
104,136,77361,1,0
400,136,79164,1,0
304,144,79765,1,0
168,160,80624,1,0
184,88,81053,1,0
232,232,81998,5,0
264,168,82427,1,0
120,192,83372,5,0
168,144,83801,1,0
288,232,84746,5,0
272,144,85261,1,0
416,144,86120,5,0
368,216,86635,1,0
232,168,87494,5,0
488,296,89211,1,0
472,288,89297,1,0
440,280,89469,1,0
424,272,89554,1,0
408,264,89640,1,0
392,256,89726,1,0
376,248,89812,1,0
232,184,90757,1,0
192,48,91615,5,0
256,96,92131,1,0
208,224,92989,5,0
280,184,93505,1,0
160,112,94363,5,0
200,176,94793,1,0
120,192,98571,6,0,B|176:192,9,52.5
144,184,110507,5,0
264,184,111280,1,0
80,72,112568,5,0
360,64,114285,5,0
232,176,115316,1,0
336,232,116089,1,0
136,152,117377,1,0
160,120,117634,1,0
192,120,117806,1,0
224,120,117978,1,0
336,200,118837,1,0
304,200,119008,1,0
224,200,119524,5,0
144,128,120211,1,0
104,192,120726,1,0
184,200,121241,1,0
240,192,121585,1,0
240,192,122959,5,0
128,216,123646,1,0
168,112,124332,1,0
280,112,125019,1,0
392,152,125706,1,0
296,216,126393,1,0
192,184,127080,5,0
16,352,132748,6,0,B|504:0,2,595
152,200,155762,6,0,B|176:200,17,17.5
216,192,157479,2,0,B|240:192|256:136,4,70
144,184,164778,6,0,B|232:184|224:184,8,70
16,64,170274,2,2,B|480:336,1,525
256,192,175254,12,2,177916
