osu file format v12

[General]
AudioFilename: hrkz.mp3
AudioLeadIn: 0
PreviewTime: 48443
Countdown: 0
SampleSet: Soft
StackLeniency: 0.7
Mode: 0
LetterboxInBreaks: 0

[Editor]
DistanceSpacing: 1
BeatDivisor: 4
GridSize: 8

[Metadata]
Title:seven colors (Short Ver.)
TitleUnicode:seven colors (Short Ver.)
Artist:Mitose Noriko
ArtistUnicode:みとせのりこ
Creator:biwako
Version:Normal
Source:Harukazedori ni Tomarigi wo
Tags:merchat7 MANYO SkyFish
BeatmapID:261933
BeatmapSetID:93671

[Difficulty]
HPDrainRate:3
CircleSize:3
OverallDifficulty:3
ApproachRate:5
SliderMultiplier:0.999999999999999
SliderTickRate:1

[Events]
//Background and Video events
0,0,"svlcsnap-2010-05-25-14h00m28s141.jpg",0,0
Video,0,"video.avi"
//Break Periods
//Storyboard Layer 0 (Background)
//Storyboard Layer 1 (Fail)
//Storyboard Layer 2 (Pass)
//Storyboard Layer 3 (Foreground)
//Storyboard Sound Samples
//Background Colour Transformations
3,100,163,162,255

[TimingPoints]
330,377.358490566038,4,2,1,30,1,0
48631,-100,4,2,3,60,0,1
72782,-100,4,2,1,50,0,0

[Colours]
Combo1 : 191,128,255
Combo2 : 255,128,128
Combo3 : 255,191,128
Combo4 : 255,239,128
Combo5 : 128,255,128
Combo6 : 128,255,255
Combo7 : 128,128,255

[HitObjects]
256,64,10896,1,2,0:0:0:0:
408,192,11650,1,0,0:0:0:0:
256,320,12405,2,0,P|184:336|104:336,2,150
256,224,13914,6,0,P|376:232|424:320,1,225,2|0,0:0|0:0,0:0:0:0:
512,160,15424,2,0,P|392:152|344:64,1,225
168,32,16933,6,0,P|24:80|0:216,1,300,2|0,0:0|0:0,0:0:0:0:
88,256,18443,2,0,L|240:280,2,150,2|0|0,0:0|0:0|0:0,0:0:0:0:
0,211,19952,6,0,P|24:80|168:32,1,300,2|0,0:0|0:0,0:0:0:0:
272,32,21462,2,0,P|392:64|448:144,1,225,2|0,0:0|0:0,0:0:0:0:
392,312,22971,5,8,0:0:0:0:
192,344,23726,1,0,0:0:0:0:
48,320,24292,2,8,P|32:272|32:224,1,99.9999999999999
32,120,25046,2,0,P|88:64|160:64,1,150
256,72,25990,5,8,0:0:0:0:
256,72,26179,1,8,0:0:0:0:
408,56,26745,2,0,P|464:104|480:176,1,150,0|8,0:0|0:0,0:0:0:0:
448,272,27688,1,8,0:0:0:0:
312,336,28254,2,0,P|256:328|208:336,1,99.9999999999999
112,352,29009,6,0,P|48:280|48:176,1,200,8|0,0:0|0:0,0:0:0:0:
88,88,30141,1,0,0:0:0:0:
88,88,30330,1,8,0:0:0:0:
184,56,30707,1,8,0:0:0:0:
280,80,31084,2,0,P|352:80|416:120,1,150
432,216,32028,5,8,0:0:0:0:
432,216,32216,1,8,0:0:0:0:
400,312,32594,2,0,L|200:336,1,200,0|8,0:0|0:0,0:0:0:0:
104,312,33726,1,8,0:0:0:0:
56,224,34103,2,8,P|48:168|48:120,1,99.9999999999999
176,48,35046,5,2,0:0:0:0:
176,48,36556,2,0,P|256:32|328:48,2,150
192,144,38065,5,2,0:0:0:0:
192,144,39575,2,0,P|112:160|40:144,2,150
256,72,41084,6,0,P|384:96|440:192,1,250,2|0,0:0|0:0,0:0:0:0:
360,320,42594,2,0,L|208:328,2,150,2|0|0,0:0|0:0|0:0,0:0:0:0:
328,224,44103,6,0,P|408:232|456:280,2,150,2|0|0,0:0|0:0|0:0,0:0:0:0:
384,136,45613,2,0,P|192:144|64:296,1,400,2|0,0:0|0:0,0:0:0:0:
400,192,48443,5,0,0:0:0:0:
400,192,48631,2,0,L|416:296,2,99.9999999999999,4|8|0,0:0|0:0|0:0,0:0:0:0:
392,88,49763,1,8,0:0:0:0:
392,88,49952,2,0,P|312:64|240:72,1,150,0|8,0:0|0:0,0:0:0:0:
152,88,50896,2,0,L|144:16,2,50,0|0|8,0:0|0:0|0:0,0:0:0:0:
56,104,51650,6,0,P|40:152|40:208,1,99.9999999999999,0|8,0:0|0:0,0:0:0:0:
64,296,52405,1,0,0:0:0:0:
64,296,52594,1,0,0:0:0:0:
64,296,52782,2,0,L|216:320,1,150,8|0,0:0|0:0,0:0:0:0:
264,328,53537,1,8,0:0:0:0:
360,312,53914,1,0,0:0:0:0:
360,312,54103,2,0,P|368:280|368:256,1,50,0|8,0:0|0:0,0:0:0:0:
464,288,54669,6,0,P|464:216|448:136,1,150,4|0,0:0|0:0,0:0:0:0:
432,88,55424,1,0,0:0:0:0:
336,48,55801,1,0,0:0:0:0:
336,48,55990,2,0,P|264:48|200:96,1,150,0|8,0:0|0:0,0:0:0:0:
200,192,56933,2,0,L|144:184,2,50,0|0|8,0:0|0:0|0:0,0:0:0:0:
216,288,57688,6,0,P|288:272|360:296,1,150
392,336,58443,2,0,L|496:320,1,99.9999999999999,0|8,0:0|0:0,0:0:0:0:
504,272,59009,2,0,P|504:200|456:136,1,150,0|8,0:0|0:0,0:0:0:0:
368,96,59952,2,0,L|376:40,2,50,0|0|8,0:0|0:0|0:0,0:0:0:0:
272,128,60707,6,0,P|216:136|168:128,1,99.9999999999999,4|8,0:0|0:0,0:0:0:0:
72,144,61462,2,0,L|64:248,1,99.9999999999999,0|8,0:0|0:0,0:0:0:0:
64,293,62028,2,0,P|144:277|216:293,1,150,0|8,0:0|0:0,0:0:0:0:
312,272,62971,2,0,L|384:280,2,50,0|0|8,0:0|0:0|0:0,0:0:0:0:
248,200,63726,6,0,P|240:144|248:96,2,99.9999999999999,0|8|0,0:0|0:0|0:0,0:0:0:0:
312,272,64858,1,8,0:0:0:0:
312,272,65046,2,0,P|384:264|440:208,1,150,0|8,0:0|0:0,0:0:0:0:
408,112,65990,1,0,0:0:0:0:
408,112,66179,2,0,L|392:64,1,50,0|8,0:0|0:0,0:0:0:0:
296,40,66745,6,0,P|216:32|144:48,1,150,4|0,0:0|0:0,0:0:0:0:
120,192,67877,1,12,0:0:0:0:
120,192,68065,1,0,0:0:0:0:
184,328,68631,2,0,P|264:336|336:320,1,150,8|0,0:0|0:0,0:0:0:0:
376,304,69386,1,8,0:0:0:0:
448,232,69763,6,0,P|456:152|432:80,1,150,4|0,0:0|0:0,0:0:0:0:
296,40,70896,2,0,P|288:120|312:192,1,150,12|0,0:0|0:0,0:0:0:0:
384,248,71839,1,0,0:0:0:0:
480,216,72216,2,0,L|488:272,2,50,0|8|0,0:0|0:0|0:0,0:0:0:0:
472,168,72782,6,0,P|328:120|192:168,1,300
256,192,74292,12,2,77311,0:0:0:0:
