osu file format v12

[General]
AudioFilename: hrkz.mp3
AudioLeadIn: 0
PreviewTime: 48443
Countdown: 0
SampleSet: Soft
StackLeniency: 0.7
Mode: 0
LetterboxInBreaks: 0

[Editor]
DistanceSpacing: 1
BeatDivisor: 4
GridSize: 8

[Metadata]
Title:seven colors (Short Ver.)
TitleUnicode:seven colors (Short Ver.)
Artist:Mitose Noriko
ArtistUnicode:みとせのりこ
Creator:biwako
Version:Insane
Source:Harukazedori ni Tomarigi wo
Tags:merchat7 MANYO SkyFish
BeatmapID:252522
BeatmapSetID:93671

[Difficulty]
HPDrainRate:7
CircleSize:4
OverallDifficulty:8
ApproachRate:8
SliderMultiplier:1.7
SliderTickRate:1

[Events]
//Background and Video events
0,0,"svlcsnap-2010-05-25-14h00m28s141.jpg",0,0
Video,0,"video.avi"
//Break Periods
//Storyboard Layer 0 (Background)
//Storyboard Layer 1 (Fail)
//Storyboard Layer 2 (Pass)
//Storyboard Layer 3 (Foreground)
//Storyboard Sound Samples
//Background Colour Transformations
3,100,163,162,255

[TimingPoints]
330,377.358490566038,4,2,1,30,1,0
10896,-133.333333333333,4,2,1,30,0,0
35046,-200,4,2,1,30,0,0
48631,-80,4,2,3,60,0,1
72782,-200,4,2,1,50,0,0

[Colours]
Combo1 : 191,128,255
Combo2 : 255,128,128
Combo3 : 255,191,128
Combo4 : 255,239,128
Combo5 : 128,255,128
Combo6 : 128,255,255
Combo7 : 128,128,255

[HitObjects]
256,112,10896,1,2,0:0:0:0:
256,112,11462,1,0,0:0:0:0:
328,72,11650,2,0,P|392:80|456:96,1,127.500004863739
504,160,12216,2,0,L|496:224,1,63.7500024318696
424,168,12594,2,0,L|408:296,2,127.500004863739
256,320,13914,5,2,0:0:0:0:
256,320,14480,1,0,0:0:0:0:
176,328,14669,2,0,P|112:320|48:296,1,127.500004863739
24,224,15235,2,0,L|8:96,1,127.500004863739
80,48,15801,2,0,L|96:176,1,127.500004863739
95,174,16367,1,0,0:0:0:0:
184,56,16933,6,0,P|248:64|312:80,1,127.500004863739,2|0,0:0|0:0,0:0:0:0:
296,160,17499,2,0,P|234:144|170:136,1,127.500004863739
88,128,18065,1,0,0:0:0:0:
64,208,18254,1,0,0:0:0:0:
88,288,18443,2,0,P|152:288|216:304,1,127.500004863739,2|0,0:0|0:0,0:0:0:0:
384,256,19009,2,0,P|320:256|256:240,1,127.500004863739
258,240,19575,1,0,0:0:0:0:
160,56,19952,6,0,P|256:48|352:72,1,191.250007295609,2|0,0:0|0:0,0:0:0:0:
347,70,20707,1,0,0:0:0:0:
456,272,21084,1,0,0:0:0:0:
456,272,21273,1,0,0:0:0:0:
456,272,21462,2,0,P|392:280|328:272,1,127.500004863739,2|0,0:0|0:0,0:0:0:0:
320,352,22028,2,0,P|256:344|192:352,1,127.500004863739
256,72,22971,5,8,0:0:0:0:
256,72,23537,1,0,0:0:0:0:
328,104,23726,2,0,P|392:112|456:104,1,127.500004863739
456,272,24292,1,8,0:0:0:0:
456,272,24669,1,8,0:0:0:0:
264,304,25046,2,0,P|216:304|168:312,2,95.6250036478044,0|2|0,0:0|0:0|0:0,0:0:0:0:
104,48,25990,5,8,0:0:0:0:
104,48,26179,1,8,0:0:0:0:
104,48,26556,1,0,0:0:0:0:
184,40,26745,2,0,P|248:40|312:48,1,127.500004863739
256,192,27311,1,8,0:0:0:0:
256,192,27688,1,8,0:0:0:0:
344,312,28065,2,0,P|392:320|440:320,2,95.6250036478044,0|2|0,0:0|0:0|0:0,0:0:0:0:
64,264,29009,6,0,P|40:176|40:72,1,191.250007295609,8|0,0:0|0:0,0:0:0:0:
39,76,30141,2,0,L|32:8,1,63.7500024318696,0|8,0:0|0:0,0:0:0:0:
112,32,30518,1,0,0:0:0:0:
112,32,30707,1,8,0:0:0:0:
264,56,31084,2,0,P|312:56|360:64,2,95.6250036478044,0|2|0,0:0|0:0|0:0,0:0:0:0:
448,304,32028,5,8,0:0:0:0:
448,304,32216,1,8,0:0:0:0:
344,192,32594,2,0,P|296:184|248:184,1,95.6250036478044,0|2,0:0|0:0,0:0:0:0:
249,183,32971,1,0,0:0:0:0:
256,336,33348,2,0,P|304:344|352:344,1,95.6250036478044,8|2,0:0|0:0,0:0:0:0:
448,304,33726,1,8,0:0:0:0:
448,304,34103,1,8,0:0:0:0:
448,304,34480,1,8,0:0:0:0:
336,104,35046,6,0,L|424:96,2,85,2|0|0,0:0|0:0|0:0,0:0:0:0:
336,104,36179,1,0,0:0:0:0:
336,104,36556,2,0,P|272:88|208:80,2,127.5
256,192,38065,2,0,P|320:208|384:216,2,127.5,2|0|0,0:0|0:0|0:0,0:0:0:0:
256,296,39575,2,0,L|128:312,1,127.5
129,311,40518,1,0,0:0:0:0:
48,72,41084,6,0,P|112:56|176:48,1,127.5,2|0,0:0|0:0,0:0:0:0:
172,48,41839,1,0,0:0:0:0:
172,48,42028,1,0,0:0:0:0:
368,104,42594,2,0,L|240:120,1,127.5,2|0,0:0|0:0,0:0:0:0:
241,119,43537,1,0,0:0:0:0:
448,264,44103,2,0,P|464:200|464:136,2,127.5,2|0|0,0:0|0:0|0:0,0:0:0:0:
414,361,45613,2,0,P|254:305|96:352,1,340,2|0,0:0|0:0,0:0:0:0:
96,352,47877,5,0,0:0:0:0:
94,344,47971,1,0,0:0:0:0:
93,336,48065,1,0,0:0:0:0:
91,328,48160,1,0,0:0:0:0:
90,320,48254,1,0,0:0:0:0:
89,312,48348,1,0,0:0:0:0:
87,304,48443,1,0,0:0:0:0:
86,296,48537,1,0,0:0:0:0:
72,208,48631,6,0,P|88:104|176:48,1,212.5,4|8,0:0|0:0,0:0:0:0:
280,64,49197,1,0,0:0:0:0:
344,152,49386,1,0,0:0:0:0:
448,120,49575,1,0,0:0:0:0:
344,152,49763,1,8,0:0:0:0:
344,152,49858,1,0,0:0:0:0:
344,152,49952,1,0,0:0:0:0:
384,32,50141,5,0,0:0:0:0:
424,240,50330,1,0,0:0:0:0:
224,176,50518,1,8,0:0:0:0:
344,152,50707,1,0,0:0:0:0:
344,152,50801,1,0,0:0:0:0:
344,152,50896,1,0,0:0:0:0:
64,320,51084,1,0,0:0:0:0:
24,112,51273,1,8,0:0:0:0:
224,176,51461,1,0,0:0:0:0:
384,32,51650,6,0,P|480:88|504:184,1,212.5,0|8,0:0|0:0,0:0:0:0:
352,280,52216,1,0,0:0:0:0:
352,280,52311,1,0,0:0:0:0:
352,280,52405,2,0,P|408:272|464:272,1,106.25
224,176,52782,2,0,P|168:184|112:184,1,106.25,8|0,0:0|0:0,0:0:0:0:
160,88,53160,5,0,0:0:0:0:
184,280,53348,1,0,0:0:0:0:
160,88,53537,1,8,0:0:0:0:
56,56,53726,2,0,L|48:136,1,53.125
40,208,53914,1,0,0:0:0:0:
256,344,54103,1,0,0:0:0:0:
360,240,54292,2,0,L|368:184,1,53.125,8|0,0:0|0:0,0:0:0:0:
152,184,54480,2,0,L|144:240,1,53.125
256,40,54669,6,0,P|368:40|464:80,1,212.5,4|8,0:0|0:0,0:0:0:0:
472,184,55235,1,0,0:0:0:0:
416,192,55330,1,0,0:0:0:0:
376,232,55424,1,0,0:0:0:0:
368,288,55518,1,0,0:0:0:0:
384,344,55613,1,0,0:0:0:0:
472,184,55801,2,0,L|480:128,1,53.125,8|0,0:0|0:0,0:0:0:0:
456,280,55990,6,0,P|352:256|248:264,1,212.5
40,192,56556,2,0,L|152:176,1,106.25,8|0,0:0|0:0,0:0:0:0:
145,176,56839,1,0,0:0:0:0:
232,120,56933,2,0,P|240:176|232:224,1,106.25
296,40,57311,2,0,L|352:32,2,53.125,8|0|0,0:0|0:0|0:0,0:0:0:0:
440,168,57688,5,0,0:0:0:0:
336,144,57877,1,0,0:0:0:0:
312,248,58065,1,8,0:0:0:0:
416,272,58254,1,0,0:0:0:0:
416,272,58348,1,0,0:0:0:0:
416,272,58443,1,0,0:0:0:0:
344,352,58631,1,0,0:0:0:0:
296,40,58820,1,8,0:0:0:0:
192,56,59009,5,0,0:0:0:0:
136,56,59103,1,0,0:0:0:0:
88,72,59197,1,0,0:0:0:0:
48,112,59292,1,0,0:0:0:0:
32,160,59386,1,0,0:0:0:0:
72,256,59575,1,8,0:0:0:0:
144,328,59763,1,0,0:0:0:0:
144,328,59858,1,0,0:0:0:0:
144,328,59952,1,0,0:0:0:0:
248,352,60141,1,0,0:0:0:0:
304,352,60235,1,0,0:0:0:0:
352,336,60329,1,8,0:0:0:0:
392,296,60424,1,0,0:0:0:0:
416,248,60518,2,0,L|424:192,1,53.125
464,40,60707,6,0,P|360:72|336:168,1,212.5,4|8,0:0|0:0,0:0:0:0:
440,144,61273,1,0,0:0:0:0:
440,144,61367,1,0,0:0:0:0:
440,144,61462,1,0,0:0:0:0:
256,72,61650,1,0,0:0:0:0:
72,144,61839,1,8,0:0:0:0:
72,144,62028,1,0,0:0:0:0:
64,344,62216,5,0,0:0:0:0:
312,296,62405,1,0,0:0:0:0:
104,224,62594,1,8,0:0:0:0:
160,296,62782,2,0,L|216:312,2,53.125
240,216,63160,1,0,0:0:0:0:
408,344,63348,1,8,0:0:0:0:
312,296,63537,1,0,0:0:0:0:
464,192,63726,6,0,P|424:88|336:48,1,212.5,0|8,0:0|0:0,0:0:0:0:
232,64,64292,1,0,0:0:0:0:
232,64,64386,1,0,0:0:0:0:
232,64,64480,2,0,P|176:64|120:72,1,106.25
144,304,64858,2,0,P|200:304|256:296,1,106.25,8|0,0:0|0:0,0:0:0:0:
312,192,65235,5,0,0:0:0:0:
56,208,65424,1,0,0:0:0:0:
296,64,65613,1,8,0:0:0:0:
40,80,65801,2,0,L|-16:80,2,53.125
56,208,66179,1,0,0:0:0:0:
312,192,66367,5,8,0:0:0:0:
312,192,66462,1,0,0:0:0:0:
312,192,66556,1,0,0:0:0:0:
312,192,66650,1,0,0:0:0:0:
312,192,66745,2,0,P|368:192|424:200,1,106.25,4|0,0:0|0:0,0:0:0:0:
424,304,67122,1,8,0:0:0:0:
448,104,67311,2,0,L|456:48,2,53.125
424,304,67688,1,0,0:0:0:0:
256,64,67877,1,12,0:0:0:0:
64,104,68065,6,0,P|24:192|32:312,1,212.5
128,352,68631,2,0,P|184:352|240:344,1,106.25,8|0,0:0|0:0,0:0:0:0:
233,345,68914,1,0,0:0:0:0:
233,345,69009,1,0,0:0:0:0:
168,256,69197,1,0,0:0:0:0:
448,296,69386,1,8,0:0:0:0:
256,192,69575,1,0,0:0:0:0:
352,352,69763,6,0,P|344:256|432:184,1,212.5,4|8,0:0|0:0,0:0:0:0:
360,96,70330,2,0,L|472:88,1,106.25
465,88,70613,1,0,0:0:0:0:
465,88,70707,1,0,0:0:0:0:
160,32,70896,6,0,P|168:128|80:200,1,212.5,4|0,0:0|0:0,0:0:0:0:
80,96,71462,1,0,0:0:0:0:
80,96,71650,1,8,0:0:0:0:
160,288,71839,1,0,0:0:0:0:
200,248,71933,1,0,0:0:0:0:
248,232,72028,1,0,0:0:0:0:
304,232,72122,1,0,0:0:0:0:
352,248,72216,1,0,0:0:0:0:
368,144,72405,6,0,L|304:128,1,53.125,8|0,0:0|0:0,0:0:0:0:
272,328,72594,2,0,L|336:344,1,53.125
208,104,72782,2,0,P|104:160|80:288,1,255
256,192,74292,1,2,0:0:0:0:
256,192,74386,12,2,77311,0:0:0:0:
