osu file format v5

[General]
AudioFilename: Doraemon - Bokutachi Chikyuujin (Mitoko Horie).mp3
AudioLeadIn: 0
PreviewTime: -1
Countdown: 1
SampleSet: Soft
StackLeniency: 0.7
Mode: 0
LetterboxInBreaks: 1

[Metadata]
Title:Bokutachi Chikyuujin
Artist:Mitoko Horie
Creator:Vieroz
Version:Nobita-kun
Source:Doraemon
Tags:Doraemon Bokutachi Chikyuujin Mitoko Horie

[Difficulty]
HPDrainRate:3
CircleSize:3
OverallDifficulty:1
SliderMultiplier:1.4
SliderTickRate:1

[Events]
//Background and Video events
0,0,"Doraemon_110003.jpg"
//Break Periods
2,36993,52931
//Storyboard Layer 0 (Background)
//Storyboard Layer 1 (Failing)
//Storyboard Layer 2 (Passing)
//Storyboard Layer 3 (Foreground)
//Storyboard Sound Samples
//Background Colour Transformations
3,100,163,162,255

[TimingPoints]
4890,512.820512820513,4,2,0,100,1
21330,515.463917525773,4,2,0,100,1
37847,524.017467248908,4,2,0,100,1
46249,523.039907944976,4,2,0,100,1
54604,516.351118760757,4,2,0,100,1
71127,520.833333333333,4,2,0,100,1
87766,519.242252472891,4,2,0,100,1
96073,515.021459227468,4,2,0,100,1
104345,524.017467248908,4,2,0,100,1

[Colours]
Combo1 : 149,202,255
Combo2 : 149,202,255
Combo3 : 149,202,255
Combo4 : 149,202,255
Combo5 : 149,202,255

[HitObjects]
256,192,4890,1,0
256,192,6428,1,8
256,192,7966,1,0
480,192,8992,1,8
256,192,10018,1,8
32,192,11043,1,8
256,192,12069,1,8
256,192,13095,1,0
480,192,14120,1,0
256,192,15146,5,0
32,192,16172,1,0
256,192,17197,5,8
480,192,18223,1,8
256,192,19248,1,8
32,192,20274,1,0
32,32,21330,6,8,B|480:32,1,420
448,128,23391,2,8,B|0:128,1,420
32,224,25453,6,0,B|480:224,1,420,0|8
448,96,27515,1,0
320,96,28031,1,8
192,96,28546,1,0
64,288,29577,5,8
160,288,30092,1,8
224,192,30608,1,8
320,192,31123,1,8
192,192,31639,1,8
64,192,32154,1,8
160,192,32670,1,8
352,320,33701,5,10
224,320,34216,1,10
320,320,34732,1,10
192,320,35247,1,10
64,320,35762,1,0
160,320,36278,1,2
32,320,36793,1,4
256,192,54617,5,0
256,192,56153,1,8
256,192,57185,1,8
256,192,58734,1,0
480,192,59767,1,8
256,192,60800,1,0
32,192,61832,1,8
224,64,62865,6,0,B|224:352,1,280,0|8
128,256,64414,1,8
32,320,64931,2,0,B|32:32,1,280,8|0
256,96,66996,5,2
224,96,67125,1,2
192,96,67254,1,2
160,96,67383,1,2
224,160,67900,1,2
256,160,68029,1,2
288,160,68158,1,2
320,160,68287,1,2
352,160,68416,1,2
448,256,69061,5,8
320,256,69578,1,0
192,256,70094,1,8
64,64,71127,5,8
192,192,71908,1,0
192,128,72168,1,8
224,96,72429,1,8
384,96,73210,2,8,B|224:416|64:224,1,420
128,128,75293,5,0
32,32,75814,1,8
32,128,76335,1,0
32,224,76856,1,8
32,320,77377,1,0
128,320,77897,1,8
224,320,78418,1,0
448,320,79460,6,2,B|448:128|448:128,1,140,2|8
352,192,80502,2,2,B|352:352,1,140,2|8
448,320,81543,1,2
448,192,82064,1,8
448,64,82585,1,4
224,64,83627,1,8
256,64,83757,1,8
224,64,83887,2,8,B|150:64,1,70
224,160,84668,1,8
192,160,84798,5,8
160,160,84929,2,8,B|87:160,1,70
64,160,85710,2,8,B|64:263,1,70,8|0
62,230,86231,1,8
128,224,86491,2,8,B|203:225,1,70
416,224,87766,5,4
256,224,88544,1,8
288,192,88804,1,4
64,192,89842,1,4
128,96,90362,1,8
192,192,90881,1,4
128,288,91400,1,8
224,288,91919,1,4
288,192,92439,1,8
224,96,92958,5,4
160,192,93477,1,8
96,96,93996,1,4
32,192,94516,1,8
96,288,95025,1,4
224,288,95554,1,2
320,288,96073,1,8
320,256,96201,1,8
320,224,96330,2,8,B|320:140,1,70
192,160,97103,5,8
192,192,97231,1,8
192,224,97360,2,8,B|192:300,1,70
288,224,98133,2,8,B|289:302,1,70
288,352,98648,1,8
384,352,99163,2,2,B|384:256,2,70,2|0|2
384,224,100193,1,8
384,192,100321,1,8
384,160,100450,2,8,B|384:85,1,70
256,96,101223,5,8
256,128,101351,1,8
256,160,101480,2,8,B|256:240,1,70
192,128,102253,2,4,B|89:128,1,70,4|0
128,192,102768,1,4
64,160,103025,2,8,B|63:235,1,70,0|4
256,192,104345,12,0,106965
256,192,107489,5,4
