osu file format v14

[General]
AudioFilename: MitiS - Untitled Guitar.mp3
AudioLeadIn: 2000
PreviewTime: 15135
Countdown: 0
SampleSet: Soft
StackLeniency: 0.7
Mode: 2
LetterboxInBreaks: 0
WidescreenStoryboard: 0

[Editor]
DistanceSpacing: 1.4
BeatDivisor: 4
GridSize: 8
TimelineZoom: 1

[Metadata]
Title:untitled guitar
TitleUnicode:untitled guitar
Artist:MitiS
ArtistUnicode:MitiS
Creator:- Magic Bomb -
Version:Salad
Source:
Tags:JBHyperion MBomb Instrumental chill chillstep house Krfawy
BeatmapID:691405
BeatmapSetID:309242

[Difficulty]
HPDrainRate:4
CircleSize:3
OverallDifficulty:6.5
ApproachRate:6.5
SliderMultiplier:1.5
SliderTickRate:2

[Events]
//Background and Video events
0,0,"518b3a535433324039.jpg",0,0
//Break Periods
//Storyboard Layer 0 (Background)
//Storyboard Layer 1 (Fail)
//Storyboard Layer 2 (Pass)
//Storyboard Layer 3 (Foreground)
//Storyboard Sound Samples

[TimingPoints]
135,468.75,4,2,1,35,1,0
14197,-100,4,2,1,5,0,0
15135,-100,4,2,1,60,0,0
30135,-100,4,2,1,45,0,1
30603,-100,4,2,1,60,0,1
45135,-100,4,2,1,35,0,0
45603,-100,4,2,2,45,0,0
56385,-100,4,2,2,35,0,0
57088,-100,4,2,2,30,0,0
57791,-100,4,2,2,25,0,0
60135,-100,4,2,1,5,0,0

[Colours]
Combo1 : 255,0,255
Combo2 : 0,0,255
Combo3 : 255,128,0
Combo4 : 0,255,255

[HitObjects]
144,192,135,6,0,L|88:136,1,75,2|0,0:0|0:0,0:0:0:0:
288,192,603,2,0,L|344:136,1,75,0|2,0:0|0:0,0:0:0:0:
448,192,1072,2,0,P|320:256|192:184,1,300,8|2,0:0|0:0,0:0:0:0:
80,192,2478,1,0,0:0:0:0:
288,192,2713,1,2,0:0:0:0:
448,144,2947,2,0,P|496:192|448:240,1,150,8|0,0:0|0:0,0:0:0:0:
128,192,3885,5,2,0:0:0:0:
256,192,4119,1,0,0:0:0:0:
448,192,4588,1,2,0:0:0:0:
240,192,4822,2,0,L|240:40,1,150,8|0,0:0|0:0,0:0:0:0:
352,192,5525,1,0,0:0:0:0:
192,192,5760,2,0,L|16:48,2,225,2|8|0,0:0|0:0|0:0,0:0:0:0:
320,192,7400,5,2,0:0:0:0:
192,192,7635,1,2,0:0:0:0:
344,192,7869,1,0,0:0:0:0:
192,192,8103,2,0,L|64:112,1,150,0|8,0:0|0:0,0:0:0:0:
256,192,9041,1,0,0:0:0:0:
448,192,9510,2,0,L|320:112,1,150,2|0,0:0|0:0,0:0:0:0:
448,192,10213,2,0,P|320:160|224:24,1,300,8|0,0:0|0:0,0:0:0:0:
256,192,11385,12,0,14666,0:0:0:0:
160,192,15135,6,0,L|96:152,1,75,6|0,0:0|0:0,0:0:0:0:
224,192,15603,2,0,L|288:152,1,75,0|2,0:0|0:0,0:0:0:0:
448,192,16072,2,0,L|384:152,1,75,8|0,0:0|0:0,0:0:0:0:
224,192,16541,1,2,0:0:0:0:
96,192,16775,1,2,0:0:0:0:
192,192,17010,6,0,L|320:112,1,150,2|0,0:0|0:0,0:0:0:0:
192,192,17713,2,0,L|64:112,1,150,10|0,0:0|0:0,0:0:0:0:
192,192,18416,1,0,0:0:0:0:
96,192,18650,1,0,0:0:0:0:
224,192,18885,5,2,0:0:0:0:
352,192,19119,1,0,0:0:0:0:
64,192,19588,2,0,L|192:112,1,150,10|0,0:0|0:0,0:0:0:0:
96,192,20291,1,0,0:0:0:0:
224,192,20525,1,0,0:0:0:0:
416,192,20760,2,0,L|200:128,2,225,2|8|0,0:0|0:0|0:0,0:0:0:0:
272,192,22400,5,2,0:0:0:0:
384,192,22635,2,0,L|448:152,1,75,2|0,0:0|0:0,0:0:0:0:
224,192,23103,2,0,L|96:112,1,150,0|8,0:0|0:0,0:0:0:0:
256,192,24041,6,0,L|320:152,1,75
160,192,24510,1,2,0:0:0:0:
416,192,24978,1,0,0:0:0:0:
192,192,25213,2,0,L|64:112,1,150,8|0,0:0|0:0,0:0:0:0:
192,192,25916,1,0,0:0:0:0:
96,192,26150,1,0,0:0:0:0:
256,192,26385,6,0,B|448:72|448:72,2,225,2|8|0,0:0|0:0|0:0,0:0:0:0:
96,192,28260,1,2,0:0:0:0:
257,192,28494,1,0,0:0:0:0:
32,192,28963,2,0,L|256:192,1,225,8|0,0:0|0:0,0:0:0:0:
96,192,30135,5,6,0:0:0:0:
224,192,30369,1,0,0:0:0:0:
352,192,30603,1,0,0:0:0:0:
200,192,30838,1,2,0:0:0:0:
24,192,31072,2,0,L|200:48,1,225,8|2,0:0|0:0,0:0:0:0:
320,192,32010,5,2,0:0:0:0:
128,192,32478,1,0,0:0:0:0:
320,192,32713,2,0,P|360:112|280:16,1,225,8|0,0:0|0:0,0:0:0:0:
160,192,33885,5,2,0:0:0:0:
320,192,34119,1,2,0:0:0:0:
64,80,34588,2,0,P|24:192|64:288,1,225,8|0,0:0|0:0,0:0:0:0:
160,192,35525,1,0,0:0:0:0:
368,192,35760,2,0,L|240:112,1,150,2|0,0:0|0:0,0:0:0:0:
48,192,36463,2,8,L|176:112,1,150,8|0,0:0|0:0,0:0:0:0:
320,192,37400,5,0,0:0:0:0:
192,192,37635,2,0,L|256:152,1,75,2|0,0:0|0:0,0:0:0:0:
48,192,38103,2,0,P|128:64|160:40,1,150,0|8,0:0|0:0,0:0:0:0:
360,192,39041,1,0,0:0:0:0:
96,192,39510,1,2,0:0:0:0:
384,192,39978,1,0,0:0:0:0:
256,192,40213,2,0,B|336:64|336:64,1,150,8|0,0:0|0:0,0:0:0:0:
128,192,41385,6,0,L|288:32,2,225,2|8|0,0:0|0:0|0:0,0:0:0:0:
352,192,43260,1,2,0:0:0:0:
192,192,43494,1,0,0:0:0:0:
440,192,43963,2,0,P|334:281|224:192,1,300,8|0,0:0|0:0,0:0:0:0:
424,192,45135,5,6,0:0:0:0:
288,192,45369,1,0,0:0:0:0:
96,192,45603,1,0,0:0:0:0:
256,192,45838,1,0,0:0:0:0:
448,192,46072,2,0,L|256:72,1,225,8|0,0:0|0:0,0:0:0:0:
56,192,47010,5,2,0:0:0:0:
256,192,47478,1,0,0:0:0:0:
432,192,47713,2,0,L|304:112,1,150,8|0,0:0|0:0,0:0:0:0:
160,192,48416,2,0,L|224:152,1,75
64,192,48885,5,2,0:0:0:0:
192,192,49119,1,0,0:0:0:0:
496,192,49588,2,0,L|288:96,1,225,8|0,0:0|0:0,0:0:0:0:
416,192,50525,1,0,0:0:0:0:
224,192,50760,2,0,L|32:72,2,225,2|8|0,0:0|0:0|0:0,0:0:0:0:
64,192,52400,5,0,0:0:0:0:
240,192,52635,2,0,L|304:152,1,75,2|0,0:0|0:0,0:0:0:0:
96,192,53103,2,0,L|256:32,1,225,8|0,0:0|0:0,0:0:0:0:
192,192,54041,2,0,L|256:152,1,75,0|2,0:0|0:0,0:0:0:0:
480,192,54510,2,0,L|352:112,1,150,2|0,0:0|0:0,0:0:0:0:
144,192,55213,2,0,L|304:32,1,225,8|0,0:0|0:0,0:0:0:0:
96,192,56385,6,0,L|256:32,2,225,2|8|0,0:0|0:0|0:0,0:0:0:0:
256,192,58260,12,0,60135,0:0:0:0:
