osu file format v14

[General]
AudioFilename: MitiS - Untitled Guitar.mp3
AudioLeadIn: 2000
PreviewTime: 15135
Countdown: 0
SampleSet: Soft
StackLeniency: 0.7
Mode: 2
LetterboxInBreaks: 0
WidescreenStoryboard: 0

[Editor]
DistanceSpacing: 1.6
BeatDivisor: 4
GridSize: 8
TimelineZoom: 1

[Metadata]
Title:untitled guitar
TitleUnicode:untitled guitar
Artist:MitiS
ArtistUnicode:MitiS
Creator:- Magic Bomb -
Version:Platter
Source:
Tags:JBHyperion MBomb Instrumental chill chillstep house Krfawy
BeatmapID:691404
BeatmapSetID:309242

[Difficulty]
HPDrainRate:5
CircleSize:4
OverallDifficulty:7.5
ApproachRate:7.5
SliderMultiplier:1.8
SliderTickRate:2

[Events]
//Background and Video events
0,0,"518b3a535433324039.jpg",0,0
//Break Periods
//Storyboard Layer 0 (Background)
//Storyboard Layer 1 (Fail)
//Storyboard Layer 2 (Pass)
//Storyboard Layer 3 (Foreground)
//Storyboard Sound Samples

[TimingPoints]
135,468.75,4,2,1,35,1,0
14197,-100,4,2,1,5,0,0
15135,-100,4,2,1,60,0,0
30135,-100,4,2,1,45,0,1
30603,-100,4,2,1,60,0,1
45135,-100,4,2,1,35,0,0
45603,-100,4,2,2,45,0,0
56385,-100,4,2,2,35,0,0
57088,-100,4,2,2,30,0,0
57791,-100,4,2,2,25,0,0
60135,-100,4,2,1,5,0,0

[Colours]
Combo1 : 255,0,255
Combo2 : 0,0,255
Combo3 : 255,128,0
Combo4 : 0,255,255

[HitObjects]
256,192,135,5,2,0:0:0:0:
128,192,369,1,0,0:0:0:0:
320,192,603,1,0,0:0:0:0:
128,192,838,1,2,0:0:0:0:
336,192,1072,2,0,L|400:128,1,90,8|0,0:0|0:0,0:0:0:0:
224,192,1541,2,0,L|160:128,1,90
384,192,2010,6,0,L|320:128,1,90,2|0,0:0|0:0,0:0:0:0:
128,192,2478,2,0,L|192:128,1,90
64,192,2947,1,8,0:0:0:0:
192,192,3181,1,0,0:0:0:0:
320,192,3416,1,0,0:0:0:0:
192,192,3650,1,0,0:0:0:0:
352,192,3885,5,2,0:0:0:0:
192,192,4119,2,0,L|256:128,1,90
96,192,4588,2,0,L|224:64,1,180,8|0,0:0|0:0,0:0:0:0:
384,192,5291,1,0,0:0:0:0:
192,192,5525,1,0,0:0:0:0:
416,192,5760,6,0,P|304:128|256:128,1,180,2|0,0:0|0:0,0:0:0:0:
24,192,6463,2,0,L|104:152,1,90,2|8,0:0|0:0,0:0:0:0:
288,192,6931,1,0,0:0:0:0:
496,192,7400,5,0,0:0:0:0:
288,192,7635,1,2,0:0:0:0:
464,192,7869,1,0,0:0:0:0:
168,192,8103,2,0,L|40:64,1,180,0|8,0:0|0:0,0:0:0:0:
256,192,8806,1,0,0:0:0:0:
32,192,9041,6,0,L|96:128,1,90
320,192,9510,2,0,L|256:128,1,90,2|0,0:0|0:0,0:0:0:0:
384,192,9978,1,0,0:0:0:0:
192,192,10213,2,0,L|256:128,1,90,2|8,0:0|0:0,0:0:0:0:
128,192,10681,1,0,0:0:0:0:
256,192,10916,1,0,0:0:0:0:
384,192,11150,1,0,0:0:0:0:
224,192,11385,6,0,L|448:40,1,270,2|8,0:0|0:0,0:0:0:0:
192,192,12556,2,0,L|128:128,1,90
480,192,13260,1,2,0:0:0:0:
320,192,13494,2,0,L|384:128,1,90
160,88,13963,2,0,P|40:192|160:296,1,360,8|0,0:0|0:0,0:0:0:0:
456,192,15135,5,6,0:0:0:0:
288,192,15369,1,0,0:0:0:0:
56,192,15603,1,0,0:0:0:0:
200,192,15838,1,2,0:0:0:0:
496,192,16072,2,0,L|416:152,1,90,8|0,0:0|0:0,0:0:0:0:
384,192,16424,1,0,0:0:0:0:
352,192,16541,1,0,0:0:0:0:
192,192,16775,1,0,0:0:0:0:
224,192,16892,1,2,0:0:0:0:
256,192,17010,6,0,L|320:128,1,90,2|0,0:0|0:0,0:0:0:0:
176,192,17478,1,0,0:0:0:0:
288,192,17713,1,0,0:0:0:0:
488,192,17947,2,0,L|416:136,1,90,8|0,0:0|0:0,0:0:0:0:
448,192,18299,1,0,0:0:0:0:
480,192,18416,1,0,0:0:0:0:
320,192,18650,1,0,0:0:0:0:
288,192,18767,1,0,0:0:0:0:
256,192,18885,6,0,L|192:128,1,90,2|0,0:0|0:0,0:0:0:0:
88,192,19353,1,0,0:0:0:0:
288,192,19588,1,2,0:0:0:0:
64,192,19822,1,8,0:0:0:0:
256,192,20056,2,0,L|288:160,2,45
128,192,20525,1,0,0:0:0:0:
432,192,20760,6,0,L|496:128,2,90,2|0|0,0:0|0:0|0:0,0:0:0:0:
96,192,21463,2,0,L|32:128,1,90,2|8,0:0|0:0,0:0:0:0:
256,192,21931,2,0,L|288:160,1,45
320,192,22166,1,0,0:0:0:0:
128,192,22400,1,2,0:0:0:0:
96,192,22517,1,0,0:0:0:0:
64,192,22635,6,0,L|128:128,1,90,2|0,0:0|0:0,0:0:0:0:
248,192,23103,2,0,L|120:64,1,180,0|8,0:0|0:0,0:0:0:0:
64,192,23806,1,0,0:0:0:0:
384,192,24041,6,0,L|448:128,1,90,0|2,0:0|0:0,0:0:0:0:
128,192,24510,2,0,L|64:128,1,90,2|0,0:0|0:0,0:0:0:0:
224,192,24978,1,0,0:0:0:0:
352,192,25213,2,0,L|384:160,2,45,2|0|8,0:0|0:0|0:0,0:0:0:0:
128,192,25681,2,0,L|96:160,2,45
352,192,26150,1,0,0:0:0:0:
224,192,26385,6,0,L|336:48,1,180,2|0,0:0|0:0,0:0:0:0:
192,192,27088,1,0,0:0:0:0:
56,192,27322,1,8,0:0:0:0:
288,192,27556,1,0,0:0:0:0:
320,192,27674,1,0,0:0:0:0:
352,192,27791,2,0,L|288:128,1,90
256,192,28142,1,0,0:0:0:0:
224,192,28260,5,2,0:0:0:0:
384,192,28494,1,0,0:0:0:0:
416,192,28611,2,0,L|448:160,1,45
256,192,28963,2,0,L|288:160,1,45
224,192,29197,1,8,0:0:0:0:
96,192,29431,2,0,L|128:160,1,45
160,192,29666,1,0,0:0:0:0:
32,192,29900,2,0,L|64:160,1,45
128,192,30135,6,0,L|192:128,1,90,6|0,0:0|0:0,0:0:0:0:
64,192,30603,1,0,0:0:0:0:
256,192,30838,1,2,0:0:0:0:
448,192,31072,1,8,0:0:0:0:
256,192,31306,2,0,L|224:160,2,45
384,192,31775,2,0,L|416:160,1,45,0|2,0:0|0:0,0:0:0:0:
448,192,32010,6,0,L|384:128,1,90,2|0,0:0|0:0,0:0:0:0:
88,192,32478,1,0,0:0:0:0:
192,192,32713,2,0,L|160:160,1,45
88,192,32947,1,8,0:0:0:0:
256,192,33181,2,0,L|288:160,1,45
320,192,33416,1,0,0:0:0:0:
152,192,33650,1,0,0:0:0:0:
120,192,33767,1,0,0:0:0:0:
88,192,33885,6,0,L|16:136,1,90,2|0,0:0|0:0,0:0:0:0:
144,192,34353,1,0,0:0:0:0:
440,192,34588,2,0,L|504:128,1,90,2|8,0:0|0:0,0:0:0:0:
352,192,35056,1,0,0:0:0:0:
320,192,35174,1,0,0:0:0:0:
288,192,35291,2,0,L|352:128,1,90
32,192,35760,6,0,L|96:128,1,90,2|0,0:0|0:0,0:0:0:0:
192,192,36228,1,0,0:0:0:0:
496,192,36463,2,0,L|432:128,1,90,2|8,0:0|0:0,0:0:0:0:
320,192,36931,1,0,0:0:0:0:
288,192,37049,1,0,0:0:0:0:
256,192,37166,1,0,0:0:0:0:
64,192,37400,5,0,0:0:0:0:
360,192,37635,2,0,L|424:128,1,90,2|0,0:0|0:0,0:0:0:0:
256,192,38103,2,0,L|320:128,1,90,0|2,0:0|0:0,0:0:0:0:
192,192,38572,1,8,0:0:0:0:
320,192,38806,1,0,0:0:0:0:
288,192,38924,1,0,0:0:0:0:
256,192,39041,6,0,L|320:128,1,90,2|2,0:0|0:0,0:0:0:0:
24,192,39510,2,0,L|88:128,1,90,2|0,0:0|0:0,0:0:0:0:
256,192,39978,1,0,0:0:0:0:
448,192,40213,2,0,L|384:128,1,90,2|8,0:0|0:0,0:0:0:0:
256,192,40681,1,0,0:0:0:0:
288,192,40799,1,0,0:0:0:0:
320,192,40916,2,0,L|384:128,1,90
288,192,41267,1,0,0:0:0:0:
320,192,41385,6,0,L|384:128,1,90,2|0,0:0|0:0,0:0:0:0:
480,192,41853,1,0,0:0:0:0:
176,192,42088,2,0,L|96:152,1,90,2|8,0:0|0:0,0:0:0:0:
392,192,42556,1,0,0:0:0:0:
424,192,42674,1,0,0:0:0:0:
456,192,42791,2,0,L|392:128,1,90,0|2,0:0|0:0,0:0:0:0:
96,192,43260,6,0,L|32:128,1,90,2|0,0:0|0:0,0:0:0:0:
192,192,43728,1,0,0:0:0:0:
352,192,43963,1,2,0:0:0:0:
384,192,44080,1,0,0:0:0:0:
456,192,44197,1,8,0:0:0:0:
288,192,44431,2,0,L|256:160,1,45
224,192,44666,1,0,0:0:0:0:
64,192,44900,2,0,L|96:160,1,45
128,192,45135,6,0,L|64:128,1,90,6|0,0:0|0:0,0:0:0:0:
384,192,45603,1,0,0:0:0:0:
480,192,45838,1,0,0:0:0:0:
288,192,46072,2,0,L|352:128,1,90,8|0,0:0|0:0,0:0:0:0:
224,192,46541,1,0,0:0:0:0:
96,192,46775,1,0,0:0:0:0:
224,192,47010,6,0,L|160:128,1,90,2|0,0:0|0:0,0:0:0:0:
304,192,47478,1,0,0:0:0:0:
384,192,47713,2,0,L|448:128,1,90,0|8,0:0|0:0,0:0:0:0:
320,192,48181,1,0,0:0:0:0:
160,192,48416,2,0,L|96:128,1,90
416,192,48885,6,0,L|480:128,1,90,2|0,0:0|0:0,0:0:0:0:
384,192,49353,1,0,0:0:0:0:
88,192,49588,2,0,L|24:128,1,90,0|8,0:0|0:0,0:0:0:0:
208,192,50056,1,0,0:0:0:0:
384,192,50291,1,0,0:0:0:0:
192,192,50525,1,0,0:0:0:0:
496,192,50760,6,0,L|368:64,1,180,2|0,0:0|0:0,0:0:0:0:
64,192,51463,2,0,L|192:64,1,180,8|0,0:0|0:0,0:0:0:0:
320,192,52166,1,0,0:0:0:0:
128,192,52400,5,0,0:0:0:0:
304,192,52635,1,2,0:0:0:0:
448,192,52869,1,0,0:0:0:0:
192,192,53103,2,0,L|24:128,1,180,0|8,0:0|0:0,0:0:0:0:
128,192,53806,1,0,0:0:0:0:
432,192,54041,2,0,L|496:128,1,90
176,192,54510,6,0,L|104:136,2,90,2|0|0,0:0|0:0|0:0,0:0:0:0:
480,192,55213,2,0,L|328:96,1,180,8|0,0:0|0:0,0:0:0:0:
128,192,55916,1,0,0:0:0:0:
16,192,56150,1,0,0:0:0:0:
320,192,56385,6,0,L|480:104,1,180,2|0,0:0|0:0,0:0:0:0:
320,192,57088,2,0,L|384:128,1,90,8|0,0:0|0:0,0:0:0:0:
64,192,57556,2,0,L|128:128,1,90
256,192,58025,1,0,0:0:0:0:
256,192,58260,12,0,60135,0:0:0:0:
