osu file format v12

[General]
AudioFilename: MitiS - Open Window (feat. Anna Yvette).mp3
AudioLeadIn: 0
PreviewTime: 89390
Countdown: 0
SampleSet: Soft
StackLeniency: 0.7
Mode: 0
LetterboxInBreaks: 0
EpilepsyWarning: 1

[Editor]
Bookmarks: 11390,22684,33978,45272,56566,79154,90448,101743,113037,124331,135625,158213,169507,180801,192095,204801,216095,227390
DistanceSpacing: 0.5
BeatDivisor: 4
GridSize: 4

[Metadata]
Title:Open Window (feat. Anna Yvette)
TitleUnicode:Open Window (feat. Anna Yvette)
Artist:MitiS
ArtistUnicode:MitiS
Creator:[Luanny]
Version:Kyshiro's Normal
Source:
Tags:cubex drumstep kyshiro blue dragon inverness collab collaboration dubstep
BeatmapID:267656
BeatmapSetID:100628

[Difficulty]
HPDrainRate:4
CircleSize:3
OverallDifficulty:4
ApproachRate:5
SliderMultiplier:1
SliderTickRate:1

[Events]
//Background and Video events
0,0,"okay.jpg",0,0
//Break Periods
2,57978,77714
2,137037,156773
//Storyboard Layer 0 (Background)
//Storyboard Layer 1 (Fail)
//Storyboard Layer 2 (Pass)
//Storyboard Layer 3 (Foreground)
//Storyboard Sound Samples
//Background Colour Transformations
3,100,163,162,255

[TimingPoints]
96,352.941176470588,4,2,1,60,1,0
23390,-100,4,2,1,70,0,0
33978,-100,4,2,1,80,0,0
90448,-100,4,2,1,80,0,0
113037,-100,4,2,1,80,0,1
123625,-100,4,2,1,80,0,0
124243,-100,4,2,1,80,0,1
126448,-100,4,2,1,80,0,0
127154,-100,4,2,1,80,0,1
129272,-100,4,2,1,80,0,0
129978,-100,4,2,1,80,0,1
135625,-100,4,2,1,80,0,0
158213,-100,4,2,1,60,0,0
162448,-100,4,2,1,70,0,0
163860,-100,4,2,1,80,0,0
169507,-100,4,2,1,80,0,1
173743,-100,4,2,1,80,0,0
175154,-100,4,2,1,80,0,1
180095,-100,4,2,1,80,0,0
180801,-100,4,2,1,80,0,1
185037,-100,4,2,1,80,0,0
186448,-100,4,2,1,80,0,1
192095,-100,4,2,1,80,0,0
193507,-100,4,2,1,80,0,1
204095,-100,4,2,1,80,0,0
204801,-100,4,2,1,80,0,1
206919,-100,4,2,1,80,0,0
207625,-100,4,2,1,80,0,1
209743,-100,4,2,1,80,0,0
210448,-100,4,2,1,80,0,1
216095,-100,4,2,1,80,0,0

[Colours]
Combo1 : 170,170,255
Combo2 : 23,139,255

[HitObjects]
44,194,11390,2,0,P|76:233|215:211,1,200,2|0,1:2|0:0,0:0:0:0:
269,136,12448,2,0,P|403:119|435:158,1,200,2|0,0:0|0:0,0:0:0:0:
448,258,13507,5,0,0:0:0:0:
390,339,13860,1,0,0:0:0:0:
298,298,14213,2,0,P|231:344|38:255,2,300,2|2|0,0:0|0:0|0:0,0:0:0:0:
330,202,16684,1,0,0:0:0:0:
322,102,17037,6,0,P|299:63|243:30,2,100,2|0|2,0:0|0:0|0:0,0:0:0:0:
226,131,18095,2,0,P|165:104|57:186,1,200,2|0,0:0|0:0,0:0:0:0:
156,204,19154,1,2,0:0:0:0:
256,192,19860,12,0,22684,0:0:0:0:
76,214,23390,5,8,0:0:0:0:
115,306,23743,2,0,P|172:353|292:336,1,200,2|2,0:0|0:0,0:0:0:0:
366,271,24801,2,0,L|365:154,2,100,8|0|4,0:0|0:0|0:0,0:0:0:0:
281,216,25860,6,0,P|252:183|188:171,1,100,2|8,0:0|0:0,0:0:0:0:
137,248,26566,2,0,P|100:161|167:75,1,200,2|2,0:0|0:0,0:0:0:0:
253,63,27625,1,8,0:0:0:0:
228,261,28331,6,0,P|198:318|70:314,1,200,4|8,0:0|0:0,0:0:0:0:
26,231,29390,2,0,P|35:180|79:140,1,100,2|0,0:0|0:0,0:0:0:0:
149,202,30095,1,2,0:0:0:0:
228,260,30448,2,0,P|271:260|315:214,1,100,8|6,0:0|0:0,0:0:0:0:
262,135,31154,2,0,P|332:125|412:221,2,200,4|8|0,0:0|0:0|0:0,0:0:0:0:
253,340,33978,6,0,P|206:340|131:263,1,150,4|0,1:0|0:0,0:0:0:0:
125,223,34684,2,0,P|138:167|171:137,1,100,0|2,1:0|0:0,0:0:0:0:
268,152,35390,2,0,P|310:207|443:180,1,200,4|0,0:0|1:0,0:0:0:0:
365,118,36448,1,2,0:0:0:0:
279,66,36801,6,0,P|222:77|203:210,2,200,4|0|4,0:0|1:0|0:0,0:0:0:0:
352,133,38566,2,0,L|414:99,1,50,2|4,0:0|0:0,0:0:0:0:
428,147,38919,2,0,P|400:269|343:280,1,200,0|4,1:0|0:0,0:0:0:0:
259,226,39978,5,2,0:0:0:0:
171,178,40331,2,0,P|119:169|70:189,1,100,0|2,1:0|0:0,0:0:0:0:
130,268,41037,1,4,0:0:0:0:
221,312,41390,2,0,L|275:296,1,50,2|0,0:0|0:0,0:0:0:0:
314,318,41743,2,0,P|353:335|420:321,1,100,0|2,1:0|0:0,0:0:0:0:
478,256,42448,6,0,P|490:205|409:84,1,200,4|0,0:0|1:0,0:0:0:0:
368,102,43331,2,0,P|330:122|274:118,1,100,4|4,0:0|0:0,0:0:0:0:
232,90,43860,2,0,P|176:86|138:106,2,100,4|4|0,0:0|0:0|1:0,0:0:0:0:
199,184,44919,1,0,1:0:0:0:
99,197,45272,6,0,P|57:163|73:31,1,200,4|0,1:0|1:0,0:0:0:0:
138,105,46331,1,2,0:0:0:0:
199,184,46684,2,0,P|243:204|297:200,1,100,4|2,0:0|0:0,0:0:0:0:
340,183,47213,2,0,P|369:178|399:185,1,50,4|0,0:0|1:0,0:0:0:0:
456,255,47743,1,2,0:0:0:0:
395,334,48095,6,0,P|357:355|222:302,1,200,4|0,0:0|1:0,0:0:0:0:
201,204,49154,2,0,L|218:156,1,50,2|4,0:0|0:0,0:0:0:0:
211,107,49507,2,0,P|171:68|68:73,1,150,4|4,0:0|0:0,0:0:0:0:
47,102,50213,1,0,1:0:0:0:
102,184,50566,2,0,P|99:216|85:246,1,50,2|4,0:0|0:0,0:0:0:0:
74,279,50919,6,0,P|113:343|195:346,1,150,4|4,0:0|0:0,0:0:0:0:
229,332,51625,2,0,P|282:322|332:340,2,100,0|2|4,1:0|0:0|0:0,0:0:0:0:
168,251,52684,2,0,L|155:195,1,50,2|0,0:0|0:0,0:0:0:0:
180,158,53037,2,0,P|249:213|351:177,1,200,0|4,1:0|0:0,0:0:0:0:
272,115,54095,5,2,0:0:0:0:
185,60,54448,2,0,P|136:69|97:106,1,100,0|0,1:0|0:0,0:0:0:0:
85,150,54978,1,4,0:0:0:0:
90,199,55154,2,0,P|123:239|175:257,1,100,4|4,0:0|0:0,0:0:0:0:
215,243,55684,1,4,0:0:0:0:
263,231,55860,2,0,P|302:224|357:244,2,100,0|0|4,1:0|1:0|1:0,0:0:0:0:
85,175,79154,5,4,0:0:0:0:
140,258,79507,2,0,P|185:279|290:250,1,150,0|4,1:0|0:0,0:0:0:0:
309,218,80213,2,0,P|319:174|306:121,2,100,0|4|0,1:0|0:0|1:0,0:0:0:0:
211,173,81272,1,0,0:0:0:0:
208,73,81625,1,0,1:0:0:0:
292,18,81978,6,0,P|339:53|390:60,1,100,4|0,0:0|1:0,0:0:0:0:
465,182,82860,1,4,0:0:0:0:
422,155,83037,2,0,P|379:144|325:158,1,100,0|4,1:0|0:0,0:0:0:0:
266,237,83743,1,0,1:0:0:0:
185,178,84095,2,0,L|154:81,1,100,0|0,0:0|1:0,0:0:0:0:
256,192,84801,12,8,89037,0:0:0:0:
55,200,90448,6,0,P|89:242|191:253,1,150,4|0,1:0|0:0,0:0:0:0:
224,235,91154,2,0,P|277:227|327:244,1,100,0|2,1:0|0:0,0:0:0:0:
376,323,91860,2,0,P|410:282|417:222,1,100,4|2,0:0|0:0,0:0:0:0:
367,150,92566,1,0,1:0:0:0:
272,117,92919,2,0,L|227:146,1,50,2|0,0:0|0:0,0:0:0:0:
181,157,93272,6,0,P|113:152|33:54,2,200,4|0|4,0:0|1:0|0:0,0:0:0:0:
272,117,95037,1,2,0:0:0:0:
362,75,95390,2,0,P|386:73|413:82,1,50,0|4,1:0|0:0,0:0:0:0:
375,174,95919,1,4,0:0:0:0:
375,174,96095,6,0,P|304:155|274:27,1,200,4|0,0:0|1:0,0:0:0:0:
362,75,97154,1,2,0:0:0:0:
452,117,97507,2,0,P|471:174|460:219,1,100,4|2,0:0|0:0,0:0:0:0:
386,275,98213,2,0,P|331:251|205:299,1,200,0|4,1:0|0:0,0:0:0:0:
129,361,99272,5,2,0:0:0:0:
57,291,99625,2,0,L|45:184,1,100,0|2,1:0|0:0,0:0:0:0:
63,144,100154,1,4,0:0:0:0:
97,107,100331,2,0,P|137:97|191:121,1,100,12|2,0:0|0:0,0:0:0:0:
254,195,101037,2,0,B|318:227|350:195|382:163|446:195,1,200,0|4,1:0|0:0,0:0:0:0:
399,283,102095,5,2,0:0:0:0:
299,288,102448,2,0,P|244:280|195:250,1,100,0|2,1:0|0:0,0:0:0:0:
155,252,102978,1,0,0:0:0:0:
111,276,103154,2,0,L|68:371,1,100,4|2,0:0|0:0,0:0:0:0:
13,284,103860,2,0,L|99:94,1,200,0|4,1:0|0:0,0:0:0:0:
183,52,104919,5,2,0:0:0:0:
244,130,105272,2,0,P|286:157|342:145,1,100,0|2,1:0|0:0,0:0:0:0:
428,182,105978,2,0,P|322:188|253:245,1,200,4|0,0:0|1:0,0:0:0:0:
238,294,106860,1,4,0:0:0:0:
181,211,107213,1,4,0:0:0:0:
181,211,107390,6,0,P|172:166|127:121,1,100,4|2,0:0|0:0,0:0:0:0:
70,218,108095,2,0,P|111:300|220:315,1,200,0|4,1:0|0:0,0:0:0:0:
290,258,109154,1,2,0:0:0:0:
370,197,109507,2,0,P|420:193|471:224,1,100,0|2,1:0|0:0,0:0:0:0:
400,293,110213,6,0,L|349:323,1,50,4|0,0:0|0:0,0:0:0:0:
310,336,110566,2,0,P|256:330|213:282,1,100,2|0,0:0|1:0,0:0:0:0:
209,252,111095,1,4,0:0:0:0:
256,164,111448,1,4,0:0:0:0:
256,164,111625,1,0,0:0:0:0:
418,281,112331,1,0,1:0:0:0:
442,82,113037,6,0,P|409:101|332:97,1,100,4|2,1:0|0:0,0:0:0:0:
252,71,113743,2,0,P|171:78|95:169,1,200,0|4,1:0|0:0,0:0:0:0:
103,263,114801,1,2,0:0:0:0:
159,345,115154,2,0,P|212:362|274:342,1,100,0|2,1:0|0:0,0:0:0:0:
308,269,115860,6,0,P|400:256|470:330,2,200,4|0|4,0:0|1:0|0:0,0:0:0:0:
245,190,117625,1,2,0:0:0:0:
169,255,117978,2,0,P|138:263|111:261,1,50,0|4,1:0|0:0,0:0:0:0:
132,163,118507,1,4,0:0:0:0:
132,163,118684,6,0,P|164:105|293:84,1,200,4|0,0:0|1:0,0:0:0:0:
384,57,119743,1,2,0:0:0:0:
388,156,120095,2,0,P|375:200|402:260,1,100,4|2,0:0|0:0,0:0:0:0:
477,197,120801,2,0,P|490:153|463:93,1,100,0|2,1:0|0:0,0:0:0:0:
384,57,121507,5,4,0:0:0:0:
293,98,121860,1,2,0:0:0:0:
209,42,122213,2,0,P|152:29|62:81,1,150,0|4,1:0|0:0,0:0:0:0:
53,113,122919,2,0,P|48:164|71:214,1,100,12|2,0:0|0:0,0:0:0:0:
160,146,123625,2,0,B|216:162|248:194|248:194|280:162|336:146,1,200,0|4,1:0|0:0,0:0:0:0:
433,138,124684,5,2,0:0:0:0:
461,233,125037,2,0,P|442:296|368:341,1,150,0|0,1:0|0:0,0:0:0:0:
326,322,125743,2,0,P|280:306|228:321,1,100,4|2,0:0|0:0,0:0:0:0:
160,248,126448,2,0,P|111:260|65:244,2,100,0|2|4,1:0|0:0|0:0,0:0:0:0:
213,162,127507,5,2,0:0:0:0:
279,90,127860,2,0,P|327:79|437:174,1,200,0|4,1:0|0:0,0:0:0:0:
328,193,128919,1,2,0:0:0:0:
343,301,129272,2,0,P|394:279|428:231,2,100,0|2|4,1:0|0:0|0:0,0:0:0:0:
242,297,130331,5,2,0:0:0:0:
161,237,130684,2,0,L|133:81,1,150,0|0,1:0|0:0,0:0:0:0:
174,59,131390,2,0,P|224:73|280:61,1,100,4|2,0:0|0:0,0:0:0:0:
365,32,132095,2,0,P|409:22|461:38,2,100,0|2|4,1:0|0:0|0:0,0:0:0:0:
408,122,133154,1,2,0:0:0:0:
484,186,133507,2,0,P|423:221|336:191,1,150,0|4,1:0|0:0,0:0:0:0:
302,219,134213,6,0,L|268:177,1,50,12|4,0:0|0:0,0:0:0:0:
222,194,134566,2,0,L|188:152,1,50,4|4,0:0|0:0,0:0:0:0:
140,152,134919,2,0,P|96:177|42:176,1,100,0|0,1:0|1:0,0:0:0:0:
73,80,135625,1,4,1:0:0:0:
77,132,158213,5,4,0:0:0:0:
134,225,158566,2,0,P|193:243|277:206,1,150,0|4,1:0|0:0,0:0:0:0:
300,169,159272,2,0,P|305:130|285:69,1,100,0|4,1:0|0:0,0:0:0:0:
196,134,159978,1,0,1:0:0:0:
211,298,160507,5,4,0:0:0:0:
211,298,160684,2,0,P|265:321|311:319,1,100,0|4,1:0|0:0,0:0:0:0:
400,351,161390,1,0,1:0:0:0:
358,202,161919,1,4,0:0:0:0:
358,202,162095,2,0,P|355:145|386:94,1,100,0|4,1:0|0:0,0:0:0:0:
444,177,162801,6,0,P|434:249|368:292,1,150,0|4,1:0|0:0,0:0:0:0:
323,289,163507,2,0,P|297:280|275:264,1,50,0|4,1:0|0:0,0:0:0:0:
243,231,163860,2,0,P|235:182|252:129,2,100,4|4|4,0:0|0:0|0:0,0:0:0:0:
334,188,164919,1,4,0:0:0:0:
331,88,165272,6,0,P|292:50|230:44,1,100,4|4,0:0|0:0,0:0:0:0:
179,113,165978,2,0,P|124:118|80:162,1,100,4|4,0:0|0:0,0:0:0:0:
256,192,166684,12,0,168095,0:0:0:0:
381,257,169154,5,0,1:0:0:0:
481,231,169507,1,4,1:0:0:0:
411,158,169860,2,0,P|367:141|265:177,1,150,0|4,1:0|0:0,0:0:0:0:
227,191,170566,2,0,P|174:200|115:177,2,100,0|0|0,1:0|0:0|1:0,0:0:0:0:
184,100,171625,1,2,0:0:0:0:
84,102,171978,2,0,P|39:158|36:201,1,100,0|4,1:0|0:0,0:0:0:0:
60,280,172684,6,0,P|127:311|243:260,1,200,0|0,1:0|1:0,0:0:0:0:
309,195,173743,1,8,0:0:0:0:
395,244,174095,2,0,L|434:343,2,100,8|8|8,0:0|0:0|0:0,0:0:0:0:
309,195,175154,5,4,0:0:0:0:
238,266,175507,2,0,P|174:308|98:302,1,150,0|4,1:0|0:0,0:0:0:0:
59,279,176213,2,0,L|22:182,1,100,0|0,1:0|0:0,0:0:0:0:
74,99,176919,1,0,1:0:0:0:
152,159,177272,2,0,P|196:172|250:155,1,100,2|0,0:0|1:0,0:0:0:0:
297,70,177978,5,4,0:0:0:0:
197,85,178331,2,0,L|202:251,1,150,0|4,1:0|0:0,0:0:0:0:
216,282,179037,2,0,P|248:313|304:321,2,100,0|4|0,1:0|0:0|1:0,0:0:0:0:
297,223,180095,1,0,1:0:0:0:
393,250,180448,1,0,1:0:0:0:
370,152,180801,5,4,1:0:0:0:
273,127,181154,2,0,P|217:167|230:295,1,200,0|0,1:0|1:0,0:0:0:0:
297,223,182213,1,0,0:0:0:0:
370,152,182566,2,0,P|368:96|339:51,2,100,0|2|0,1:0|0:0|1:0,0:0:0:0:
273,127,183625,5,4,0:0:0:0:
188,74,183978,2,0,P|175:143|230:220,1,150,0|4,1:0|0:0,0:0:0:0:
260,227,184684,2,0,P|312:220|354:184,1,100,0|2,1:0|0:0,0:0:0:0:
456,57,186448,5,4,0:0:0:0:
381,123,186801,2,0,P|334:142|240:114,1,150,0|4,1:0|0:0,0:0:0:0:
198,91,187507,2,0,P|156:80|88:105,2,100,0|0|0,1:0|0:0|1:0,0:0:0:0:
153,180,188566,2,0,L|112:212,1,50,2|4,0:0|0:0,0:0:0:0:
90,255,188919,2,0,P|88:303|113:348,1,100,0|4,1:0|0:0,0:0:0:0:
186,279,189625,6,0,P|240:253|329:272,1,150,0|4,1:0|0:0,0:0:0:0:
371,291,190331,2,0,P|412:302|470:285,1,100,0|4,1:0|0:0,0:0:0:0:
501,193,191037,1,0,1:0:0:0:
420,133,191390,2,0,P|389:102|377:40,1,100,0|0,1:0|1:0,0:0:0:0:
476,51,192095,1,4,0:0:0:0:
221,322,193507,6,0,P|154:323|88:213,1,200,4|0,1:0|1:0,0:0:0:0:
187,228,194566,1,2,0:0:0:0:
283,255,194919,2,0,L|334:355,1,100,4|2,0:0|0:0,0:0:0:0:
382,259,195625,2,0,P|409:166|490:108,1,200,0|4,1:0|0:0,0:0:0:0:
507,206,196684,5,2,0:0:0:0:
470,299,197037,2,0,P|439:338|376:355,1,100,0|2,1:0|0:0,0:0:0:0:
304,308,197743,2,0,P|206:283|107:326,2,200,4|0|4,0:0|1:0|0:0,0:0:0:0:
343,216,199507,5,2,0:0:0:0:
416,283,199860,2,0,L|453:381,1,100,0|2,1:0|0:0,0:0:0:0:
512,294,200566,2,0,L|438:98,1,200,4|0,0:0|1:0,0:0:0:0:
355,55,201625,1,2,0:0:0:0:
275,115,201978,1,4,0:0:0:0:
185,69,202331,6,0,P|142:60|89:81,1,100,2|0,0:0|1:0,0:0:0:0:
148,161,203037,1,2,0:0:0:0:
237,205,203390,2,0,P|330:195|371:103,1,200,8|0,0:0|1:0,0:0:0:0:
173,137,204801,6,0,P|148:176|149:236,1,100,4|2,0:0|0:0,0:0:0:0:
141,328,205507,2,0,P|118:238|33:165,1,200,0|4,1:0|0:0,0:0:0:0:
41,67,206566,1,2,0:0:0:0:
133,103,206919,2,0,B|185:107|223:68|223:68|289:152,1,200,0|4,1:0|0:0,0:0:0:0:
367,203,207978,1,2,0:0:0:0:
457,160,208331,6,0,P|475:126|463:58,2,100,0|2|4,1:0|0:0|0:0,0:0:0:0:
375,102,209390,1,2,0:0:0:0:
367,203,209743,2,0,B|358:259|305:273|305:273|249:251|206:278,1,200,0|4,1:0|0:0,0:0:0:0:
136,345,210801,5,2,0:0:0:0:
68,270,211154,2,0,P|54:220|148:113,1,200,0|4,1:0|0:0,0:0:0:0:
215,48,212213,1,2,0:0:0:0:
270,131,212566,2,0,P|323:149|378:132,2,100,0|2|4,1:0|0:0|0:0,0:0:0:0:
326,48,213625,5,2,0:0:0:0:
425,55,213978,2,0,P|452:84|416:230,1,200,0|8,1:0|0:0,0:0:0:0:
323,240,215037,2,0,P|279:209|255:152,2,100,2|0|0,0:0|1:0|0:0,0:0:0:0:
360,140,216095,6,0,P|338:97|282:65,1,100,4|2,0:0|0:0,0:0:0:0:
201,102,216801,2,0,P|150:141|28:86,1,200,0|4,1:0|0:0,0:0:0:0:
119,45,217860,1,2,0:0:0:0:
215,19,218213,2,0,P|261:42|284:87,1,100,0|2,1:0|0:0,0:0:0:0:
283,183,218919,6,0,P|311:243|436:258,2,200,4|0|4,0:0|1:0|0:0,0:0:0:0:
382,173,220684,2,0,P|364:123|319:88,2,100,2|0|2,0:0|1:0|0:0,0:0:0:0:
283,183,221743,6,0,P|215:151|101:200,1,200,4|0,0:0|1:0,0:0:0:0:
55,281,222801,1,2,0:0:0:0:
9,191,223154,2,0,L|-2:88,1,100,4|2,0:0|0:0,0:0:0:0:
84,39,223860,2,0,P|141:83|281:75,1,200,0|4,1:0|0:0,0:0:0:0:
356,44,224919,5,2,0:0:0:0:
433,107,225272,2,0,P|459:179|373:277,2,200,0|4|0,1:0|0:0|1:0,0:0:0:0:
359,175,227037,1,2,0:0:0:0:
281,111,227390,1,4,0:0:0:0:
