osu file format v12

[General]
AudioFilename: MitiS - Open Window (feat. Anna Yvette).mp3
AudioLeadIn: 0
PreviewTime: 89390
Countdown: 0
SampleSet: Soft
StackLeniency: 0.7
Mode: 0
LetterboxInBreaks: 0
EpilepsyWarning: 1

[Editor]
Bookmarks: 11390,22684,33978,45272,56566,79154,90448,101743,113037,124331,135625,158213,169507,180801,192095,204801,216095,227390
DistanceSpacing: 1.2
BeatDivisor: 4
GridSize: 4

[Metadata]
Title:Open Window (feat. Anna Yvette)
TitleUnicode:Open Window (feat. Anna Yvette)
Artist:MitiS
ArtistUnicode:MitiS
Creator:[Luanny]
Version:Collab
Source:
Tags:cubex drumstep kyshiro blue dragon inverness collab collaboration dubstep
BeatmapID:266925
BeatmapSetID:100628

[Difficulty]
HPDrainRate:6
CircleSize:4
OverallDifficulty:8
ApproachRate:9
SliderMultiplier:1.6
SliderTickRate:1

[Events]
//Background and Video events
0,0,"okay.jpg",0,0
//Break Periods
2,57978,77714
2,137037,156773
//Storyboard Layer 0 (Background)
//Storyboard Layer 1 (Fail)
//Storyboard Layer 2 (Pass)
//Storyboard Layer 3 (Foreground)
Sprite,Foreground,Centre,"CBX.png",546,453 S,0,11037,,0.3 F,0,11037,11390,0,1 F,0,22331,22507,1,0 F,0,33801,33978,0,1 F,0,44919,45095,1,0 F,0,78801,79154,0,1 F,0,90095,90272,1,0 F,0,101566,101743,0,1 F,0,112684,112860,1,0 F,0,124154,124331,0,1 F,0,135625,135978,1,0 F,0,169331,169507,0,1 F,0,180448,180625,1,0 F,0,193154,193507,0,1 F,0,204448,204625,1,0 F,0,215919,216095,0,1 F,0,227037,227390,1,0
Sprite,Foreground,Centre,"LNY.png",546,453 S,0,22507,,0.3 F,0,22507,22684,0,1 F,0,32566,32919,1,0 F,0,45095,45272,0,1 F,0,56566,56919,1,0 F,0,90272,90448,0,1 F,0,101390,101566,1,0 F,0,112860,113037,0,1 F,0,123978,124154,1,0 F,0,157860,158213,0,1 F,0,169154,169331,1,0 F,0,180625,180801,0,1 F,0,191919,192095,1,0 F,0,204625,204801,0,1 F,0,215743,215919,1,0
//Storyboard Sound Samples
//Background Colour Transformations
3,100,163,162,255

[TimingPoints]
96,352.941176470588,4,2,0,60,1,0
11390,-133.333333333333,4,2,0,60,0,0
21272,-133.333333333333,4,2,1,70,0,0
33978,-100,4,2,1,80,0,0
79154,-100,4,2,1,60,0,0
87625,-100,4,2,1,70,0,0
90448,-100,4,2,1,80,0,0
101037,-133.333333333333,4,2,1,80,0,0
101743,-100,4,2,1,80,0,0
111625,-100,4,2,1,80,0,0
113037,-100,4,2,1,80,0,1
123625,-133.333333333333,4,2,1,80,0,0
124243,-100,4,2,1,80,0,1
126448,-133.333333333333,4,2,1,80,0,0
127154,-100,4,2,1,80,0,1
129272,-133.333333333333,4,2,1,80,0,0
129978,-100,4,2,1,80,0,1
135625,-100,4,2,1,80,0,0
158213,-133.333333333333,4,2,1,60,0,0
161037,-117.647058823529,4,2,1,60,0,0
162448,-105.263157894737,4,2,1,70,0,0
163860,-100,4,2,1,80,0,0
169507,-100,4,2,1,80,0,1
173743,-100,4,2,1,80,0,0
175154,-100,4,2,1,80,0,1
180095,-100,4,2,1,80,0,0
180801,-100,4,2,1,80,0,1
185037,-100,4,2,1,80,0,0
186448,-100,4,2,1,80,0,1
192095,-100,4,2,1,80,0,0
193507,-100,4,2,1,80,0,1
204095,-100,4,2,1,80,0,0
204801,-100,4,2,1,80,0,1
206919,-133.333333333333,4,2,1,80,0,0
207625,-100,4,2,1,80,0,1
209743,-133.333333333333,4,2,1,80,0,0
210448,-100,4,2,1,80,0,1
216095,-100,4,2,1,80,0,0
218213,-133.333333333333,4,2,1,80,0,0
218566,-100,4,2,1,80,0,0
221037,-133.333333333333,4,2,1,80,0,0
221390,-100,4,2,1,80,0,0

[Colours]
Combo1 : 170,170,255
Combo2 : 23,139,255

[HitObjects]
256,344,11390,2,0,P|200:248|256:144,1,240.000009155274,2|0,1:2|0:0,0:0:0:0:
328,264,12448,2,0,P|216:224|120:288,1,240.000009155274,2|0,0:0|0:0,0:0:0:0:
48,168,13507,2,0,L|40:48,1,120.000004577637
184,72,14213,6,0,L|192:192,1,120.000004577637,2|0,0:0|0:0,0:0:0:0:
256,320,14919,1,0,0:0:0:0:
356,216,15272,2,0,P|256:160|156:216,1,240.000009155274,2|0,0:0|0:0,0:0:0:0:
256,320,16331,1,0,0:0:0:0:
184,192,16684,2,0,L|176:128,1,60.0000022888184
208,64,17037,6,0,P|320:40|368:80,1,180.000006866455,2|0,0:0|0:0,0:0:0:0:
392,104,17743,2,0,P|384:160|400:224,1,120.000004577637,2|2,0:0|0:0,0:0:0:0:
320,344,18448,2,0,P|328:280|312:224,1,120.000004577637
256,88,19154,1,2,0:0:0:0:
208,144,19331,1,0,0:0:0:0:
200,216,19507,1,2,0:0:0:0:
224,288,19684,1,0,0:0:0:0:
256,192,19860,12,0,20919,0:0:0:0:
256,96,21272,5,8,0:0:0:0:
176,192,21448,1,0,0:0:0:0:
176,192,21537,1,0,0:0:0:0:
176,192,21625,1,0,0:0:0:0:
256,280,21801,1,8,0:0:0:0:
336,192,21978,1,0,0:0:0:0:
336,192,22066,1,0,0:0:0:0:
336,192,22154,1,0,0:0:0:0:
256,96,22331,2,0,L|248:32,1,60.0000022888184,8|0,0:0|0:0,0:0:0:0:
128,24,22684,6,0,P|136:96|112:152,1,120.000004577637,4|2,1:0|0:0,0:0:0:0:
44,188,23213,1,4,0:0:0:0:
192,152,23390,2,0,L|256:176,1,60.0000022888184,8|4,0:0|0:0,0:0:0:0:
316,304,23743,2,0,L|252:280,1,60.0000022888184,2|0,0:0|0:0,0:0:0:0:
192,152,24095,2,0,L|208:216,1,60.0000022888184,0|4,0:0|0:0,0:0:0:0:
316,304,24448,2,0,L|300:240,1,60.0000022888184,6|0,0:0|0:0,0:0:0:0:
304,156,24801,2,0,P|352:168|432:156,1,120.000004577637,8|4,0:0|0:0,0:0:0:0:
256,84,25331,1,0,0:0:0:0:
256,84,25419,1,0,0:0:0:0:
256,84,25507,6,0,P|232:112|200:128,1,60.0000022888184,4|0,0:0|0:0,0:0:0:0:
44,144,25860,2,0,P|68:116|100:100,1,60.0000022888184,2|4,0:0|0:0,0:0:0:0:
124,188,26213,1,8,0:0:0:0:
88,272,26390,1,4,0:0:0:0:
176,256,26566,2,0,P|212:236|304:240,1,120.000004577637,2|0,0:0|0:0,0:0:0:0:
388,340,27095,2,0,P|348:364|320:364,1,60.0000022888184,4|2,0:0|0:0,0:0:0:0:
252,336,27448,1,4,0:0:0:0:
424,252,27625,2,0,P|440:208|424:132,1,120.000004577637,8|6,0:0|0:0,0:0:0:0:
376,64,28154,1,0,0:0:0:0:
268,160,28331,6,0,L|336:136,1,60.0000022888184,4|0,0:0|0:0,0:0:0:0:
220,244,28684,2,0,L|290:260,1,60.0000022888184,2|4,0:0|0:0,0:0:0:0:
132,296,29037,2,0,L|181:348,1,60.0000022888184,8|4,0:0|0:0,0:0:0:0:
136,204,29390,1,2,0:0:0:0:
52,168,29566,1,0,0:0:0:0:
172,108,29743,2,0,L|240:84,1,60.0000022888184,0|4,0:0|0:0,0:0:0:0:
392,136,30095,2,0,L|324:160,1,60.0000022888184,6|0,0:0|0:0,0:0:0:0:
256,316,30448,2,0,P|280:256|264:192,1,120.000004577637,8|6,0:0|0:0,0:0:0:0:
216,132,30978,1,0,0:0:0:0:
216,132,31066,1,0,0:0:0:0:
216,132,31154,6,0,L|156:124,1,60.0000022888184,4|0,0:0|0:0,0:0:0:0:
76,164,31507,1,2,0:0:0:0:
144,224,31684,2,0,L|168:264,2,30.0000011444092,4|0|8,0:0|0:0|0:0,0:0:0:0:
40,324,32037,1,4,0:0:0:0:
144,224,32213,2,0,L|180:176,1,60.0000022888184,2|0,0:0|0:0,0:0:0:0:
360,96,32566,1,4,0:0:0:0:
256,336,33978,6,0,P|240:264|264:176,1,160,4|2,1:0|0:0,0:0:0:0:
216,96,34507,1,0,0:0:0:0:
312,104,34684,2,0,L|480:112,1,160,0|2,1:0|0:0,0:0:0:0:
400,288,35390,2,0,P|392:248|400:208,1,80,4|0,0:0|0:0,0:0:0:0:
336,64,35743,2,0,P|344:104|336:144,1,80,2|0,0:0|0:0,0:0:0:0:
296,232,36095,2,0,P|224:256|144:232,1,160,0|2,1:0|0:0,0:0:0:0:
80,160,36625,1,0,0:0:0:0:
80,160,36801,6,0,L|72:80,1,80,4|0,0:0|0:0,0:0:0:0:
232,112,37154,2,0,L|240:192,1,80,2|0,0:0|0:0,0:0:0:0:
192,344,37507,2,0,B|256:344|256:344|288:328|288:328|352:328,1,160,0|2,1:0|0:0,0:0:0:0:
424,264,38037,1,0,0:0:0:0:
464,176,38213,1,4,0:0:0:0:
424,88,38390,1,0,0:0:0:0:
424,88,38478,1,0,0:0:0:0:
424,88,38566,2,0,L|336:80,1,80,2|4,0:0|0:0,0:0:0:0:
232,192,38919,2,0,B|224:153|224:153|232:113,1,80,0|4,1:0|0:0,0:0:0:0:
256,24,39272,1,0,0:0:0:0:
232,192,39448,1,4,0:0:0:0:
152,328,39625,5,4,0:0:0:0:
152,328,39801,1,0,0:0:0:0:
248,312,39978,2,0,L|328:304,1,80,2|0,0:0|0:0,0:0:0:0:
408,352,40331,2,0,B|432:312|416:272|416:272|432:232|424:192,1,160,0|2,1:0|0:0,0:0:0:0:
384,112,40860,1,0,0:0:0:0:
296,144,41037,2,0,L|216:136,1,80,4|0,0:0|0:0,0:0:0:0:
192,144,41301,1,0,0:0:0:0:
168,152,41390,2,0,L|80:144,1,80,2|0,0:0|0:0,0:0:0:0:
48,304,41743,2,0,P|128:280|192:328,1,160,0|2,1:0|0:0,0:0:0:0:
280,336,42272,1,0,0:0:0:0:
296,240,42448,6,0,L|304:160,1,80,4|0,0:0|0:0,0:0:0:0:
456,112,42801,2,0,L|448:192,1,80,2|0,0:0|0:0,0:0:0:0:
368,336,43154,2,0,L|376:248,1,80,0|4,1:0|0:0,0:0:0:0:
392,64,43684,1,4,0:0:0:0:
392,64,43860,2,0,P|336:40|280:64,1,120,4|4,0:0|0:0,0:0:0:0:
264,80,44213,2,0,P|256:112|264:160,1,80,4|4,0:0|0:0,0:0:0:0:
184,296,44566,2,0,P|200:216|184:168,1,120,0|4,1:0|0:0,0:0:0:0:
176,160,44919,2,0,L|96:168,1,80,0|0,1:0|0:0,0:0:0:0:
200,72,45272,6,0,L|366:55,1,160,4|2,1:0|0:0,0:0:0:0:
452,28,45801,1,4,0:0:0:0:
364,144,45978,2,0,P|340:184|336:224,1,80,0|0,1:0|0:0,0:0:0:0:
424,372,46331,2,0,P|401:331|368:307,1,80,2|4,0:0|0:0,0:0:0:0:
192,324,46684,2,0,P|238:324|308:272,1,120,4|0,0:0|0:0,0:0:0:0:
298,286,47037,2,0,L|248:216,1,80,2|4,0:0|0:0,0:0:0:0:
200,144,47390,1,0,1:0:0:0:
116,196,47566,1,0,0:0:0:0:
172,272,47743,1,2,0:0:0:0:
251,221,47919,1,0,0:0:0:0:
200,144,48095,6,0,P|136:100|48:124,1,160,4|2,0:0|0:0,0:0:0:0:
251,221,48625,2,0,P|284:188|292:152,1,80,4|0,0:0|1:0,0:0:0:0:
268,64,48978,1,0,0:0:0:0:
116,196,49154,2,0,P|139:230|176:252,1,80,2|4,0:0|0:0,0:0:0:0:
348,200,49507,2,0,P|340:268|252:316,1,160,4|2,0:0|0:0,0:0:0:0:
252,220,50037,1,4,0:0:0:0:
348,200,50213,2,0,P|388:218|428:224,1,80,0|4,1:0|0:0,0:0:0:0:
256,112,50566,2,0,P|221:117|180:135,1,80,2|4,0:0|0:0,0:0:0:0:
136,312,50919,5,4,0:0:0:0:
192,232,51095,1,0,0:0:0:0:
180,135,51272,2,0,P|152:100|108:84,1,80,2|4,0:0|0:0,0:0:0:0:
192,232,51625,2,0,P|240:268|336:268,1,160,0|2,1:0|0:0,0:0:0:0:
416,212,52154,1,4,0:0:0:0:
368,128,52331,2,0,P|392:80|392:44,1,80,4|0,0:0|0:0,0:0:0:0:
260,124,52684,2,0,P|284:172|284:208,1,80,2|0,0:0|0:0,0:0:0:0:
217,305,53037,2,0,P|193:257|192:232,1,80,0|4,1:0|0:0,0:0:0:0:
304,348,53390,1,2,0:0:0:0:
217,305,53566,6,0,L|136:328,1,80,4|4,0:0|0:0,0:0:0:0:
52,368,53919,1,0,0:0:0:0:
68,240,54095,2,0,P|112:220|136:196,1,80,2|4,0:0|0:0,0:0:0:0:
144,180,54360,1,0,0:0:0:0:
150,161,54448,1,0,1:0:0:0:
88,36,54625,2,0,P|152:68|248:52,1,160,4|4,0:0|0:0,0:0:0:0:
324,20,55154,5,4,0:0:0:0:
332,144,55331,1,0,0:0:0:0:
352,152,55419,1,0,0:0:0:0:
372,160,55507,1,4,0:0:0:0:
404,280,55684,1,4,0:0:0:0:
384,272,55772,1,4,0:0:0:0:
364,264,55860,1,0,1:0:0:0:
236,320,56037,1,4,0:0:0:0:
256,328,56125,1,4,0:0:0:0:
276,336,56213,1,0,1:0:0:0:
296,344,56301,1,0,1:0:0:0:
316,352,56390,1,4,0:0:0:0:
408,376,56566,5,4,1:0:0:0:
208,344,79154,6,0,P|232:264|208:192,1,160,4|0,0:0|1:0,0:0:0:0:
464,56,80037,1,4,0:0:0:0:
464,56,80213,2,0,L|384:48,1,80,0|0,1:0|0:0,0:0:0:0:
304,184,80566,2,0,L|384:192,1,80,4|0,0:0|0:0,0:0:0:0:
240,272,80919,2,0,P|184:184|264:88,1,240,0|4,1:0|0:0,0:0:0:0:
352,104,81625,1,0,1:0:0:0:
464,216,81801,1,0,0:0:0:0:
352,104,81978,6,0,P|312:104|272:112,1,80,4|0,0:0|0:0,0:0:0:0:
240,272,82331,1,0,1:0:0:0:
88,232,82507,1,0,0:0:0:0:
88,232,82595,1,0,0:0:0:0:
88,232,82684,2,0,L|80:152,1,80,0|4,0:0|0:0,0:0:0:0:
208,56,83037,2,0,L|216:144,1,80,0|0,1:0|0:0,0:0:0:0:
152,288,83390,6,0,P|208:264|264:288,1,120,4|0,0:0|0:0,0:0:0:0:
260,284,83743,2,0,P|304:296|344:288,1,80,0|0,1:0|0:0,0:0:0:0:
304,136,84095,2,0,P|296:96|304:56,1,80,0|4,0:0|0:0,0:0:0:0:
288,216,84448,1,0,1:0:0:0:
448,192,84625,1,4,0:0:0:0:
288,216,84801,6,0,L|208:208,1,80,4|4,0:0|0:0,0:0:0:0:
224,112,85154,2,0,L|136:104,1,80,4|4,0:0|0:0,0:0:0:0:
304,136,85507,2,0,L|312:48,1,80,4|4,0:0|0:0,0:0:0:0:
400,184,85860,2,0,L|392:264,1,80,4|4,0:0|0:0,0:0:0:0:
328,336,86213,5,4,0:0:0:0:
232,312,86390,1,4,0:0:0:0:
176,160,86566,1,4,0:0:0:0:
272,184,86743,1,4,0:0:0:0:
176,160,86919,2,0,B|176:120|176:120|168:80,1,80,4|4,0:0|0:0,0:0:0:0:
336,224,87272,2,0,B|336:264|336:264|344:304,1,80,4|4,0:0|0:0,0:0:0:0:
400,152,87625,5,4,0:0:0:0:
376,136,87713,1,4,0:0:0:0:
352,128,87801,1,4,0:0:0:0:
328,128,87890,1,4,0:0:0:0:
304,136,87978,1,4,0:0:0:0:
280,152,88066,1,4,0:0:0:0:
256,168,88154,1,4,0:0:0:0:
232,176,88243,1,4,0:0:0:0:
208,176,88331,1,0,1:0:0:0:
184,168,88419,1,0,0:0:0:0:
160,152,88507,1,4,0:0:0:0:
144,136,88595,1,4,0:0:0:0:
128,112,88684,2,0,L|120:64,1,40,0|0,1:0|0:0,1:0:0:0:
40,56,88860,2,0,L|48:104,1,40
256,192,89037,12,0,90095,1:0:0:0:
420,76,90448,6,0,P|380:88|340:88,1,80,4|0,1:0|0:0,0:0:0:0:
268,204,90801,2,0,P|348:180|388:188,1,120,2|0,0:0|0:0,0:0:0:0:
424,208,91154,2,0,L|432:300,1,80,0|0,1:0|0:0,0:0:0:0:
268,204,91507,2,0,L|260:112,1,80,2|0,0:0|0:0,0:0:0:0:
120,52,91860,1,4,0:0:0:0:
60,184,92037,1,0,0:0:0:0:
204,176,92213,1,2,0:0:0:0:
120,52,92390,1,0,0:0:0:0:
60,184,92566,2,0,P|96:240|128:248,1,80,0|0,1:0|0:0,0:0:0:0:
264,336,92919,2,0,P|228:280|196:272,1,80,2|0,0:0|0:0,0:0:0:0:
204,176,93272,6,0,P|248:160|280:132,1,80,4|0,0:0|0:0,0:0:0:0:
434,93,93625,2,0,L|360:64,1,80,2|0,0:0|0:0,0:0:0:0:
356,232,93978,2,0,L|311:167,1,80,0|0,1:0|0:0,0:0:0:0:
204,296,94331,2,0,L|202:217,1,80,2|0,0:0|0:0,0:0:0:0:
384,136,94684,2,0,P|336:164|272:152,1,120,4|0,0:0|0:0,0:0:0:0:
240,124,95037,1,2,0:0:0:0:
188,44,95213,1,4,0:0:0:0:
168,204,95390,2,0,P|192:240|224:264,1,80,0|4,1:0|0:0,0:0:0:0:
316,272,95743,1,2,0:0:0:0:
284,160,95919,1,4,0:0:0:0:
168,204,96095,6,0,L|92:236,1,80,4|0,0:0|0:0,0:0:0:0:
152,108,96448,2,0,P|224:80|264:40,1,120,2|0,0:0|0:0,0:0:0:0:
284,16,96801,2,0,L|380:40,1,80,0|0,1:0|0:0,0:0:0:0:
476,116,97154,2,0,L|380:140,1,80,2|0,0:0|0:0,0:0:0:0:
288,224,97507,2,0,L|384:248,1,80,4|0,0:0|0:0,0:0:0:0:
460,336,97860,1,2,0:0:0:0:
408,256,98037,1,0,0:0:0:0:
264,304,98213,2,0,P|300:320|344:316,1,80,0|0,1:0|0:0,0:0:0:0:
288,224,98566,2,0,P|240:224|180:308,1,160,2|4,0:0|0:0,0:0:0:0:
244,380,99095,5,0,0:0:0:0:
128,200,99272,2,0,P|160:168|200:148,1,80,2|4,0:0|0:0,0:0:0:0:
284,136,99625,1,0,1:0:0:0:
352,68,99801,1,0,0:0:0:0:
368,228,99978,1,2,0:0:0:0:
349,248,100066,1,0,0:0:0:0:
324,264,100154,1,4,0:0:0:0:
296,265,100243,1,0,0:0:0:0:
270,258,100331,1,12,0:0:0:0:
284,136,100507,5,0,0:0:0:0:
303,115,100595,1,0,0:0:0:0:
328,100,100684,1,2,0:0:0:0:
356,98,100772,1,0,0:0:0:0:
382,106,100860,1,0,0:0:0:0:
264,196,101037,2,0,B|184:208|184:208|128:264|128:264|72:272,1,210.000008010865,0|0,1:0|0:0,0:0:0:0:
78,271,101743,6,0,L|72:192,1,80,4|0,0:0|0:0,0:0:0:0:
160,48,102095,2,0,L|168:128,1,80,2|0,0:0|0:0,0:0:0:0:
184,224,102448,2,0,P|256:196|332:224,1,160,0|2,1:0|0:0,0:0:0:0:
256,288,102978,1,0,0:0:0:0:
272,128,103154,6,0,L|352:120,1,80,4|0,0:0|0:0,0:0:0:0:
480,216,103507,2,0,L|392:224,1,80,2|0,0:0|0:0,0:0:0:0:
256,288,103860,2,0,P|196:232|132:264,1,160,0|2,1:0|0:0,0:0:0:0:
72,352,104390,1,0,0:0:0:0:
40,264,104566,6,0,P|40:224|32:184,1,80,4|0,0:0|0:0,0:0:0:0:
96,40,104919,2,0,P|96:80|104:120,1,80,2|0,0:0|0:0,0:0:0:0:
160,272,105272,2,0,P|160:224|152:192,1,80,0|0,1:0|0:0,0:0:0:0:
80,48,105625,2,0,P|80:88|88:128,1,80,2|0,0:0|0:0,0:0:0:0:
240,88,105978,6,0,L|160:80,1,80,4|0,0:0|0:0,0:0:0:0:
144,96,106243,1,0,0:0:0:0:
128,112,106331,2,0,P|120:176|136:232,1,120,2|0,0:0|0:0,0:0:0:0:
144,248,106684,2,0,L|226:260,1,80,0|4,1:0|0:0,0:0:0:0:
368,320,107037,1,2,0:0:0:0:
328,232,107213,1,4,0:0:0:0:
384,80,107390,6,0,P|376:120|384:160,1,80,4|0,0:0|0:0,0:0:0:0:
256,256,107743,2,0,P|264:208|256:176,1,80,2|0,0:0|0:0,0:0:0:0:
160,48,108095,1,0,1:0:0:0:
128,136,108272,1,0,0:0:0:0:
152,296,108448,1,2,0:0:0:0:
184,208,108625,1,0,0:0:0:0:
344,224,108801,6,0,B|336:160|336:160|344:96,1,120,4|0,0:0|0:0,0:0:0:0:
342,104,109154,2,0,L|264:96,1,80,2|0,0:0|0:0,0:0:0:0:
136,192,109507,2,0,L|224:200,1,80,0|0,1:0|0:0,0:0:0:0:
296,336,109860,2,0,P|280:272|296:216,1,120,2|0,0:0|0:0,0:0:0:0:
304,200,110213,6,0,P|312:160|304:120,1,80,4|0,0:0|0:0,0:0:0:0:
144,88,110566,2,0,L|224:80,1,80,2|0,0:0|0:0,0:0:0:0:
384,112,110919,2,0,L|304:120,1,80,0|4,1:0|0:0,0:0:0:0:
144,88,111272,2,0,L|224:80,1,80,2|4,0:0|0:0,0:0:0:0:
240,144,112331,6,0,P|184:160|120:144,1,120,0|0,1:0|0:0,0:0:0:0:
96,184,112684,2,0,B|88:248|88:248|104:304,1,120
136,336,113037,6,0,P|188:348|216:340,1,80,4|0,1:0|0:0,0:0:0:0:
348,248,113390,2,0,P|296:236|268:244,1,80,2|0,0:0|0:0,0:0:0:0:
444,272,113743,2,0,L|488:192,1,80,0|0,1:0|0:0,0:0:0:0:
384,152,114095,2,0,L|428:72,1,80,2|0,0:0|0:0,0:0:0:0:
252,152,114448,2,0,L|296:72,1,80,4|0,0:0|0:0,0:0:0:0:
152,136,114801,1,2,0:0:0:0:
68,92,114978,1,0,0:0:0:0:
89,264,115154,2,0,P|96:240|84:188,1,80,0|0,1:0|0:0,0:0:0:0:
48,344,115507,2,0,B|104:356|104:356|172:344,1,120,2|0,0:0|0:0,0:0:0:0:
188,304,115860,6,0,L|276:316,1,80,4|0,0:0|0:0,0:0:0:0:
394,245,116213,2,0,L|308:222,1,80,2|0,0:0|0:0,0:0:0:0:
220,96,116566,2,0,L|305:118,1,80,0|0,1:0|0:0,0:0:0:0:
432,62,116919,2,0,L|349:29,1,80,2|0,0:0|0:0,0:0:0:0:
388,144,117272,2,0,P|432:164|460:280,1,160,4|2,0:0|0:0,0:0:0:0:
372,240,117801,1,4,0:0:0:0:
304,172,117978,2,0,P|304:112|328:84,1,80,0|4,1:0|0:0,0:0:0:0:
392,48,118331,1,2,0:0:0:0:
208,80,118507,1,4,0:0:0:0:
268,256,118684,6,0,P|224:304|156:320,1,120,4|0,0:0|0:0,0:0:0:0:
124,312,119037,2,0,L|96:228,1,80,2|0,0:0|0:0,0:0:0:0:
68,144,119390,1,0,1:0:0:0:
160,112,119566,1,0,0:0:0:0:
192,204,119743,1,2,0:0:0:0:
98,236,119919,1,0,0:0:0:0:
68,144,120095,2,0,P|64:96|80:56,1,80,4|0,0:0|0:0,0:0:0:0:
148,4,120448,1,2,0:0:0:0:
212,76,120625,1,0,0:0:0:0:
392,108,120801,6,0,P|360:148|244:164,1,160,0|2,1:0|0:0,0:0:0:0:
328,32,121331,1,0,0:0:0:0:
392,108,121507,2,0,L|424:192,1,80,4|0,0:0|0:0,0:0:0:0:
356,340,121860,2,0,L|324:256,1,80,2|4,0:0|0:0,0:0:0:0:
400,88,122213,2,0,L|432:172,1,80,0|0,1:0|0:0,0:0:0:0:
336,360,122566,2,0,L|304:276,1,80,2|4,0:0|0:0,0:0:0:0:
300,264,122831,1,0,0:0:0:0:
292,244,122919,1,12,0:0:0:0:
160,148,123095,5,0,0:0:0:0:
168,168,123184,1,0,0:0:0:0:
176,192,123272,1,2,0:0:0:0:
184,216,123360,1,0,0:0:0:0:
192,240,123448,1,0,0:0:0:0:
112,336,123625,6,0,B|92:269|92:269|56:224|56:224|36:144,1,210.000008010865,0|0,1:0|0:0,0:0:0:0:
48,120,124331,6,0,P|56:80|48:40,1,80,4|0,0:0|0:0,0:0:0:0:
168,152,124684,2,0,P|160:192|168:232,1,80,2|0,0:0|0:0,0:0:0:0:
256,96,125037,2,0,L|336:88,1,80,0|0,1:0|0:0,0:0:0:0:
328,248,125390,2,0,L|248:256,1,80,2|0,0:0|0:0,0:0:0:0:
192,328,125743,1,4,0:0:0:0:
168,232,125919,1,0,0:0:0:0:
256,96,126095,1,2,0:0:0:0:
272,192,126272,1,4,0:0:0:0:
408,272,126448,2,0,B|400:216|400:216|408:152,1,120.000004577637,0|2,1:0|0:0,0:0:0:0:
256,40,127154,6,0,P|248:80|256:120,1,80,4|0,0:0|0:0,0:0:0:0:
176,176,127507,2,0,L|160:256,1,80,2|0,0:0|0:0,0:0:0:0:
296,344,127860,2,0,L|312:264,1,80,0|0,1:0|0:0,0:0:0:0:
104,136,128213,2,0,L|88:216,1,80,2|0,0:0|0:0,0:0:0:0:
228,296,128566,2,0,L|244:216,1,80,4|0,0:0|0:0,0:0:0:0:
240,56,128919,1,2,0:0:0:0:
176,200,129095,1,4,0:0:0:0:
336,184,129272,2,0,P|396:168|452:184,1,120.000004577637,0|2,1:0|0:0,0:0:0:0:
352,352,129978,6,0,P|344:312|352:272,1,80,4|0,0:0|0:0,0:0:0:0:
392,120,130331,2,0,L|312:112,1,80,2|0,0:0|0:0,0:0:0:0:
176,200,130684,2,0,L|256:208,1,80,0|0,1:0|0:0,0:0:0:0:
352,216,131037,1,2,0:0:0:0:
272,72,131213,1,0,0:0:0:0:
176,200,131390,2,0,P|144:128|176:56,1,160,4|2,0:0|0:0,0:0:0:0:
240,128,131919,1,4,0:0:0:0:
176,272,132095,2,0,P|232:288|296:272,1,120,0|0,1:0|0:0,0:0:0:0:
312,256,132448,2,0,P|328:192|312:136,1,120,2|0,0:0|0:0,0:0:0:0:
304,120,132801,5,4,0:0:0:0:
400,248,132978,1,0,0:0:0:0:
240,272,133154,2,0,L|160:264,1,80,2|4,0:0|0:0,0:0:0:0:
96,112,133507,2,0,L|176:120,1,80,0|0,1:0|0:0,0:0:0:0:
192,280,133860,2,0,L|112:272,1,80,2|4,0:0|0:0,0:0:0:0:
24,240,134213,1,12,0:0:0:0:
96,176,134390,1,4,0:0:0:0:
256,192,134566,1,4,0:0:0:0:
360,96,134743,1,4,0:0:0:0:
376,80,134831,1,4,0:0:0:0:
392,64,134919,1,0,1:0:0:0:
400,224,135095,1,4,0:0:0:0:
416,208,135184,1,4,0:0:0:0:
432,192,135272,1,0,1:0:0:0:
256,112,135625,5,4,1:0:0:0:
72,68,158213,6,0,L|136:92,1,60.0000022888184,4|0,0:0|0:0,0:0:0:0:
220,84,158566,2,0,P|168:120|148:180,1,120.000004577637,0|0,1:0|0:0,0:0:0:0:
156,260,159095,1,4,0:0:0:0:
280,320,159272,2,0,P|236:316|204:328,1,60.0000022888184,0|0,1:0|0:0,0:0:0:0:
364,368,159625,1,4,0:0:0:0:
384,280,159801,1,0,0:0:0:0:
364,192,159978,2,0,P|344:152|280:108,1,120.000004577637,0|0,1:0|0:0,0:0:0:0:
192,100,160507,1,4,0:0:0:0:
141,222,160684,2,0,L|128:164,1,60.0000022888184,0|0,1:0|0:0,0:0:0:0:
80,296,161037,6,0,L|96:364,1,68.0000012969971,4|0,0:0|0:0,0:0:0:0:
296,248,161390,2,0,P|256:240|216:248,1,68.0000012969971,0|0,1:0|0:0,0:0:0:0:
229,243,161654,1,0,0:0:0:0:
229,243,161743,1,0,0:0:0:0:
156,316,161919,1,4,0:0:0:0:
296,248,162095,2,0,L|336:180,1,68.0000012969971,0|0,1:0|0:0,0:0:0:0:
304,60,162448,2,0,L|260:136,1,75.9999979705811,4|0,0:0|0:0,0:0:0:0:
128,164,162801,2,0,L|208:28,1,151.999995941162,0|0,1:0|0:0,0:0:0:0:
92,40,163331,1,4,0:0:0:0:
40,140,163507,2,0,P|36:180|56:216,1,75.9999979705811,0|4,1:0|0:0,0:0:0:0:
184,324,163860,6,0,P|188:284|164:244,1,80,4|4,0:0|0:0,0:0:0:0:
252,220,164213,2,0,P|233:184|191:163,1,80,4|4,0:0|0:0,0:0:0:0:
256,96,164566,2,0,P|221:76|174:81,1,80,4|4,0:0|0:0,0:0:0:0:
128,148,164919,1,4,0:0:0:0:
52,104,165095,1,4,0:0:0:0:
128,148,165272,6,0,L|168:228,1,80,4|4,0:0|0:0,0:0:0:0:
116,360,165625,2,0,L|76:280,1,80,4|4,0:0|0:0,0:0:0:0:
136,132,165978,2,0,L|176:212,1,80,4|4,0:0|0:0,0:0:0:0:
112,376,166331,2,0,L|72:296,1,80,4|4,0:0|0:0,0:0:0:0:
232,312,166684,5,0,1:0:0:0:
346,347,166860,1,0,0:0:0:0:
381,232,167037,1,0,1:0:0:0:
267,197,167213,1,0,0:0:0:0:
281,352,167390,5,0,1:0:0:0:
387,296,167566,1,0,0:0:0:0:
331,191,167743,1,0,1:0:0:0:
225,247,167919,1,0,0:0:0:0:
256,192,168095,12,0,169154,1:0:0:0:
168,304,169507,6,0,L|176:224,1,80,4|0,1:0|0:0,0:0:0:0:
88,192,169860,2,0,L|96:112,1,80,0|0,1:0|0:0,0:0:0:0:
160,40,170213,1,2,0:0:0:0:
256,56,170390,1,4,0:0:0:0:
336,192,170566,1,0,1:0:0:0:
240,176,170743,1,0,0:0:0:0:
336,192,170919,6,0,P|336:240|344:272,1,80,0|4,0:0|0:0,0:0:0:0:
192,192,171272,2,0,P|192:144|184:112,1,80,0|0,1:0|0:0,0:0:0:0:
336,192,171625,2,0,P|336:240|344:272,1,80,2|4,0:0|0:0,0:0:0:0:
336,112,171978,1,0,1:0:0:0:
256,56,172154,1,0,0:0:0:0:
160,72,172331,6,0,B|120:64|120:64|80:72,1,80,4|0,0:0|0:0,0:0:0:0:
192,192,172684,2,0,B|168:224|168:224|160:264,1,80,0|0,1:0|0:0,0:0:0:0:
352,72,173037,2,0,B|392:64|392:64|432:72,1,80,2|4,0:0|0:0,0:0:0:0:
320,192,173390,2,0,B|344:224|344:224|352:264,1,80,0|0,1:0|0:0,0:0:0:0:
192,296,173743,6,0,L|272:272,1,80,8|0,0:0|0:0,0:0:0:0:
312,104,174095,2,0,L|360:88,2,40,8|0|0,0:0|0:0|0:0,0:0:0:0:
192,280,174448,2,0,L|272:256,1,80,8|0,0:0|0:0,0:0:0:0:
360,232,174801,2,0,L|376:272,2,40,8|0|0,0:0|0:0|0:0,0:0:0:0:
312,80,175154,6,0,P|272:72|232:80,1,80,4|0,0:0|0:0,0:0:0:0:
152,216,175507,2,0,P|232:232|272:168,1,160,0|2,1:0|0:0,0:0:0:0:
216,96,176037,1,4,0:0:0:0:
216,96,176213,2,0,L|136:104,1,80,0|0,1:0|0:0,0:0:0:0:
176,256,176566,5,0,0:0:0:0:
336,280,176743,1,4,0:0:0:0:
344,184,176919,2,0,L|352:104,1,80,0|0,1:0|0:0,0:0:0:0:
488,192,177272,2,0,L|480:272,1,80,2|4,0:0|0:0,0:0:0:0:
368,160,177625,2,0,L|376:80,1,80,0|0,1:0|0:0,0:0:0:0:
280,56,177978,5,4,0:0:0:0:
256,216,178154,1,0,0:0:0:0:
200,296,178331,2,0,P|160:248|160:192,1,120,0|0,1:0|0:0,0:0:0:0:
144,176,178684,2,0,L|65:168,1,80,2|4,0:0|0:0,0:0:0:0:
192,64,179037,2,0,B|256:56|256:56|312:64,1,120,0|0,1:0|0:0,0:0:0:0:
328,80,179390,5,4,0:0:0:0:
424,96,179566,1,4,0:0:0:0:
408,256,179743,1,0,1:0:0:0:
400,232,179831,1,0,1:0:0:0:
392,208,179919,1,4,0:0:0:0:
232,192,180095,2,0,P|208:136|224:80,1,120,0|0,1:0|0:0,0:0:0:0:
240,64,180448,1,0,1:0:0:0:
152,200,180625,1,4,0:0:0:0:
72,336,180801,6,0,P|60:292|68:240,1,80,4|0,1:0|0:0,0:0:0:0:
142,122,181154,2,0,P|154:166|152:200,1,80,0|0,1:0|0:0,0:0:0:0:
220,352,181507,1,2,0:0:0:0:
144,296,181684,1,4,0:0:0:0:
284,280,181860,2,0,B|276:236|276:236|284:196,1,80,0|0,1:0|0:0,0:0:0:0:
376,84,182213,6,0,P|328:104|296:104,1,80,0|4,0:0|0:0,0:0:0:0:
340,304,182566,2,0,P|346:252|358:228,1,80,0|0,1:0|0:0,0:0:0:0:
160,164,182919,2,0,P|201:195|215:219,1,80,2|4,0:0|0:0,0:0:0:0:
388,140,183272,1,0,1:0:0:0:
440,60,183448,1,0,0:0:0:0:
300,156,183625,6,0,L|224:192,1,80,4|0,0:0|0:0,0:0:0:0:
112,328,183978,2,0,L|188:292,1,80,0|0,1:0|0:0,0:0:0:0:
300,124,184331,2,0,L|224:160,1,80,2|4,0:0|0:0,0:0:0:0:
112,296,184684,2,0,L|188:260,1,80,0|0,1:0|0:0,0:0:0:0:
56,208,185037,5,2,0:0:0:0:
48,128,185390,1,2,0:0:0:0:
96,64,185743,1,2,0:0:0:0:
172,40,186095,1,0,0:0:0:0:
252,52,186448,6,0,B|280:80|280:80|324:96,1,80,4|0,0:0|0:0,0:0:0:0:
116,196,186801,2,0,B|144:168|144:168|157:130,1,80,0|0,1:0|0:0,0:0:0:0:
260,332,187154,2,0,B|232:304|232:304|188:288,1,80,2|4,0:0|0:0,0:0:0:0:
396,188,187507,2,0,B|368:216|368:216|354:253,1,80,0|0,1:0|0:0,0:0:0:0:
304,120,187860,5,0,0:0:0:0:
184,144,188037,1,4,0:0:0:0:
208,264,188213,1,0,1:0:0:0:
328,240,188390,1,0,0:0:0:0:
208,264,188566,2,0,L|148:316,1,80,2|4,0:0|0:0,0:0:0:0:
328,240,188919,2,0,L|388:188,1,80,0|0,1:0|0:0,0:0:0:0:
364,44,189272,6,0,P|340:104|256:144,1,160,4|0,0:0|1:0,0:0:0:0:
164,128,189801,1,0,0:0:0:0:
188,36,189978,2,0,L|272:52,1,80,2|4,0:0|0:0,0:0:0:0:
428,108,190331,2,0,L|344:124,1,80,0|0,1:0|0:0,0:0:0:0:
272,180,190684,5,4,0:0:0:0:
292,272,190860,1,4,0:0:0:0:
176,208,191037,1,0,1:0:0:0:
180,180,191125,1,0,1:0:0:0:
184,152,191213,1,4,0:0:0:0:
76,260,191390,2,0,P|76:304|96:344,1,80,0|4,1:0|0:0,0:0:0:0:
88,176,191743,2,0,P|88:132|68:92,1,80,0|4,1:0|0:0,0:0:0:0:
28,16,192095,1,4,0:0:0:0:
256,192,192184,12,2,193154,0:0:0:0:
256,56,193507,6,0,L|248:144,1,80,4|0,1:0|0:0,0:0:0:0:
304,288,193860,1,2,0:0:0:0:
320,192,194037,1,0,0:0:0:0:
160,176,194213,2,0,P|120:128|144:40,1,160,0|2,1:0|0:0,0:0:0:0:
220,100,194743,1,0,0:0:0:0:
184,256,194919,6,0,L|104:264,1,80,4|0,0:0|0:0,0:0:0:0:
40,112,195272,2,0,L|120:104,1,80,2|0,0:0|0:0,0:0:0:0:
256,184,195625,2,0,B|248:224|248:224|256:264,1,80,0|0,1:0|0:0,0:0:0:0:
336,320,195978,2,0,P|392:304|456:320,1,120,2|0,0:0|0:0,0:0:0:0:
451,317,196331,6,0,L|480:240,1,80,4|0,0:0|0:0,0:0:0:0:
424,96,196684,2,0,L|392:176,1,80,2|0,0:0|0:0,0:0:0:0:
248,96,197037,2,0,L|280:176,1,80,0|0,1:0|0:0,0:0:0:0:
440,96,197390,2,0,L|408:176,1,80,2|0,0:0|0:0,0:0:0:0:
352,256,197743,5,4,0:0:0:0:
192,264,197919,1,0,0:0:0:0:
184,104,198095,1,2,0:0:0:0:
344,96,198272,1,4,0:0:0:0:
344,96,198448,2,4,P|336:136|344:176,1,80,0|4,1:0|0:0,0:0:0:0:
272,320,198801,2,0,P|280:280|272:240,1,80,2|4,0:0|0:0,0:0:0:0:
184,104,199154,6,0,L|264:96,1,80,4|0,0:0|0:0,0:0:0:0:
112,48,199507,2,0,P|88:104|104:160,1,120,2|0,0:0|0:0,0:0:0:0:
136,192,199860,2,0,P|176:200|216:192,1,80,0|0,1:0|0:0,0:0:0:0:
256,352,200213,2,0,P|264:304|256:272,1,80,2|0,0:0|0:0,0:0:0:0:
400,208,200566,6,0,P|360:200|320:208,1,80,4|0,0:0|0:0,0:0:0:0:
264,56,200919,2,0,P|256:96|264:136,1,80,2|0,0:0|0:0,0:0:0:0:
336,280,201272,2,0,P|304:208|336:136,1,160,0|2,1:0|0:0,0:0:0:0:
400,208,201801,1,0,0:0:0:0:
248,272,201978,6,0,B|208:264|208:264|168:272,1,80,4|0,0:0|0:0,0:0:0:0:
248,128,202331,2,0,B|288:136|288:136|328:128,1,80,2|4,0:0|0:0,0:0:0:0:
416,88,202684,1,0,1:0:0:0:
472,240,202860,1,0,0:0:0:0:
320,288,203037,2,0,L|400:264,1,80,2|4,0:0|0:0,0:0:0:0:
360,112,203390,6,0,L|280:136,1,80,8|0,0:0|0:0,0:0:0:0:
136,200,203743,1,2,0:0:0:0:
136,200,203831,1,0,0:0:0:0:
136,200,203919,1,0,0:0:0:0:
216,336,204095,2,0,B|224:304|224:304|224:288|224:288|232:256,1,80,0|0,1:0|0:0,0:0:0:0:
296,48,204448,2,0,B|288:80|288:80|288:96|288:96|280:128,1,80
136,200,204801,6,0,P|92:216|56:212,1,80,4|0,0:0|0:0,0:0:0:0:
180,108,205154,2,0,P|224:92|260:96,1,80,2|0,0:0|0:0,0:0:0:0:
365,230,205507,2,0,L|328:160,1,80,0|0,1:0|0:0,0:0:0:0:
292,288,205860,2,0,L|329:358,1,80,2|0,0:0|0:0,0:0:0:0:
204,240,206213,1,4,0:0:0:0:
116,284,206390,1,0,0:0:0:0:
116,100,206566,1,2,0:0:0:0:
204,144,206743,1,0,0:0:0:0:
288,196,206919,2,0,P|336:180|368:120,1,120.000004577637,0|2,1:0|0:0,0:0:0:0:
204,144,207625,6,0,L|196:60,1,80,4|0,0:0|0:0,0:0:0:0:
120,184,207978,2,0,L|100:101,1,80,2|0,0:0|0:0,0:0:0:0:
308,144,208331,2,0,L|316:60,1,80,0|0,1:0|0:0,0:0:0:0:
392,184,208684,2,0,L|411:101,1,80,2|0,0:0|0:0,0:0:0:0:
340,256,209037,1,4,0:0:0:0:
384,340,209213,1,0,0:0:0:0:
228,264,209390,1,2,0:0:0:0:
184,180,209566,1,4,0:0:0:0:
152,328,209743,2,0,P|128:356|40:352,1,120.000004577637,0|2,1:0|0:0,0:0:0:0:
84,272,210272,1,4,0:0:0:0:
124,184,210448,6,0,B|116:144|116:144|96:104,1,80,4|0,0:0|0:0,0:0:0:0:
152,28,210801,2,0,L|192:108,1,80,2|0,0:0|0:0,0:0:0:0:
420,88,211154,2,0,L|340:128,1,80,0|0,1:0|0:0,0:0:0:0:
360,356,211507,2,0,L|320:276,1,80,2|0,0:0|0:0,0:0:0:0:
92,296,211860,2,0,L|172:256,1,80,4|0,0:0|0:0,0:0:0:0:
208,176,212213,1,2,0:0:0:0:
196,80,212390,1,0,0:0:0:0:
304,204,212566,2,0,P|344:216|424:184,1,120,0|0,1:0|0:0,0:0:0:0:
415,191,212919,2,0,L|416:112,1,80,2|0,0:0|0:0,0:0:0:0:
304,204,213272,6,0,L|303:283,1,80,4|0,0:0|0:0,0:0:0:0:
183,347,213625,1,2,0:0:0:0:
121,224,213801,1,4,0:0:0:0:
241,163,213978,1,0,1:0:0:0:
304,284,214154,1,0,0:0:0:0:
183,347,214331,2,0,P|134:355|103:347,1,80,2|4,0:0|0:0,0:0:0:0:
38,275,214684,5,8,0:0:0:0:
62,259,214772,1,0,0:0:0:0:
80,237,214860,1,0,0:0:0:0:
95,213,214948,1,0,0:0:0:0:
102,185,215037,1,2,0:0:0:0:
106,156,215125,1,0,0:0:0:0:
104,130,215213,1,0,0:0:0:0:
97,105,215301,1,0,0:0:0:0:
87,79,215390,1,0,1:0:0:0:
408,288,216095,6,0,B|408:232|408:232|424:184|424:184|424:128,1,160,4|2,0:0|0:0,0:0:0:0:
248,56,216801,2,0,P|328:32|400:56,1,160,0|2,1:0|0:0,0:0:0:0:
320,232,217507,2,0,P|240:256|168:232,1,160,4|2,0:0|0:0,0:0:0:0:
248,56,218213,2,0,B|240:96|240:96|248:128|248:128|240:176,1,120.000004577637,0|2,1:0|0:0,0:0:0:0:
160,352,218919,6,0,B|128:280|176:280|152:192,1,160,4|2,0:0|0:0,0:0:0:0:
352,352,219625,2,0,B|384:280|336:280|360:192,1,160,0|2,1:0|0:0,0:0:0:0:
184,104,220331,2,0,P|256:72|328:104,1,160,4|2,0:0|0:0,0:0:0:0:
256,168,220860,1,4,0:0:0:0:
416,192,221037,2,0,B|424:128|424:128|416:72,1,120.000004577637,0|2,1:0|0:0,0:0:0:0:
328,32,221566,1,4,0:0:0:0:
256,96,221743,6,0,L|88:88,1,160,4|2,0:0|0:0,0:0:0:0:
80,328,222448,2,0,L|88:168,1,160,0|2,1:0|0:0,0:0:0:0:
408,192,223154,2,0,B|368:168|368:168|400:112|368:56,1,160,4|2,0:0|0:0,0:0:0:0:
104,192,223860,2,0,B|144:168|144:168|112:112|144:56,1,160,0|2,1:0|0:0,0:0:0:0:
332,320,224566,2,0,P|256:296|180:320,1,160,4|2,0:0|0:0,0:0:0:0:
88,288,225095,1,4,0:0:0:0:
104,192,225272,2,0,L|264:184,1,160,0|2,1:0|0:0,0:0:0:0:
360,176,225801,1,4,0:0:0:0:
256,192,225978,12,4,227390,0:0:0:0:
