osu file format v12

[General]
AudioFilename: MitiS - Open Window (feat. Anna Yvette).mp3
AudioLeadIn: 0
PreviewTime: 89390
Countdown: 0
SampleSet: Soft
StackLeniency: 0.7
Mode: 0
LetterboxInBreaks: 0
EpilepsyWarning: 1

[Editor]
Bookmarks: 11390,22684,33978,45272,56566,79154,90448,101743,113037,124331,135625,158213,169507,180801,192095,204801,216095,227390
DistanceSpacing: 0.5
BeatDivisor: 4
GridSize: 4

[Metadata]
Title:Open Window (feat. Anna Yvette)
TitleUnicode:Open Window (feat. Anna Yvette)
Artist:MitiS
ArtistUnicode:MitiS
Creator:[Luanny]
Version:BD's Hard
Source:
Tags:cubex drumstep kyshiro blue dragon inverness collab collaboration dubstep
BeatmapID:268034
BeatmapSetID:100628

[Difficulty]
HPDrainRate:5
CircleSize:4
OverallDifficulty:6
ApproachRate:8
SliderMultiplier:1.3
SliderTickRate:1

[Events]
//Background and Video events
0,0,"okay.jpg",0,0
//Break Periods
2,57978,77714
2,137037,156773
//Storyboard Layer 0 (Background)
//Storyboard Layer 1 (Fail)
//Storyboard Layer 2 (Pass)
//Storyboard Layer 3 (Foreground)
//Storyboard Sound Samples
//Background Colour Transformations
3,100,163,162,255

[TimingPoints]
96,352.941176470588,4,2,1,60,1,0
22684,-100,4,2,1,70,0,0
33978,-100,4,2,1,80,0,0
90448,-100,4,2,1,80,0,0
113037,-100,4,2,1,80,0,1
123625,-100,4,2,1,80,0,0
124331,-100,4,2,1,80,0,1
126448,-200,4,2,1,80,0,0
127154,-100,4,2,1,80,0,1
129272,-200,4,2,1,80,0,0
129978,-100,4,2,1,80,0,1
135625,-100,4,2,1,80,0,0
158213,-100,4,2,1,60,0,0
162448,-100,4,2,1,70,0,0
163860,-100,4,2,1,80,0,0
169507,-100,4,2,1,80,0,1
173743,-100,4,2,1,80,0,0
175154,-100,4,2,1,80,0,1
180095,-100,4,2,1,80,0,0
180801,-100,4,2,1,80,0,1
185037,-100,4,2,1,80,0,0
186448,-100,4,2,1,80,0,1
192095,-100,4,2,1,80,0,0
193507,-100,4,2,1,80,0,1
204095,-200,4,2,1,80,0,0
204801,-100,4,2,1,80,0,1
206919,-100,4,2,1,80,0,0
207625,-100,4,2,1,80,0,1
209743,-100,4,2,1,80,0,0
210448,-100,4,2,1,80,0,1
216095,-100,4,2,1,80,0,0

[Colours]
Combo1 : 170,170,255
Combo2 : 23,139,255

[HitObjects]
177,105,11390,2,4,P|256:55|335:105,1,195,2|0,1:2|0:0,0:0:0:0:
344,184,12095,2,0,P|356:248|408:282,1,130,0|2,0:0|0:0,0:0:0:0:
420,204,12625,1,0,0:0:0:0:
408,128,12801,2,0,L|424:64,2,65,0|0|0,0:0|0:0|0:0,0:0:0:0:
172,48,13507,1,0,0:0:0:0:
108,92,13860,1,0,0:0:0:0:
44,136,14213,6,0,P|24:240|44:264,1,130,2|0,0:0|0:0,0:0:0:0:
98,208,14743,1,0,0:0:0:0:
98,208,14831,1,0,0:0:0:0:
98,208,14919,2,0,B|158:180|158:180|238:180,1,130,0|2,0:0|0:0,0:0:0:0:
256,240,15448,1,0,0:0:0:0:
304,300,15625,2,0,L|368:276,1,65,0|0,0:0|0:0,0:0:0:0:
32,72,16684,5,0,0:0:0:0:
108,48,16860,1,0,0:0:0:0:
184,28,17037,2,0,P|256:28|356:100,1,195,2|0,0:0|0:0,0:0:0:0:
376,172,17743,2,0,P|380:224|352:300,1,130,2|2,0:0|0:0,0:0:0:0:
136,212,18448,2,0,P|132:160|160:84,1,130,0|0,0:0|0:0,0:0:0:0:
224,44,18978,1,0,0:0:0:0:
292,84,19154,1,2,0:0:0:0:
196,380,19860,6,0,L|124:360,1,65,0|0,0:0|0:0,0:0:0:0:
64,296,20213,2,0,L|136:276,1,65,0|0,0:0|0:0,0:0:0:0:
144,268,20478,1,0,0:0:0:0:
160,256,20566,1,0,0:0:0:0:
156,100,20919,5,0,0:0:0:0:
112,36,21095,1,0,0:0:0:0:
32,40,21272,2,0,P|3:81|1:101,2,65,8|0|0,0:0|0:0|0:0,0:0:0:0:
112,36,21801,1,8,0:0:0:0:
84,108,21978,2,0,L|132:232,1,130,0|8,0:0|0:0,0:0:0:0:
324,344,22684,6,4,P|332:284|448:228,1,195,4|4,1:0|0:0,0:0:0:0:
497,282,23390,2,0,P|500:320|488:344,1,65,8|4,0:0|0:0,0:0:0:0:
442,227,23743,2,0,P|439:189|451:165,2,65,2|0|0,0:0|0:0|0:0,0:0:0:0:
404,296,24272,1,4,0:0:0:0:
332,328,24448,1,6,0:0:0:0:
256,320,24625,1,0,0:0:0:0:
192,276,24801,2,0,P|168:228|184:148,1,130,8|4,0:0|0:0,0:0:0:0:
312,72,25507,6,0,L|112:52,1,195,4|4,0:0|0:0,0:0:0:0:
48,16,26213,1,8,0:0:0:0:
12,84,26390,1,4,0:0:0:0:
72,132,26566,2,0,P|104:152|136:148,1,65,2|0,0:0|0:0,0:0:0:0:
185,205,26919,2,0,P|217:185|249:189,1,65,0|4,0:0|0:0,0:0:0:0:
298,242,27272,2,0,P|330:262|362:258,1,65,2|4,0:0|0:0,0:0:0:0:
411,315,27625,2,0,P|443:295|475:299,2,65,8|0|6,0:0|0:0|0:0,0:0:0:0:
356,372,28154,1,0,0:0:0:0:
284,340,28331,6,0,P|232:288|104:292,1,195,4|4,0:0|0:0,0:0:0:0:
64,344,29037,2,0,P|88:268|72:212,1,130,8|2,0:0|0:0,0:0:0:0:
28,160,29566,1,0,0:0:0:0:
4,84,29743,2,0,L|44:24,1,65,0|4,0:0|0:0,0:0:0:0:
88,92,30095,2,0,L|148:52,1,65,6|0,0:0|0:0,0:0:0:0:
164,132,30448,2,0,L|234:119,2,65,8|0|6,0:0|0:0|0:0,0:0:0:0:
152,208,30978,1,0,0:0:0:0:
156,284,31154,5,4,0:0:0:0:
212,336,31331,1,0,0:0:0:0:
288,348,31507,2,0,P|320:344|352:328,1,65,2|4,0:0|0:0,0:0:0:0:
404,274,31860,2,0,P|400:242|384:210,1,65,8|4,0:0|0:0,0:0:0:0:
330,157,32213,2,0,P|298:161|266:177,1,65,2|0,0:0|0:0,0:0:0:0:
213,230,32566,1,4,0:0:0:0:
256,192,32654,12,4,33978,1:0:0:0:
80,60,34507,5,0,0:0:0:0:
80,60,34684,2,0,P|64:104|104:172,1,130,0|2,1:0|0:0,0:0:0:0:
180,152,35213,1,0,0:0:0:0:
196,228,35390,2,0,L|260:256,1,65,4|0,0:0|0:0,0:0:0:0:
136,284,35743,1,2,0:0:0:0:
136,284,36095,2,0,P|60:252|32:136,1,195,0|0,1:0|0:0,0:0:0:0:
64,80,36801,5,4,0:0:0:0:
132,116,36978,1,0,0:0:0:0:
172,48,37154,1,2,0:0:0:0:
256,180,37507,2,0,L|256:316,1,130,0|2,1:0|0:0,0:0:0:0:
312,368,38037,1,0,0:0:0:0:
380,332,38213,2,0,P|400:304|408:268,1,65,4|0,0:0|0:0,0:0:0:0:
404,256,38478,1,0,0:0:0:0:
396,236,38566,1,2,0:0:0:0:
308,32,38919,5,0,1:0:0:0:
384,52,39095,1,4,0:0:0:0:
460,72,39272,2,0,P|468:100|460:136,1,65,0|4,0:0|0:0,0:0:0:0:
424,204,39625,2,0,P|376:208|312:156,1,130,4|2,0:0|0:0,0:0:0:0:
391,126,40154,1,0,0:0:0:0:
424,204,40331,2,0,L|436:272,1,65,0|0,1:0|0:0,0:0:0:0:
364,344,40684,2,0,L|352:276,1,65,2|0,0:0|0:0,0:0:0:0:
284,320,41037,2,0,B|217:299|217:340|156:320,1,130,4|2,0:0|0:0,0:0:0:0:
56,200,41743,2,0,B|122:220|122:179|183:200,1,130,0|2,1:0|0:0,0:0:0:0:
256,172,42272,1,0,0:0:0:0:
312,116,42448,6,0,L|376:116,2,65,4|0|2,0:0|0:0|0:0,0:0:0:0:
256,60,42978,1,0,0:0:0:0:
256,60,43066,1,0,0:0:0:0:
256,60,43154,2,0,L|192:60,2,65,0|4|0,1:0|0:0|0:0,0:0:0:0:
312,116,43684,1,4,0:0:0:0:
328,192,43860,2,0,P|312:236|232:264,1,130,4|4,0:0|0:0,0:0:0:0:
167,133,44566,2,0,P|183:89|263:61,1,130,0|0,1:0|1:0,0:0:0:0:
416,20,45272,6,4,L|472:209,1,195,4|4,1:0|0:0,0:0:0:0:
416,262,45978,2,0,P|356:242|292:258,1,130,0|2,1:0|0:0,0:0:0:0:
230,304,46507,1,4,0:0:0:0:
174,359,46684,2,0,P|114:379|50:363,1,130,4|2,0:0|0:0,0:0:0:0:
132,192,47390,2,0,P|192:172|256:188,1,130,0|2,1:0|0:0,0:0:0:0:
420,72,48095,6,0,P|424:44|448:8,2,65,4|0|2,0:0|0:0|0:0,0:0:0:0:
428,152,48625,1,4,0:0:0:0:
392,220,48801,2,0,P|340:208|268:240,1,130,0|2,1:0|0:0,0:0:0:0:
268,316,49331,1,4,0:0:0:0:
328,368,49507,1,4,0:0:0:0:
404,352,49684,2,0,L|444:360,2,32.5,0|0|2,0:0|0:0|0:0,0:0:0:0:
428,152,50213,2,0,B|381:137|381:137|368:108|368:108|320:92,1,130,0|2,1:0|0:0,0:0:0:0:
244,72,50743,1,4,0:0:0:0:
168,48,50919,6,0,P|92:48|32:144,1,195,4|4,0:0|0:0,0:0:0:0:
40,160,51537,1,0,0:0:0:0:
48,180,51625,1,0,1:0:0:0:
160,288,51978,2,0,P|192:280|224:288,1,65,2|4,0:0|0:0,0:0:0:0:
192,360,52331,2,0,P|160:368|128:360,2,65,4|0|2,0:0|0:0|0:0,0:0:0:0:
270,360,52860,1,0,0:0:0:0:
304,288,53037,2,0,P|293:242|225:204,2,130,0|2|4,1:0|0:0|0:0,0:0:0:0:
396,160,54095,6,0,L|468:168,1,65,2|4,0:0|0:0,0:0:0:0:
426,240,54448,2,0,P|361:239|318:195,1,130,0|0,1:0|0:0,0:0:0:0:
324,116,54978,1,4,0:0:0:0:
380,64,55154,2,0,L|336:8,2,65,4|0|4,0:0|0:0|0:0,0:0:0:0:
456,52,55684,1,4,0:0:0:0:
456,52,55772,1,4,0:0:0:0:
456,52,55860,2,0,P|488:88|480:168,1,130,0|0,1:0|1:0,0:0:0:0:
320,304,56566,5,4,1:0:0:0:
396,64,79154,6,0,L|460:36,2,65,4|0|0,0:0|0:0|1:0,0:0:0:0:
236,236,80037,1,4,0:0:0:0:
236,236,80214,2,0,P|246:286|310:324,1,130,0|4,1:0|0:0,0:0:0:0:
314,245,80743,1,0,0:0:0:0:
314,245,80919,2,0,L|314:177,1,65,0|0,1:0|0:0,0:0:0:0:
192,48,81448,1,4,0:0:0:0:
192,48,81624,2,0,L|192:116,1,65,0|0,1:0|0:0,0:0:0:0:
224,184,81978,6,0,P|165:162|104:184,1,130,4|0,0:0|1:0,0:0:0:0:
72,256,82507,1,0,0:0:0:0:
56,332,82684,2,0,P|69:360|98:380,2,65,0|4|0,0:0|0:0|1:0,0:0:0:0:
72,256,83213,1,0,0:0:0:0:
144,284,83390,2,0,B|206:309|206:258|269:284,1,130,4|0,0:0|1:0,0:0:0:0:
320,344,83919,1,0,0:0:0:0:
396,328,84095,2,0,L|456:288,1,65,0|4,0:0|0:0,0:0:0:0:
452,196,84448,2,0,L|392:236,1,65,0|4,1:0|0:0,0:0:0:0:
320,228,84801,6,0,P|280:180|276:112,1,130,4|4,0:0|0:0,0:0:0:0:
330,59,85331,1,4,0:0:0:0:
385,3,85507,2,0,P|425:51|429:119,1,130,4|4,0:0|0:0,0:0:0:0:
374,171,86037,1,4,0:0:0:0:
320,228,86213,2,0,L|256:240,1,65,4|4,0:0|0:0,0:0:0:0:
256,318,86566,2,0,L|192:330,1,65,4|4,0:0|0:0,0:0:0:0:
136,274,86919,2,0,L|72:286,1,65,4|4,0:0|0:0,0:0:0:0:
72,364,87272,2,0,L|8:376,1,65,4|4,0:0|0:0,0:0:0:0:
36,220,87625,6,0,L|4:208,2,32.5,4|4|4,0:0|0:0|0:0,0:0:0:0:
144,172,87978,2,0,L|176:160,2,32.5,4|4|4,0:0|0:0|0:0,0:0:0:0:
64,84,88331,2,0,L|32:72,2,32.5,0|4|4,1:0|0:0|0:0,0:0:0:0:
172,36,88684,2,0,L|204:24,2,32.5,0|0|0,1:0|0:0|0:0,0:0:0:0:
256,192,89037,12,0,90095,1:0:0:0:
328,40,90448,6,4,P|384:40|444:88,1,130,4|2,1:0|0:0,0:0:0:0:
460,160,90978,1,0,0:0:0:0:
388,192,91154,2,0,L|376:256,1,65,0|0,1:0|0:0,0:0:0:0:
444,324,91507,2,0,L|456:260,1,65,2|0,0:0|0:0,0:0:0:0:
388,192,91860,2,0,P|344:172|324:88,1,130,4|2,0:0|0:0,0:0:0:0:
360,32,92390,1,0,0:0:0:0:
436,36,92566,2,0,L|500:36,1,65,0|0,1:0|0:0,0:0:0:0:
465,112,92919,2,0,L|400:112,1,65,2|0,0:0|0:0,0:0:0:0:
388,192,93272,6,0,P|392:224|416:256,2,65,4|0|2,0:0|0:0|0:0,0:0:0:0:
468,196,93801,1,0,0:0:0:0:
508,264,93978,2,0,P|488:312|415:351,1,130,0|2,1:0|0:0,0:0:0:0:
344,336,94507,1,0,0:0:0:0:
280,292,94684,2,0,P|264:256|264:224,1,65,4|0,0:0|0:0,0:0:0:0:
318,175,95037,2,0,P|317:149|301:113,1,65,2|4,0:0|0:0,0:0:0:0:
248,56,95390,1,0,1:0:0:0:
176,32,95566,1,4,0:0:0:0:
192,108,95743,1,2,0:0:0:0:
352,32,96095,6,0,L|492:16,1,130,4|2,0:0|0:0,0:0:0:0:
504,92,96625,1,0,0:0:0:0:
468,160,96801,2,0,P|456:192|464:224,1,65,0|0,1:0|0:0,0:0:0:0:
509,282,97154,2,0,P|516:312|504:344,1,65,2|0,0:0|0:0,0:0:0:0:
436,380,97507,2,0,L|316:328,1,130,4|2,0:0|0:0,0:0:0:0:
276,176,98213,2,0,L|396:228,1,130,0|2,1:0|0:0,0:0:0:0:
176,356,98919,6,0,P|144:336|132:312,1,65,4|0,0:0|0:0,0:0:0:0:
20,320,99272,2,0,P|40:288|64:276,1,65,2|4,0:0|0:0,0:0:0:0:
56,164,99625,2,0,P|88:184|100:208,1,65,0|0,1:0|0:0,0:0:0:0:
212,200,99978,2,0,P|192:232|168:244,1,65,2|4,0:0|0:0,0:0:0:0:
100,208,100331,6,0,L|128:76,1,130,12|2,0:0|0:0,0:0:0:0:
84,16,100860,1,0,0:0:0:0:
28,72,101037,2,0,B|90:98|90:98|147:82|147:82|210:109,1,195,0|0,1:0|0:0,0:0:0:0:
284,140,101743,6,0,P|328:140|381:73,1,130,4|2,0:0|0:0,0:0:0:0:
304,64,102272,1,0,0:0:0:0:
284,140,102448,2,0,L|296:208,1,65,0|0,1:0|0:0,0:0:0:0:
217,204,102801,2,0,L|229:272,1,65,2|0,0:0|0:0,0:0:0:0:
150,268,103154,2,0,L|162:336,2,65,4|0|2,0:0|0:0|0:0,0:0:0:0:
136,192,103684,1,0,0:0:0:0:
124,116,103860,2,0,P|116:76|38:35,1,130,0|2,1:0|0:0,0:0:0:0:
44,116,104390,1,0,0:0:0:0:
60,192,104566,6,0,P|44:216|12:240,2,65,4|0|2,0:0|0:0|0:0,0:0:0:0:
136,192,105095,1,0,0:0:0:0:
136,192,105272,2,0,L|260:136,1,130,0|2,1:0|0:0,0:0:0:0:
292,72,105801,1,0,0:0:0:0:
232,24,105978,2,0,P|200:12|168:16,1,65,4|0,0:0|0:0,0:0:0:0:
128,80,106331,2,0,P|160:92|192:88,1,65,2|0,0:0|0:0,0:0:0:0:
255,139,106684,1,0,1:0:0:0:
336,124,106860,1,4,0:0:0:0:
404,168,107037,2,0,L|484:164,1,65,2|4,0:0|0:0,0:0:0:0:
488,240,107390,6,0,P|464:288|336:304,1,195,4|0,0:0|0:0,0:0:0:0:
292,240,108095,1,0,1:0:0:0:
324,168,108272,1,0,0:0:0:0:
284,100,108448,2,0,L|228:64,1,65,2|0,0:0|0:0,0:0:0:0:
324,168,108801,2,0,P|356:128|346:53,2,130,4|2|0,0:0|0:0|1:0,0:0:0:0:
284,100,109684,1,0,0:0:0:0:
212,132,109860,2,0,P|180:140|148:132,1,65,2|0,0:0|0:0,0:0:0:0:
94,77,110213,6,0,P|62:69|30:77,2,65,4|0|2,0:0|0:0|0:0,0:0:0:0:
149,132,110743,1,0,0:0:0:0:
112,200,110919,2,0,P|104:264|132:328,1,130,0|2,1:0|0:0,0:0:0:0:
200,356,111448,1,4,0:0:0:0:
276,332,111625,1,8,0:0:0:0:
256,192,111801,12,4,113037,1:0:0:0:
292,64,113743,5,0,1:0:0:0:
408,268,114272,1,0,0:0:0:0:
408,268,114448,2,0,P|376:340|328:352,1,130,4|2,0:0|0:0,0:0:0:0:
264,308,114978,1,0,0:0:0:0:
188,288,115154,2,0,P|176:256|180:224,1,65,0|0,1:0|0:0,0:0:0:0:
234,170,115507,2,0,P|246:138|242:107,1,65,2|0,0:0|0:0,0:0:0:0:
196,44,115860,5,4,0:0:0:0:
120,32,116037,1,0,0:0:0:0:
144,108,116213,1,2,0:0:0:0:
368,108,116566,5,0,1:0:0:0:
392,32,116742,1,0,0:0:0:0:
316,44,116919,1,2,0:0:0:0:
184,180,117272,6,0,L|156:240,1,65,4|0,0:0|0:0,0:0:0:0:
256,224,117625,2,0,L|256:296,1,65,2|4,0:0|0:0,0:0:0:0:
328,180,117978,2,0,L|356:240,2,65,0|4|2,1:0|0:0|0:0,0:0:0:0:
256,148,118507,1,4,0:0:0:0:
198,94,118684,6,0,P|255:67|313:94,1,130,4|2,0:0|0:0,0:0:0:0:
384,124,119213,1,0,0:0:0:0:
456,88,119390,2,0,P|487:70|506:34,1,65,0|0,1:0|0:0,0:0:0:0:
432,12,119743,1,2,0:0:0:0:
452,168,120095,6,0,B|435:232|468:232|452:297,1,130,4|2,0:0|0:0,0:0:0:0:
404,360,120625,1,0,0:0:0:0:
332,328,120801,2,0,L|256:320,1,65,0|0,1:0|0:0,0:0:0:0:
200,360,121154,2,0,L|124:352,1,65,2|0,0:0|0:0,0:0:0:0:
76,304,121507,2,0,P|36:240|36:184,1,130,4|2,0:0|0:0,0:0:0:0:
68,116,122037,1,4,0:0:0:0:
108,48,122213,1,0,1:0:0:0:
200,176,122566,1,2,0:0:0:0:
340,104,122919,6,0,L|408:92,1,65,12|0,0:0|0:0,0:0:0:0:
460,168,123272,2,0,L|392:180,1,65,2|0,0:0|0:0,0:0:0:0:
317,179,123625,2,0,B|290:242|290:242|306:299|306:299|280:361,1,195,0|0,1:0|0:0,0:0:0:0:
204,340,124331,6,0,P|176:316|176:224,1,130,4|2,0:0|0:0,0:0:0:0:
224,172,124860,1,0,0:0:0:0:
200,96,125037,1,0,1:0:0:0:
60,168,125390,1,2,0:0:0:0:
224,172,125743,2,0,P|280:168|324:104,1,130,4|2,0:0|0:0,0:0:0:0:
316,36,126272,1,4,0:0:0:0:
392,64,126448,6,0,L|456:56,2,65,0|2|4,1:0|0:0|0:0,0:0:0:0:
360,136,127331,1,0,0:0:0:0:
396,204,127507,1,2,0:0:0:0:
472,216,127684,1,0,0:0:0:0:
444,144,127860,2,0,L|424:280,1,130,0|2,1:0|0:0,0:0:0:0:
436,352,128390,1,0,0:0:0:0:
364,324,128566,2,0,P|328:320|300:332,1,65,4|0,0:0|0:0,0:0:0:0:
232,364,128919,2,0,P|196:368|168:356,1,65,2|4,0:0|0:0,0:0:0:0:
140,284,129272,6,0,L|160:216,2,65,0|2|4,1:0|0:0|0:0,0:0:0:0:
88,340,130154,1,0,0:0:0:0:
28,288,130331,1,2,0:0:0:0:
28,212,130507,1,0,0:0:0:0:
84,156,130684,2,0,P|128:120|120:32,1,130,0|2,1:0|0:0,0:0:0:0:
56,80,131213,1,0,0:0:0:0:
4,140,131390,1,4,0:0:0:0:
124,240,131743,1,2,0:0:0:0:
204,104,132095,6,0,P|224:72|312:44,1,130,0|2,1:0|0:0,0:0:0:0:
380,72,132625,1,0,0:0:0:0:
444,120,132801,2,0,P|468:148|500:156,1,65,4|0,0:0|0:0,0:0:0:0:
445,220,133154,2,0,P|449:257|471:281,1,65,2|4,0:0|0:0,0:0:0:0:
389,304,133507,2,0,P|372:337|377:369,1,65,0|0,1:0|0:0,0:0:0:0:
296,343,133860,2,0,P|264:360|249:390,1,65,2|4,0:0|0:0,0:0:0:0:
176,364,134213,5,12,0:0:0:0:
100,344,134390,1,4,0:0:0:0:
155,288,134566,1,4,0:0:0:0:
80,268,134743,2,0,L|40:256,2,32.5,4|4|0,0:0|0:0|1:0,0:0:0:0:
136,212,135095,1,4,0:0:0:0:
136,212,135184,1,4,0:0:0:0:
136,212,135272,2,0,P|156:176|136:92,1,130,0|4,1:0|1:0,0:0:0:0:
372,80,158213,5,4,0:0:0:0:
448,60,158390,1,0,0:0:0:0:
484,128,158566,2,0,P|496:192|472:264,1,130,0|0,1:0|0:0,0:0:0:0:
412,292,159095,1,4,0:0:0:0:
336,304,159272,2,0,P|296:296|276:280,1,65,0|0,1:0|0:0,0:0:0:0:
320,180,159625,6,0,P|360:188|380:204,2,65,4|0|0,0:0|0:0|1:0,0:0:0:0:
252,220,160154,1,0,0:0:0:0:
184,180,160331,2,0,L|140:48,1,130,0|0,0:0|1:0,0:0:0:0:
64,48,160860,1,0,0:0:0:0:
8,103,161037,6,0,P|20:175|59:212,1,130,4|0,0:0|1:0,0:0:0:0:
104,276,161566,1,0,0:0:0:0:
164,228,161743,2,0,L|232:200,1,65,0|4,0:0|0:0,0:0:0:0:
288,260,162095,2,0,L|220:288,1,65,0|0,1:0|0:0,0:0:0:0:
224,204,162448,6,0,B|238:142|204:142|224:75,1,130,4|0,0:0|1:0,0:0:0:0:
284,24,162978,1,0,0:0:0:0:
360,36,163154,2,0,P|392:44|424:40,1,65,0|4,0:0|0:0,0:0:0:0:
484,124,163507,2,0,P|452:132|420:128,1,65,0|4,1:0|0:0,0:0:0:0:
364,196,163860,6,0,L|296:208,2,65,4|4|4,0:0|0:0|0:0,0:0:0:0:
440,220,164390,1,4,0:0:0:0:
448,296,164566,2,0,L|516:308,2,65,4|4|4,0:0|0:0|0:0,0:0:0:0:
372,320,165096,1,4,0:0:0:0:
296,304,165272,6,0,P|260:304|228:316,1,65,4|4,0:0|0:0,0:0:0:0:
177,368,165625,2,0,P|141:368|109:356,1,65,4|4,0:0|0:0,0:0:0:0:
58,303,165978,2,0,P|58:267|70:235,1,65,4|4,0:0|0:0,0:0:0:0:
122,184,166331,2,0,P|122:148|110:116,1,65,4|4,0:0|0:0,0:0:0:0:
60,64,166684,5,0,1:0:0:0:
128,24,166860,1,0,0:0:0:0:
200,56,167037,1,0,1:0:0:0:
268,20,167213,1,0,0:0:0:0:
304,88,167390,5,0,1:0:0:0:
372,48,167566,1,0,0:0:0:0:
444,80,167743,1,0,1:0:0:0:
512,44,167919,1,0,0:0:0:0:
468,160,168095,6,0,L|496:200,12,32.5,0|0|0|0|0|0|0|0|0|0|0|0|0,0:0|0:0|0:0|0:0|0:0|0:0|0:0|0:0|0:0|0:0|0:0|0:0|1:0,0:0:0:0:
468,160,169507,6,4,P|420:152|344:196,1,130,4|0,1:0|1:0,0:0:0:0:
324,260,170037,1,0,0:0:0:0:
328,336,170213,2,0,L|256:356,1,65,2|4,0:0|0:0,0:0:0:0:
187,353,170566,1,0,1:0:0:0:
76,242,170919,2,0,L|148:262,1,65,0|4,0:0|0:0,0:0:0:0:
217,259,171272,1,0,1:0:0:0:
268,200,171448,1,0,0:0:0:0:
280,124,171625,1,2,0:0:0:0:
248,52,171801,1,4,0:0:0:0:
172,28,171978,1,0,1:0:0:0:
280,124,172331,6,0,P|352:120|392:72,1,130,4|0,0:0|1:0,0:0:0:0:
440,20,172860,1,0,0:0:0:0:
500,68,173037,2,0,L|508:136,1,65,2|4,0:0|0:0,0:0:0:0:
452,187,173390,2,0,L|460:255,1,65,0|0,1:0|0:0,0:0:0:0:
428,324,173743,5,8,0:0:0:0:
364,368,173919,1,0,0:0:0:0:
324,300,174095,1,8,0:0:0:0:
188,300,174448,5,8,0:0:0:0:
148,368,174624,1,0,0:0:0:0:
84,324,174800,1,8,0:0:0:0:
196,216,175154,6,0,P|255:195|316:216,1,130,4|0,0:0|1:0,0:0:0:0:
324,300,175684,1,0,0:0:0:0:
256,340,175860,2,0,L|208:384,1,65,2|4,0:0|0:0,0:0:0:0:
188,300,176213,2,0,P|136:276|112:208,1,130,0|0,1:0|0:0,0:0:0:0:
156,148,176743,1,4,0:0:0:0:
160,72,176919,2,0,P|168:36|160:4,1,65,0|0,1:0|0:0,0:0:0:0:
88,40,177272,2,0,P|80:76|88:108,2,65,2|4|0,0:0|0:0|1:0,0:0:0:0:
160,72,177801,1,0,0:0:0:0:
236,60,177978,6,0,P|292:44|368:52,1,130,4|0,0:0|1:0,0:0:0:0:
420,104,178507,1,0,0:0:0:0:
400,180,178684,1,2,0:0:0:0:
488,308,179037,1,0,1:0:0:0:
336,336,179390,6,0,P|316:324|272:324,1,65,4|4,0:0|0:0,0:0:0:0:
212,368,179743,1,0,1:0:0:0:
212,368,179831,1,0,1:0:0:0:
212,368,179919,1,4,0:0:0:0:
140,340,180095,6,0,B|88:300|88:300|96:228,1,130,0|0,1:0|1:0,0:0:0:0:
152,180,180625,1,4,0:0:0:0:
208,124,180801,6,0,P|216:94|208:61,1,65,4|0,1:0|0:0,0:0:0:0:
136,92,181154,1,0,1:0:0:0:
240,208,181507,1,2,0:0:0:0:
308,172,181684,1,4,0:0:0:0:
336,244,181860,2,0,P|388:252|464:240,1,130,0|0,1:0|0:0,0:0:0:0:
496,168,182390,1,4,0:0:0:0:
468,96,182566,2,0,L|436:40,1,65,0|0,1:0|0:0,0:0:0:0:
380,96,182919,2,0,L|322:67,2,65,2|4|0,0:0|0:0|1:0,0:0:0:0:
392,252,183625,5,4,0:0:0:0:
368,328,183801,1,0,0:0:0:0:
300,288,183978,2,0,P|260:284|184:328,1,130,0|2,1:0|0:0,0:0:0:0:
120,372,184507,1,4,0:0:0:0:
56,328,184684,2,0,L|24:264,1,65,0|0,1:0|0:0,0:0:0:0:
80,212,185037,5,2,0:0:0:0:
112,140,185390,1,2,0:0:0:0:
92,64,185743,1,2,0:0:0:0:
24,24,186095,1,0,0:0:0:0:
112,140,186448,6,0,P|148:160|180:160,1,65,4|0,0:0|0:0,0:0:0:0:
236,204,186801,2,0,P|260:144|312:104,1,130,0|2,1:0|0:0,0:0:0:0:
388,124,187331,1,4,0:0:0:0:
432,60,187507,2,0,L|472:8,2,65,0|0|0,1:0|0:0|0:0,0:0:0:0:
488,116,188037,1,4,0:0:0:0:
460,188,188213,2,0,P|456:224|468:260,1,65,0|0,1:0|0:0,0:0:0:0:
424,320,188566,2,0,P|428:356|416:392,2,65,2|4|0,0:0|0:0|1:0,0:0:0:0:
352,348,189095,1,0,0:0:0:0:
280,376,189272,6,0,L|236:324,1,65,4|0,0:0|0:0,0:0:0:0:
293,271,189625,2,0,L|249:219,1,65,0|0,1:0|0:0,0:0:0:0:
188,268,189978,2,0,L|144:216,1,65,2|4,0:0|0:0,0:0:0:0:
201,163,190331,2,0,L|157:111,1,65,0|0,1:0|0:0,0:0:0:0:
132,40,190684,5,4,0:0:0:0:
208,20,190860,1,4,0:0:0:0:
256,84,191037,1,0,1:0:0:0:
256,84,191125,1,0,1:0:0:0:
256,84,191213,1,4,0:0:0:0:
304,20,191390,1,0,1:0:0:0:
380,40,191566,1,4,0:0:0:0:
424,104,191743,2,0,P|432:136|428:168,2,65,0|4|4,1:0|0:0|0:0,0:0:0:0:
56,316,193507,6,0,P|40:272|52:192,1,130,4|2,1:0|0:0,0:0:0:0:
108,136,194037,1,0,0:0:0:0:
184,156,194213,2,0,P|216:156|256:144,2,65,0|0|2,1:0|0:0|0:0,0:0:0:0:
108,136,194743,1,0,0:0:0:0:
164,80,194919,2,0,L|132:208,1,130,4|2,0:0|0:0,0:0:0:0:
248,360,195625,2,0,L|280:232,1,130,0|2,1:0|0:0,0:0:0:0:
340,184,196154,1,0,0:0:0:0:
416,192,196331,6,0,P|448:192|480:208,1,65,4|0,0:0|0:0,0:0:0:0:
492,284,196684,2,0,P|460:284|428:268,1,65,2|0,0:0|0:0,0:0:0:0:
356,248,197037,2,0,P|324:248|292:264,1,65,0|0,1:0|0:0,0:0:0:0:
280,340,197390,2,0,P|312:340|344:324,1,65,2|0,0:0|0:0,0:0:0:0:
356,248,197743,2,0,P|356:176|320:120,1,130,4|2,0:0|0:0,0:0:0:0:
256,92,198272,1,4,0:0:0:0:
184,127,198448,2,0,P|156:176|156:248,1,130,0|2,1:0|0:0,0:0:0:0:
208,308,198978,1,4,0:0:0:0:
280,340,199154,6,0,L|352:340,1,65,4|0,0:0|0:0,0:0:0:0:
380,268,199507,2,0,L|308:268,1,65,2|0,0:0|0:0,0:0:0:0:
252,220,199860,2,0,P|216:184|216:108,1,130,0|2,1:0|0:0,0:0:0:0:
290,147,200390,1,0,0:0:0:0:
360,180,200566,2,0,P|392:174|418:154,1,65,4|0,0:0|0:0,0:0:0:0:
368,48,200919,2,0,P|335:53|309:73,1,65,2|0,0:0|0:0,0:0:0:0:
290,147,201272,6,0,L|364:256,1,130,0|2,1:0|0:0,0:0:0:0:
412,316,201801,1,0,0:0:0:0:
356,368,201978,2,0,P|320:368|292:356,2,65,4|0|2,0:0|0:0|0:0,0:0:0:0:
412,316,202507,1,4,0:0:0:0:
448,248,202684,2,0,P|484:248|512:260,2,65,0|0|2,1:0|0:0|0:0,0:0:0:0:
392,196,203213,1,4,0:0:0:0:
316,180,203390,2,0,P|276:176|192:224,1,130,8|2,0:0|0:0,0:0:0:0:
180,292,203919,1,0,0:0:0:0:
220,360,204095,6,0,P|248:360|284:340,2,65,0|0|4,1:0|0:0|0:0,0:0:0:0:
180,292,204978,1,0,0:0:0:0:
116,248,205154,2,0,P|84:240|48:244,1,65,2|0,0:0|0:0,0:0:0:0:
76,320,205507,2,0,P|84:256|16:144,1,195,0|0,1:0|0:0,0:0:0:0:
76,92,206213,2,0,L|220:48,1,130,4|2,0:0|0:0,0:0:0:0:
356,36,206919,1,0,1:0:0:0:
408,92,207272,1,2,0:0:0:0:
456,152,207625,6,0,P|476:212|448:276,1,130,4|2,0:0|0:0,0:0:0:0:
388,316,208154,1,0,0:0:0:0:
312,308,208331,2,0,P|280:296|256:272,1,65,0|0,1:0|0:0,0:0:0:0:
312,184,208684,2,0,P|344:196|368:220,1,65,2|0,0:0|0:0,0:0:0:0:
312,308,209037,2,0,P|300:340|276:364,1,65,4|0,0:0|0:0,0:0:0:0:
200,372,209390,1,2,0:0:0:0:
128,340,209566,1,4,0:0:0:0:
100,268,209743,1,0,1:0:0:0:
220,172,210095,1,2,0:0:0:0:
84,96,210448,6,0,P|104:40|164:8,1,130,4|2,0:0|0:0,0:0:0:0:
228,52,210978,1,0,0:0:0:0:
300,24,211154,2,0,L|376:36,1,65,0|0,1:0|0:0,0:0:0:0:
432,104,211507,2,0,L|356:116,1,65,2|0,0:0|0:0,0:0:0:0:
328,188,211860,2,0,L|404:200,1,65,4|0,0:0|0:0,0:0:0:0:
460,268,212213,2,0,L|384:280,1,65,2|0,0:0|0:0,0:0:0:0:
368,352,212566,2,0,P|340:336|236:328,1,130,0|2,1:0|0:0,0:0:0:0:
172,360,213095,1,0,0:0:0:0:
96,348,213272,5,4,0:0:0:0:
44,288,213448,1,0,0:0:0:0:
40,208,213625,2,0,P|68:156|48:84,1,130,2|0,0:0|1:0,0:0:0:0:
12,24,214154,1,0,0:0:0:0:
92,20,214331,2,0,L|160:12,1,65,2|4,0:0|0:0,0:0:0:0:
220,60,214684,2,0,P|284:88|352:80,1,130,8|2,0:0|0:0,0:0:0:0:
404,228,215390,2,0,P|340:200|272:208,2,130,0|0|4,1:0|0:0|0:0,0:0:0:0:
428,304,216272,5,0,0:0:0:0:
368,352,216448,2,0,L|304:376,1,65,2|0,0:0|0:0,0:0:0:0:
244,328,216801,1,0,1:0:0:0:
244,172,217154,1,2,0:0:0:0:
104,244,217507,2,0,P|48:204|40:144,1,130,4|2,0:0|0:0,0:0:0:0:
150,36,218213,2,0,P|206:76|214:136,1,130,0|2,1:0|0:0,0:0:0:0:
172,284,218919,6,0,P|168:328|172:352,1,65,4|0,0:0|0:0,0:0:0:0:
244,380,219272,1,2,0:0:0:0:
388,316,219625,2,0,P|384:252|284:168,1,195,0|0,1:0|0:0,0:0:0:0:
220,204,220331,1,4,0:0:0:0:
312,328,220684,1,2,0:0:0:0:
388,316,220860,1,4,0:0:0:0:
464,288,221037,2,0,P|492:220|480:148,1,130,0|2,1:0|0:0,0:0:0:0:
452,96,221566,1,4,0:0:0:0:
388,52,221743,5,4,0:0:0:0:
284,168,222095,1,2,0:0:0:0:
136,116,222448,2,0,P|84:128|24:192,1,130,0|2,1:0|0:0,0:0:0:0:
112,312,223154,2,0,P|164:300|224:236,1,130,4|2,0:0|0:0,0:0:0:0:
376,116,223860,2,0,P|428:128|488:192,1,130,0|2,1:0|0:0,0:0:0:0:
400,312,224566,2,0,P|348:300|288:236,1,130,4|2,0:0|0:0,0:0:0:0:
280,172,225095,1,4,0:0:0:0:
284,92,225272,6,0,L|396:20,1,130,0|2,1:0|0:0,0:0:0:0:
472,36,225801,1,4,0:0:0:0:
504,108,225978,2,0,P|508:148|496:180,1,65,4|0,0:0|0:0,0:0:0:0:
445,226,226331,2,0,P|441:266|453:298,1,65,2|4,0:0|0:0,0:0:0:0:
492,352,226684,2,0,P|421:314|354:329,1,130,0|2,1:0|0:0,0:0:0:0:
256,192,227390,5,4,0:0:0:0:
