osu file format v12

[General]
AudioFilename: MitiS - Open Window (feat. Anna Yvette).mp3
AudioLeadIn: 0
PreviewTime: 89390
Countdown: 0
SampleSet: Soft
StackLeniency: 0.7
Mode: 0
LetterboxInBreaks: 0
EpilepsyWarning: 1

[Editor]
Bookmarks: 11390,22684,33978,45272,56566,79154,90448,101743,113037,124331,135625,158213,169507,180801,192095,204801,216095,227390
DistanceSpacing: 1
BeatDivisor: 4
GridSize: 4

[Metadata]
Title:Open Window (feat. Anna Yvette)
TitleUnicode:Open Window (feat. Anna Yvette)
Artist:MitiS
ArtistUnicode:MitiS
Creator:[Luanny]
Version:Easy
Source:
Tags:cubex drumstep kyshiro blue dragon inverness collab collaboration dubstep
BeatmapID:267669
BeatmapSetID:100628

[Difficulty]
HPDrainRate:2
CircleSize:3
OverallDifficulty:2
ApproachRate:3
SliderMultiplier:0.8
SliderTickRate:1

[Events]
//Background and Video events
0,0,"okay.jpg",0,0
//Break Periods
2,57978,77714
2,137037,156773
//Storyboard Layer 0 (Background)
//Storyboard Layer 1 (Fail)
//Storyboard Layer 2 (Pass)
//Storyboard Layer 3 (Foreground)
//Storyboard Sound Samples
//Background Colour Transformations
3,100,163,162,255

[TimingPoints]
96,352.941176470588,4,2,1,60,1,0
22684,-100,4,2,1,70,0,0
33978,-100,4,2,1,80,0,0
90448,-100,4,2,1,80,0,0
113037,-100,4,2,1,80,0,1
123625,-100,4,2,1,80,0,0
124331,-100,4,2,1,80,0,1
126448,-100,4,2,1,80,0,0
127154,-100,4,2,1,80,0,1
129272,-100,4,2,1,80,0,0
129978,-100,4,2,1,80,0,1
135625,-100,4,2,1,80,0,0
158213,-100,4,2,1,60,0,0
162448,-100,4,2,1,70,0,0
163860,-100,4,2,1,80,0,0
169507,-100,4,2,1,80,0,1
173743,-100,4,2,1,80,0,0
175154,-100,4,2,1,80,0,1
180095,-100,4,2,1,80,0,0
180801,-100,4,2,1,80,0,1
185037,-100,4,2,1,80,0,0
186448,-100,4,2,1,80,0,1
192095,-100,4,2,1,80,0,0
193507,-100,4,2,1,80,0,1
204095,-100,4,2,1,80,0,0
204801,-100,4,2,1,80,0,1
206919,-100,4,2,1,80,0,0
207625,-100,4,2,1,80,0,1
209743,-100,4,2,1,80,0,0
210448,-100,4,2,1,80,0,1
216095,-100,4,2,1,80,0,0

[Colours]
Combo1 : 170,170,255
Combo2 : 23,139,255

[HitObjects]
141,97,11390,2,0,P|256:62|370:97,1,240,2|2,1:2|0:0,0:0:0:0:
332,168,12801,2,0,P|256:142|179:169,2,160,0|0|2,0:0|0:0|0:0,0:0:0:0:
328,328,14919,5,0,0:0:0:0:
328,328,15272,2,0,P|254:352|178:326,1,160,2|0,0:0|0:0,0:0:0:0:
106,182,16684,1,0,0:0:0:0:
106,182,17037,6,0,P|119:141|103:91,1,80,2|0,0:0|0:0,0:0:0:0:
45,59,17743,1,2,0:0:0:0:
39,139,18095,2,0,L|183:230,1,160,2|0,0:0|0:0,0:0:0:0:
256,192,19860,12,0,21978,0:0:0:0:
72,248,22684,6,0,P|124:292|208:260,1,160,4|8,1:0|0:0,0:0:0:0:
144,212,23743,1,2,0:0:0:0:
80,164,24095,2,0,P|60:116|100:16,2,160,0|8|4,0:0|0:0|0:0,0:0:0:0:
144,212,25860,5,2,0:0:0:0:
152,132,26213,1,8,0:0:0:0:
270,47,26919,1,0,0:0:0:0:
344,80,27272,1,2,0:0:0:0:
279,128,27625,2,0,P|271:156|287:216,1,80,8|6,0:0|0:0,0:0:0:0:
336,264,28331,6,0,P|276:236|176:252,2,160,4|8|0,0:0|0:0|0:0,0:0:0:0:
380,330,30095,1,6,0:0:0:0:
440,276,30448,1,8,0:0:0:0:
436,120,31154,6,0,P|372:132|280:88,1,160,4|8,0:0|0:0,0:0:0:0:
240,32,32213,1,2,0:0:0:0:
172,76,32566,1,4,0:0:0:0:
436,256,33978,6,0,P|396:332|316:328,1,160,4|0,1:0|1:0,0:0:0:0:
276,276,35036,1,2,0:0:0:0:
308,202,35390,2,0,P|324:208|356:260,1,80,4|2,0:0|0:0,0:0:0:0:
428,224,36095,6,0,P|392:164|312:124,2,160,0|4|0,1:0|0:0|1:0,0:0:0:0:
276,276,38213,2,0,P|256:305|210:322,1,80,4|2,0:0|0:0,0:0:0:0:
135,320,38919,2,0,P|75:257|87:181,1,160,0|4,1:0|0:0,0:0:0:0:
155,155,39978,5,2,0:0:0:0:
170,78,40331,2,0,P|202:45|248:37,2,80,0|2|4,1:0|0:0|0:0,0:0:0:0:
239,116,41390,1,2,0:0:0:0:
247,195,41743,6,0,P|226:271|155:316,2,160,0|4|0,1:0|0:0|1:0,0:0:0:0:
176,156,43507,1,0,0:0:0:0:
96,164,43860,2,0,L|80:248,2,80,4|4|0,0:0|0:0|1:0,0:0:0:0:
128,92,44919,1,0,1:0:0:0:
208,96,45272,6,0,P|248:144|236:236,1,160,4|0,1:0|1:0,0:0:0:0:
120,344,46684,2,0,P|80:296|92:204,1,160,4|0,0:0|1:0,0:0:0:0:
144,144,47743,1,2,0:0:0:0:
164,68,48095,6,0,P|116:68|84:96,2,80,4|2|0,0:0|0:0|1:0,0:0:0:0:
276,184,49507,2,0,P|300:201|348:201,2,80,4|2|0,0:0|0:0|1:0,0:0:0:0:
328,125,50566,1,0,0:0:0:0:
405,145,50919,6,0,P|428:202|365:278,1,160,4|0,0:0|1:0,0:0:0:0:
240,176,52331,2,0,P|180:180|96:256,1,160,4|0,0:0|1:0,0:0:0:0:
84,316,53390,1,2,0:0:0:0:
156,352,53743,6,0,P|192:324|232:316,1,80,4|2,0:0|0:0,0:0:0:0:
304,324,54448,1,0,1:0:0:0:
444,248,55154,2,0,P|432:144|396:96,2,160,4|0|4,0:0|1:0|1:0,0:0:0:0:
72,280,79154,6,0,P|132:312|292:276,1,240,4|0,0:0|1:0,0:0:0:0:
232,220,80566,2,0,P|171:236|94:179,2,160,4|0|4,0:0|0:0|0:0,0:0:0:0:
279,155,82331,1,0,1:0:0:0:
158,49,83037,5,0,1:0:0:0:
113,115,83390,1,4,0:0:0:0:
192,121,83743,1,0,1:0:0:0:
345,75,84448,1,0,1:0:0:0:
406,125,84801,6,0,P|431:188|374:263,1,160,4|4,0:0|0:0,0:0:0:0:
225,233,86213,2,0,P|200:170|257:95,2,160,4|4|4,0:0|0:0|0:0,0:0:0:0:
280,174,87978,5,4,0:0:0:0:
329,111,88331,2,0,P|321:57|300:34,2,80,0|0|8,1:0|1:0|0:0,0:0:0:0:
76,307,90448,6,0,P|174:340|233:314,1,160,4|0,1:0|1:0,0:0:0:0:
278,263,91507,1,2,0:0:0:0:
200,244,91860,2,0,P|222:204|334:206,2,160,4|0|4,0:0|1:0|0:0,0:0:0:0:
223,321,93625,5,2,0:0:0:0:
300,342,93978,2,0,L|372:304,1,80,0|2,1:0|0:0,0:0:0:0:
337,231,94684,2,0,P|322:172|388:104,1,160,4|0,0:0|1:0,0:0:0:0:
460,130,95743,1,2,0:0:0:0:
401,183,96095,6,0,L|266:286,1,160,4|0,0:0|1:0,0:0:0:0:
116,248,97507,2,0,L|251:145,2,160,4|0|4,0:0|1:0|0:0,0:0:0:0:
47,290,99272,5,2,0:0:0:0:
13,217,99625,2,0,P|5:169|23:129,1,80,0|2,1:0|0:0,0:0:0:0:
84,180,100331,2,0,B|158:154|158:154|215:90,1,160,12|0,0:0|1:0,0:0:0:0:
361,34,101743,6,0,P|331:98|381:171,1,160,4|0,0:0|1:0,0:0:0:0:
448,199,102801,1,2,0:0:0:0:
385,249,103154,2,0,P|373:287|383:325,1,80,4|2,0:0|0:0,0:0:0:0:
455,290,103860,2,0,L|289:287,1,160,0|4,1:0|0:0,0:0:0:0:
132,316,105272,2,0,P|102:278|92:238,1,80,0|2,1:0|0:0,0:0:0:0:
106,169,105978,2,0,P|172:181|232:108,1,160,4|0,0:0|1:0,0:0:0:0:
206,41,107037,1,2,0:0:0:0:
152,101,107390,6,0,P|88:89|25:156,1,160,4|0,0:0|1:0,0:0:0:0:
163,234,108801,2,0,P|211:250|290:179,2,160,4|0|4,0:0|1:0|0:0,0:0:0:0:
209,168,110566,5,2,0:0:0:0:
264,110,110919,1,0,1:0:0:0:
256,192,111625,12,4,113037,1:0:0:0:
146,147,113743,6,0,P|109:144|67:168,1,80,0|2,1:0|0:0,0:0:0:0:
128,229,114448,2,0,L|268:315,1,160,4|0,0:0|1:0,0:0:0:0:
341,334,115507,2,0,P|340:284|314:249,1,80,2|4,0:0|0:0,0:0:0:0:
265,205,116213,5,2,0:0:0:0:
338,172,116566,2,0,P|391:205|428:300,2,160,0|4|0,1:0|0:0|1:0,0:0:0:0:
283,113,118331,1,2,0:0:0:0:
340,57,118684,6,0,P|379:40|419:47,1,80,4|2,0:0|0:0,0:0:0:0:
388,121,119390,2,0,P|363:196|389:270,1,160,0|4,1:0|0:0,0:0:0:0:
445,326,120448,1,2,0:0:0:0:
372,359,120801,2,0,L|291:335,1,80,0|2,1:0|0:0,0:0:0:0:
221,304,121507,5,4,0:0:0:0:
171,241,121860,1,2,0:0:0:0:
249,225,122213,1,0,1:0:0:0:
388,147,122919,5,12,0:0:0:0:
438,210,123272,1,2,0:0:0:0:
360,226,123625,1,0,1:0:0:0:
251,108,124331,6,0,P|186:97|113:155,1,160,4|0,0:0|1:0,0:0:0:0:
86,226,125390,1,2,0:0:0:0:
133,290,125743,2,0,P|161:258|165:218,2,80,4|2|0,0:0|0:0|1:0,0:0:0:0:
74,141,127154,6,0,P|125:83|210:85,1,160,4|0,0:0|1:0,0:0:0:0:
274,118,128213,1,2,0:0:0:0:
342,159,128566,2,0,P|397:170|430:158,2,80,4|2|0,0:0|0:0|1:0,0:0:0:0:
337,319,129978,5,4,0:0:0:0:
260,296,130331,1,2,0:0:0:0:
211,232,130684,2,0,P|200:183|214:146,1,80,0|2,1:0|0:0,0:0:0:0:
280,191,131390,2,0,L|139:280,2,160,4|0|4,0:0|1:0|0:0,0:0:0:0:
340,138,133154,5,2,0:0:0:0:
346,58,133507,1,0,1:0:0:0:
198,119,134213,2,0,P|156:152|114:154,2,80,12|4|0,0:0|0:0|1:0,0:0:0:0:
131,74,135272,1,0,1:0:0:0:
61,113,135625,5,4,1:0:0:0:
28,152,158213,6,0,P|80:196|236:152,1,240,4|0,0:0|1:0,0:0:0:0:
220,76,159625,2,0,P|288:92|312:179,2,160,4|0|4,0:0|0:0|0:0,0:0:0:0:
142,97,161390,5,0,1:0:0:0:
92,248,162095,2,0,P|74:295|47:319,2,80,0|4|0,1:0|0:0|1:0,0:0:0:0:
56,91,163507,2,0,P|73:42|101:20,2,80,0|4|4,1:0|0:0|0:0,0:0:0:0:
136,91,164566,6,0,P|182:67|217:71,1,80,4|4,0:0|0:0,0:0:0:0:
193,147,165272,2,0,P|242:162|265:189,1,80,4|4,0:0|0:0,0:0:0:0:
195,228,165978,1,4,0:0:0:0:
256,192,166684,12,0,168801,0:0:0:0:
466,78,169507,6,0,P|412:49|313:67,1,160,4|2,1:0|0:0,0:0:0:0:
256,116,170566,1,0,1:0:0:0:
185,154,170919,2,0,P|90:169|36:140,1,160,0|2,0:0|0:0,0:0:0:0:
10,64,171978,1,0,1:0:0:0:
82,30,172331,6,0,L|170:49,1,80,4|0,0:0|1:0,0:0:0:0:
204,113,173037,2,0,L|292:132,1,80,2|0,0:0|1:0,0:0:0:0:
349,86,173743,2,0,P|361:148|290:210,2,160,8|8|4,0:0|0:0|0:0,0:0:0:0:
293,28,175507,1,0,1:0:0:0:
153,107,176213,6,0,P|134:156|140:187,2,80,0|0|0,1:0|0:0|1:0,0:0:0:0:
214,158,177272,2,0,P|218:183|199:232,1,80,2|0,0:0|1:0,0:0:0:0:
124,261,177978,2,0,P|184:313|256:289,1,160,4|2,0:0|0:0,0:0:0:0:
296,225,179037,5,0,1:0:0:0:
336,156,179390,2,0,L|303:83,2,80,4|0|0,0:0|1:0|1:0,0:0:0:0:
376,224,180448,1,0,1:0:0:0:
355,298,180801,6,0,P|282:331|197:306,1,160,4|2,1:0|0:0,0:0:0:0:
172,240,181860,1,0,1:0:0:0:
147,163,182213,2,0,P|121:130|83:115,2,80,0|0|2,0:0|1:0|0:0,0:0:0:0:
73,194,183272,5,0,1:0:0:0:
96,270,183625,2,0,P|154:318|243:303,2,160,4|2|2,0:0|0:0|0:0,0:0:0:0:
372,108,186448,6,0,P|336:136|288:136,1,80,4|0,0:0|1:0,0:0:0:0:
308,60,187154,1,2,0:0:0:0:
380,28,187507,1,0,1:0:0:0:
444,76,187860,6,0,P|444:148|360:188,2,160,0|2|4,0:0|0:0|0:0,0:0:0:0:
372,108,189625,1,0,1:0:0:0:
296,140,189978,2,0,L|272:224,1,80,2|0,0:0|1:0,0:0:0:0:
196,192,190684,6,0,L|240:36,2,160,4|0|4,0:0|1:0|0:0,0:0:0:0:
100,332,193507,6,0,P|136:300|144:260,1,80,4|2,1:0|0:0,0:0:0:0:
116,196,194213,1,0,1:0:0:0:
64,256,194566,1,2,0:0:0:0:
100,332,194919,2,0,P|160:348|227:273,2,160,4|0|4,0:0|1:0|0:0,0:0:0:0:
148,268,196684,5,2,0:0:0:0:
97,205,197037,2,0,P|80:164|88:119,1,80,0|2,1:0|0:0,0:0:0:0:
131,64,197743,2,0,P|208:111|281:102,1,160,4|0,0:0|1:0,0:0:0:0:
322,40,198801,1,2,0:0:0:0:
242,29,199154,6,0,L|171:178,1,160,4|0,0:0|1:0,0:0:0:0:
187,252,200213,1,2,0:0:0:0:
228,320,200566,2,0,L|312:343,1,80,4|2,0:0|0:0,0:0:0:0:
346,272,201272,2,0,L|262:249,1,80,0|2,1:0|0:0,0:0:0:0:
192,228,201978,6,0,P|144:164|168:93,1,160,4|0,0:0|1:0,0:0:0:0:
224,152,203037,1,2,0:0:0:0:
192,228,203390,2,0,L|116:256,2,80,8|2|0,0:0|0:0|1:0,0:0:0:0:
272,236,204448,1,0,0:0:0:0:
224,300,204801,6,0,P|192:232|248:160,1,160,4|0,0:0|1:0,0:0:0:0:
308,140,205860,1,2,0:0:0:0:
380,176,206213,2,0,P|412:244|356:316,2,160,4|0|4,0:0|1:0|0:0,0:0:0:0:
308,140,207978,5,2,0:0:0:0:
240,96,208331,2,0,P|228:147|241:182,1,80,0|2,1:0|0:0,0:0:0:0:
300,219,209037,2,0,P|374:186|381:109,2,160,4|0|4,0:0|1:0|0:0,0:0:0:0:
222,198,210801,5,2,0:0:0:0:
144,216,211154,2,0,L|118:295,1,80,0|2,1:0|0:0,0:0:0:0:
45,260,211860,2,0,L|19:339,2,80,4|2|0,0:0|0:0|1:0,0:0:0:0:
62,181,212919,1,2,0:0:0:0:
52,101,213272,6,0,P|103:110|136:211,1,160,4|0,0:0|1:0,0:0:0:0:
91,264,214331,1,2,0:0:0:0:
152,315,214684,2,0,L|315:360,2,160,8|0|4,0:0|1:0|0:0,0:0:0:0:
92,166,216801,5,0,1:0:0:0:
232,88,217507,1,4,0:0:0:0:
227,249,218213,2,0,P|270:285|301:291,2,80,0|2|4,1:0|0:0|0:0,0:0:0:0:
232,88,219625,2,0,L|391:123,2,160,0|4|0,1:0|0:0|1:0,0:0:0:0:
152,96,221390,5,2,0:0:0:0:
72,104,221743,2,0,P|124:172|200:160,1,160,4|0,0:0|1:0,0:0:0:0:
340,104,223154,2,0,P|288:36|212:48,2,160,4|0|4,0:0|1:0|0:0,0:0:0:0:
296,172,224919,5,2,0:0:0:0:
336,240,225272,2,0,L|184:292,2,160,0|4|0,1:0|0:0|1:0,0:0:0:0:
484,180,227390,1,4,0:0:0:0:
