osu file format v14

[General]
AudioFilename: 2.mp3
AudioLeadIn: 0
PreviewTime: 71635
Countdown: 0
SampleSet: Soft
StackLeniency: 0.7
Mode: 2
LetterboxInBreaks: 0
EpilepsyWarning: 1
WidescreenStoryboard: 1

[Editor]
Bookmarks: 20779,50298,72116
DistanceSpacing: 1.4
BeatDivisor: 4
GridSize: 4
TimelineZoom: 2.4

[Metadata]
Title:Movements Feat. MaHi (Original Mix) (Speed Up Ver.)
TitleUnicode:Movements Feat. MaHi (Original Mix) (Speed Up Ver.)
Artist:MitiS
ArtistUnicode:MitiS
Creator:-[ Asuna ]-
Version:Serena's Overdose
Source:
Tags:FlandreScarlet- Serena- AnreFM Path to the Horizon Valentina Remenar CLSW Fort [ Joey ] Game Kin
BeatmapID:531560
BeatmapSetID:183132

[Difficulty]
HPDrainRate:6.5
CircleSize:4
OverallDifficulty:9.2
ApproachRate:9.2
SliderMultiplier:2.1
SliderTickRate:2

[Events]
//Background and Video events
0,0,"Background.jpg",0,0
//Break Periods
2,41526,47131
//Storyboard Layer 0 (Background)
//Storyboard Layer 1 (Fail)
//Storyboard Layer 2 (Pass)
//Storyboard Layer 3 (Foreground)
Sprite,Foreground,Centre,"SB/OpticalFlare.png",320,240 M,0,41326,,320,157 F,0,41326,41406,0,1 V,0,41326,41406,0.1,0.1,0.9340653,1.049677 F,0,41406,51273,1 V,0,41406,51273,0.9340653,1.049677,0.9423233,1.066193 V,0,51273,51433,0.9423233,1.066193,1.024904,1.24787 F,0,51273,51593,1,0 V,0,51433,51593,1.024904,1.24787,0.1,0.1
Sprite,Foreground,Centre,"SB/Flare2.png",320,240 M,0,41326,,319,159 F,0,41326,41406,0,1 S,0,41326,41406,0.1,1.181807 R,0,41326,51593,-1.932387,-1.816774 P,0,41406,,A F,0,41406,50952,1 S,0,41406,51593,1.181807 F,0,50952,51593,1,0
Sprite,Foreground,Centre,"SB/Mapped.png",320,240 P,0,42289,,A F,0,42289,42609,0,0.9 V,1,42289,42609,0.01,0.7687742,0.8432258,0.7687742 M,0,42289,51593,231,109,203,109 V,0,42609,51273,0.8432258,0.7687742 F,0,51273,51593,0.9,0
Sprite,Foreground,Centre,"SB/Serena.png",320,240 P,0,43572,,A F,0,43572,43893,0,0.9 V,1,43572,43893,0.01,0.7687742,0.8432258,0.7687742 M,0,43572,51593,361,202,405,202 V,0,43893,51593,0.8432258,0.7687742 F,0,51273,51593,0.9,0
//Storyboard Sound Samples

[TimingPoints]
257,320.855614973262,4,2,4,50,1,0
18866,-100,4,2,4,35,0,0
19508,-100,4,2,4,40,0,0
20150,-100,4,2,4,45,0,0
20470,-100,4,2,2,30,0,0
20791,-125,4,2,2,50,0,0
20871,-125,4,2,5,50,0,0
22075,-125,4,2,2,50,0,0
22155,-125,4,2,5,50,0,0
23358,-125,4,2,2,50,0,0
23438,-125,4,2,5,50,0,0
24642,-125,4,2,2,50,0,0
24722,-125,4,2,5,50,0,0
25925,-125,4,2,2,50,0,0
26005,-125,4,2,5,50,0,0
27208,-125,4,2,2,50,0,0
27289,-125,4,2,5,50,0,0
28412,-125,4,2,5,50,0,0
28732,-125,4,2,5,50,0,0
31059,-125,4,2,2,70,0,0
41326,-125,4,2,2,30,0,0
47743,-125,4,2,2,10,0,0
48064,-125,4,2,2,15,0,0
48385,-125,4,2,2,20,0,0
48706,-125,4,2,2,25,0,0
49027,-125,4,2,2,30,0,0
49668,-125,4,2,2,35,0,0
50310,-125,4,2,2,25,0,0
50631,-125,4,2,2,37,0,0
50952,-125,4,2,2,50,0,0
51593,-125,4,2,2,60,0,0
52877,-125,4,2,2,50,0,0
54160,-125,4,2,2,55,0,0
55444,-125,4,2,2,60,0,0
56727,-125,4,2,2,65,0,0
58011,-125,4,2,2,70,0,0
59294,-125,4,2,2,75,0,0
60577,-125,4,2,2,80,0,0
61861,-125,4,1,0,85,0,0
61941,-125,4,2,5,85,0,0
63144,-125,4,2,2,90,0,0
63224,-125,4,2,5,90,0,0
64428,-125,4,2,2,100,0,0
64508,-125,4,2,3,100,0,0
65711,-125,4,2,2,80,0,0
65791,-125,4,2,3,80,0,0
69561,-125,4,2,3,80,0,0
70845,-125,4,2,3,80,0,0
71807,-125,4,2,2,95,0,0
72128,-125,4,2,3,100,0,1
82396,-125,4,2,2,100,0,1
92663,-125,4,2,4,55,0,0
93625,-66.6666666666667,4,2,4,55,0,0
93866,-66.6666666666667,4,2,4,5,0,0
93946,-125,4,2,3,100,0,1
102930,-125,4,2,2,100,0,1
113198,-125,4,2,3,80,0,0
113358,-125,4,2,3,40,0,0
114481,-125,4,2,3,80,0,0
114642,-125,4,2,3,40,0,0
114962,-125,4,2,3,60,0,0
115283,-125,4,2,3,40,0,0
115444,-125,4,2,3,70,0,0
115604,-125,4,2,3,40,0,0
117369,-125,4,2,3,40,0,0
120898,-125,4,2,3,30,0,0
121540,-125,4,2,3,40,0,0
122182,-125,4,2,3,65,0,0
122823,-125,4,2,3,80,0,0
123625,-125,4,2,3,60,0,0
124428,-100,4,2,0,30,0,0
126032,-100,4,2,0,20,0,0
126994,-100,4,2,0,10,0,0

[Colours]
Combo1 : 248,97,160
Combo2 : 27,166,241
Combo3 : 236,167,245
Combo4 : 105,82,199

[HitObjects]
256,192,18224,12,0,20470,0:0:0:0:
240,128,20791,5,0,0:0:0:0:
80,128,20952,1,0,0:0:0:0:
176,64,21112,2,0,L|288:64,2,84,8|0|0,0:0|0:0|0:0,0:0:0:0:
336,128,21593,1,0,0:0:0:0:
496,128,21754,1,0,0:0:0:0:
400,64,21914,2,0,L|288:64,2,84,0|0|0,0:0|0:0|0:0,0:0:0:0:
248,64,22396,1,8,0:0:0:0:
512,224,22556,6,0,L|324:224,1,168
416,200,23037,1,0,0:0:0:0:
240,224,23198,1,0,0:0:0:0:
376,80,23358,5,0,0:0:0:0:
228,132,23519,1,0,0:0:0:0:
84,192,23679,2,0,L|-12:192,1,84,8|0,0:0|0:0,0:0:0:0:
412,164,24000,2,0,L|508:164,1,84
264,220,24321,2,0,L|180:220,1,84
0,136,24642,6,0,L|84:136,1,84,0|0,0:0|0:0,0:0:0:0:
304,144,24962,1,8,0:0:0:0:
144,144,25123,1,0,0:0:0:0:
256,64,25283,2,0,L|144:64,1,84,0|0,0:0|0:0,0:0:0:0:
32,64,25604,2,0,L|144:64,1,84,0|0,0:0|0:0,0:0:0:0:
340,64,25925,6,0,L|256:64,1,84,0|0,0:0|0:0,0:0:0:0:
340,64,26246,1,8,0:0:0:0:
120,64,26406,2,0,L|204:64,1,84,0|0,0:0|0:0,0:0:0:0:
464,64,26727,2,0,L|380:64,1,84,0|0,0:0|0:0,0:0:0:0:
232,64,27048,1,0,0:0:0:0:
96,64,27208,6,0,L|214:64,1,84,0|0,0:0|0:0,0:0:0:0:
80,148,27529,1,8,0:0:0:0:
480,152,27690,2,0,L|304:152,1,168
160,168,28171,1,0,0:0:0:0:
296,168,28331,1,0,0:0:0:0:
160,168,28492,5,2,0:0:0:0:
24,168,28652,1,0,0:0:0:0:
296,168,28813,1,0,0:0:0:0:
400,168,28973,2,0,L|500:168,1,84,0|8,0:0|0:0,0:0:0:0:
296,88,29294,1,0,0:0:0:0:
416,32,29454,1,0,0:0:0:0:
176,40,29615,2,0,L|48:40,1,84,0|2,0:0|0:0,0:0:0:0:
252,36,29936,6,0,L|348:36,1,84
496,40,30256,2,0,L|412:40,1,84
240,112,30577,2,0,L|328:112,1,84,0|0,0:0|0:0,0:0:0:0:
128,116,30898,1,0,0:0:0:0:
284,148,31059,6,0,L|396:148,2,84,0|0|8,0:0|0:0|0:0,0:0:0:0:
512,236,31540,2,0,L|344:236,1,168
436,164,32021,1,8,0:0:0:0:
272,164,32182,1,0,0:0:0:0:
108,268,32342,6,0,L|28:336,1,84
148,324,32663,1,8,0:0:0:0:
464,208,32823,2,0,L|240:208,1,168
376,336,33305,1,8,0:0:0:0:
224,336,33465,1,0,0:0:0:0:
488,192,33625,6,0,L|368:144,1,84
176,108,33946,1,8,0:0:0:0:
328,272,34107,2,0,L|208:224,1,84,0|0,0:0|0:0,0:0:0:0:
0,204,34428,1,0,0:0:0:0:
156,208,34588,2,0,L|88:304,1,84,8|0,0:0|0:0,0:0:0:0:
280,276,34909,5,0,0:0:0:0:
404,188,35069,2,0,L|481:219,1,84,0|8,0:0|0:0,0:0:0:0:
208,228,35390,1,0,0:0:0:0:
340,292,35551,2,0,L|460:292,1,84
200,296,35871,2,0,L|80:296,1,84,8|0,0:0|0:0,0:0:0:0:
416,180,36192,6,0,L|528:180,2,84,2|0|8,0:0|0:0|0:0,0:0:0:0:
148,180,36674,2,0,L|44:180,1,84
296,108,36994,2,0,L|408:108,2,84,0|8|0,0:0|0:0|0:0,0:0:0:0:
144,176,37476,6,0,L|228:176,1,84
112,176,37797,1,8,0:0:0:0:
416,176,37957,2,0,L|332:176,1,84,0|0,0:0|0:0,0:0:0:0:
448,176,38278,1,0,0:0:0:0:
88,176,38438,2,0,L|4:176,1,84,8|0,0:0|0:0,0:0:0:0:
240,104,38759,6,0,L|336:104,1,84,0|0,0:0|0:0,0:0:0:0:
512,104,39080,1,8,0:0:0:0:
428,48,39240,2,0,L|316:48,1,84
176,48,39561,1,0,0:0:0:0:
92,104,39722,2,0,L|228:104,1,84,8|0,0:0|0:0,0:0:0:0:
360,104,40043,6,0,L|464:104,1,84,0|0,0:0|0:0,0:0:0:0:
284,104,40363,1,8,0:0:0:0:
28,136,40524,1,0,0:0:0:0:
148,136,40684,2,0,L|20:144,1,84,0|0,0:0|0:0,0:0:0:0:
392,124,41005,2,0,L|520:132,1,84,0|2,0:0|0:0,0:0:0:0:
144,192,41326,5,2,0:0:0:0:
80,310,47743,5,0,0:0:0:0:
120,322,47823,1,0,0:0:0:0:
161,315,47904,1,0,0:0:0:0:
196,292,47984,1,0,0:0:0:0:
216,256,48064,1,0,0:0:0:0:
218,214,48144,1,0,0:0:0:0:
203,175,48224,1,0,0:0:0:0:
173,147,48305,1,0,0:0:0:0:
155,114,48385,5,0,0:0:0:0:
183,84,48465,1,0,0:0:0:0:
222,69,48545,1,0,0:0:0:0:
264,72,48625,1,0,0:0:0:0:
300,92,48706,1,0,0:0:0:0:
323,126,48786,1,0,0:0:0:0:
330,167,48866,1,0,0:0:0:0:
318,207,48946,1,0,0:0:0:0:
288,232,49027,6,0,L|240:176,1,42,0|0,0:0|0:0,0:0:0:0:
160,200,49187,2,0,L|112:144,1,42,0|0,0:0|0:0,0:0:0:0:
32,168,49347,2,0,L|-16:112,1,42,0|0,0:0|0:0,0:0:0:0:
104,120,49508,6,0,L|152:64,1,42,0|0,0:0|0:0,0:0:0:0:
232,88,49668,2,0,L|280:32,1,42,0|0,0:0|0:0,0:0:0:0:
360,48,49829,2,0,L|408:-8,1,42,0|0,0:0|0:0,0:0:0:0:
480,40,49989,2,0,L|528:-16,1,42,0|0,0:0|0:0,0:0:0:0:
152,48,50150,1,0,0:0:0:0:
80,56,50230,1,0,0:0:0:0:
4,72,50310,5,0,0:0:0:0:
32,62,50350,1,0,0:0:0:0:
61,63,50390,1,0,0:0:0:0:
89,74,50430,1,0,0:0:0:0:
110,96,50470,1,0,0:0:0:0:
122,123,50511,1,0,0:0:0:0:
123,153,50551,1,0,0:0:0:0:
113,181,50591,1,0,0:0:0:0:
100,196,50631,5,0,0:0:0:0:
76,216,50671,1,0,0:0:0:0:
63,241,50711,1,0,0:0:0:0:
58,271,50751,1,0,0:0:0:0:
67,300,50791,1,0,0:0:0:0:
84,324,50832,1,0,0:0:0:0:
110,340,50872,1,0,0:0:0:0:
139,345,50912,1,0,0:0:0:0:
184,348,50952,1,0,0:0:0:0:
228,348,50992,1,0,0:0:0:0:
276,352,51032,1,0,0:0:0:0:
324,352,51072,1,0,0:0:0:0:
368,352,51112,1,0,0:0:0:0:
408,352,51152,1,0,0:0:0:0:
440,352,51192,1,0,0:0:0:0:
476,352,51232,1,0,0:0:0:0:
440,308,51273,6,0,L|428:272,1,21
380,288,51353,2,0,L|368:252,1,21
320,264,51433,2,0,L|308:228,1,21
260,244,51513,2,0,L|248:208,1,21
200,220,51593,1,0,0:0:0:0:
192,192,51634,6,0,L|88:192,1,84
224,120,51914,2,0,L|308:120,1,84,8|0,0:0|0:0,0:0:0:0:
488,120,52235,2,0,L|404:120,2,84
288,120,52877,6,0,L|372:120,1,84
140,120,53198,2,0,L|224:120,1,84,8|0,0:0|0:0,0:0:0:0:
336,120,53519,2,0,L|420:120,1,84,0|0,0:0|0:0,0:0:0:0:
88,116,53839,2,0,L|4:116,1,84,8|0,0:0|0:0,0:0:0:0:
140,120,54160,1,0,0:0:0:0:
392,164,54321,6,0,L|308:164,1,84,0|8,0:0|0:0,0:0:0:0:
428,224,54642,2,0,L|512:224,1,84
220,240,54962,2,0,L|136:240,1,84,0|8,0:0|0:0,0:0:0:0:
304,192,55444,6,0,L|388:192,2,84,0|0|8,0:0|0:0|0:0,0:0:0:0:
168,148,55925,2,0,L|84:148,1,84
422,99,56246,2,0,P|382:110|344:96,2,84,2|8|0,0:0|0:0|0:0,0:0:0:0:
261,120,56727,6,0,L|157:120,2,84,0|0|8,0:0|0:0|0:0,0:0:0:0:
88,120,57208,2,0,L|4:120,2,84,0|0|2,0:0|0:0|0:0,0:0:0:0:
184,120,57609,1,0,0:0:0:0:
446,123,57690,1,8,0:0:0:0:
228,144,58011,6,0,L|144:141,2,84,0|0|8,0:0|0:0|0:0,0:0:0:0:
336,144,58492,2,0,L|459:144,1,84
188,228,58813,2,0,L|330:230,2,84,2|8|0,0:0|0:0|0:0,0:0:0:0:
376,220,59294,6,0,L|494:219,1,84,0|0,0:0|0:0,0:0:0:0:
341,223,59615,1,8,0:0:0:0:
84,200,59775,2,0,L|-34:199,2,84
180,200,60176,1,0,0:0:0:0:
464,200,60256,1,8,0:0:0:0:
328,160,60577,6,0,L|244:160,1,84
144,272,60898,2,0,L|228:272,1,84,2|0,0:0|0:0,0:0:0:0:
108,116,61219,2,0,L|24:116,1,84,2|0,0:0|0:0,0:0:0:0:
416,200,61540,2,0,L|500:200,1,84,2|0,0:0|0:0,0:0:0:0:
152,120,61861,6,0,L|68:120,1,84,4|0,0:0|0:0,0:0:0:0:
204,120,62182,2,0,L|288:120,1,84,8|2,0:0|0:0,0:0:0:0:
428,120,62502,2,0,L|512:120,2,84,0|0|8,0:0|0:0|0:0,0:0:0:0:
232,72,63144,6,0,L|328:72,1,84,0|0,0:0|0:0,0:0:0:0:
416,64,63465,2,0,L|520:64,1,84,8|2,0:0|0:0,0:0:0:0:
352,64,63786,2,0,L|256:64,1,84,0|0,0:0|0:0,0:0:0:0:
156,64,64107,2,0,L|52:64,1,84,8|0,0:0|0:0,0:0:0:0:
264,80,64428,6,0,L|144:80,2,84,0|0|8,0:0|0:0|0:0,0:0:0:0:
104,152,64909,2,0,L|188:152,1,84,2|0,0:0|0:0,0:0:0:0:
320,152,65230,2,0,L|432:152,1,84,0|8,0:0|0:0,0:0:0:0:
168,128,65711,6,0,L|84:128,2,84,2|0|0,0:0|0:0|0:0,0:0:0:0:
344,128,66192,2,0,L|428:128,2,84,2|0|0,0:0|0:0|0:0,0:0:0:0:
204,128,66674,2,0,L|316:128,1,84,8|0,0:0|0:0,0:0:0:0:
446,123,66994,6,0,L|562:120,2,84,2|0|2,0:0|0:0|0:0,0:0:0:0:
361,123,67476,2,0,L|238:123,1,84,0|2,0:0|0:0,0:0:0:0:
140,120,67797,2,0,L|282:122,2,84,0|2|2,0:0|0:0|0:0,0:0:0:0:
392,216,68278,6,0,L|510:215,1,84,8|8,0:0|0:0,0:0:0:0:
357,219,68599,1,8,0:0:0:0:
232,220,68759,2,0,L|114:219,1,84,8|8,0:0|0:0,0:0:0:0:
272,220,69080,1,8,0:0:0:0:
352,232,69240,2,0,L|464:232,1,84,0|0,0:0|0:0,0:0:0:0:
260,164,69561,6,0,L|224:120,1,42
432,208,69722,2,0,L|412:252,1,42
124,120,69882,2,0,L|156:80,1,42
448,144,70043,2,0,L|484:100,1,42
32,192,70203,6,0,L|64:160,1,42
468,276,70363,2,0,L|504:236,1,42
192,168,70524,2,0,L|160:136,1,42
448,172,70684,2,0,L|488:132,1,42
240,72,70845,6,0,L|136:72,1,84,2|0,0:0|0:0,0:0:0:0:
200,192,71085,1,0,0:0:0:0:
384,180,71166,2,0,L|496:180,1,84,2|0,0:0|0:0,0:0:0:0:
404,224,71406,1,2,0:0:0:0:
200,260,71486,1,0,0:0:0:0:
96,192,71647,2,0,L|160:192,1,42,0|0,0:0|0:0,0:0:0:0:
296,188,71807,1,8,0:0:0:0:
216,112,72128,6,0,L|132:112,1,84,0|0,0:0|0:0,0:0:0:0:
280,112,72449,2,0,L|364:112,1,84,8|2,0:0|0:0,0:0:0:0:
496,112,72770,2,0,L|412:112,1,84,2|0,0:0|0:0,0:0:0:0:
72,104,73091,2,0,L|72:224,1,84,8|0,0:0|0:0,0:0:0:0:
204,148,73412,5,2,0:0:0:0:
156,148,73492,1,0,0:0:0:0:
108,148,73572,1,0,0:0:0:0:
240,148,73732,1,8,0:0:0:0:
288,148,73813,1,0,0:0:0:0:
336,148,73893,1,2,0:0:0:0:
408,96,74053,6,0,L|480:104,1,42,0|0,0:0|0:0,0:0:0:0:
256,88,74214,2,0,L|192:80,1,42,2|0,0:0|0:0,0:0:0:0:
352,96,74374,2,0,L|424:104,1,42,8|0,0:0|0:0,0:0:0:0:
224,88,74535,2,0,L|160:80,1,42,0|0,0:0|0:0,0:0:0:0:
384,64,74695,6,0,L|500:64,1,84,2|0,0:0|0:0,0:0:0:0:
176,56,75016,2,0,L|60:56,1,84,8|0,0:0|0:0,0:0:0:0:
320,56,75337,2,0,L|400:56,2,42,0|0|2,0:0|0:0|0:0,0:0:0:0:
48,56,75658,2,0,L|192:56,1,84,8|2,0:0|0:0,0:0:0:0:
392,56,75978,6,0,L|448:56,2,42,0|0|2,0:0|0:0|0:0,0:0:0:0:
120,56,76299,2,0,L|78:56,2,42,8|0|0,0:0|0:0|0:0,0:0:0:0:
216,64,76620,2,0,L|258:64,1,42,0|0,0:0|0:0,0:0:0:0:
456,64,76781,2,0,L|498:64,1,42,0|0,0:0|0:0,0:0:0:0:
312,64,76941,2,0,L|270:64,1,42,8|0,0:0|0:0,0:0:0:0:
96,72,77101,2,0,L|54:72,1,42,8|0,0:0|0:0,0:0:0:0:
0,144,77262,6,0,L|56:82,1,84,0|2,0:0|0:0,0:0:0:0:
399,144,77583,2,0,L|344:82,1,84,0|0,0:0|0:0,0:0:0:0:
56,82,77904,2,0,L|-8:154,1,84,2|0,0:0|0:0,0:0:0:0:
344,82,78224,2,0,L|408:154,1,84,8|0,0:0|0:0,0:0:0:0:
8,88,78545,6,0,L|120:88,1,84,2|0,0:0|0:0,0:0:0:0:
416,88,78866,2,0,L|332:88,1,84,8|2,0:0|0:0,0:0:0:0:
56,136,79187,2,0,L|140:136,1,84,0|2,0:0|0:0,0:0:0:0:
328,128,79428,1,0,0:0:0:0:
512,136,79508,2,0,L|428:136,1,84,8|0,0:0|0:0,0:0:0:0:
320,128,79829,6,0,L|424:128,1,84,2|0,0:0|0:0,0:0:0:0:
232,128,80150,2,0,L|136:128,1,84,8|0,0:0|0:0,0:0:0:0:
0,128,80470,2,0,L|104:128,1,84,0|2,0:0|0:0,0:0:0:0:
448,128,80791,6,0,L|322:128,1,126,8|0,0:0|0:0,0:0:0:0:
88,128,81112,2,0,L|192:128,2,84,8|0|0,0:0|0:0|0:0,0:0:0:0:
424,128,81593,2,0,L|320:128,2,84,0|0|0,0:0|0:0|0:0,0:0:0:0:
16,104,82075,2,0,L|120:104,1,84,0|0,0:0|0:0,0:0:0:0:
376,112,82396,6,0,L|480:112,1,84,2|0,0:0|0:0,0:0:0:0:
220,112,82716,2,0,L|304:112,1,84,8|0,0:0|0:0,0:0:0:0:
64,112,83037,2,0,L|148:112,1,84,0|2,0:0|0:0,0:0:0:0:
440,104,83358,2,0,L|520:168,1,84,8|0,0:0|0:0,0:0:0:0:
392,168,83679,5,0,0:0:0:0:
344,168,83759,1,0,0:0:0:0:
296,168,83839,1,0,0:0:0:0:
16,176,84000,1,8,0:0:0:0:
64,176,84080,1,0,0:0:0:0:
112,176,84160,1,2,0:0:0:0:
200,176,84321,6,0,L|241:172,1,42,0|0,0:0|0:0,0:0:0:0:
456,168,84481,2,0,L|498:174,1,42,2|0,0:0|0:0,0:0:0:0:
232,112,84642,2,0,L|191:116,1,42,8|0,0:0|0:0,0:0:0:0:
456,112,84802,2,0,L|498:118,1,42,0|0,0:0|0:0,0:0:0:0:
448,112,84962,6,0,L|364:112,1,84,2|0,0:0|0:0,0:0:0:0:
424,112,85283,2,0,L|508:112,1,84,8|2,0:0|0:0,0:0:0:0:
224,152,85604,2,0,L|144:152,2,42,0|0|2,0:0|0:0|0:0,0:0:0:0:
392,80,85925,2,0,L|536:80,1,84,8|0,0:0|0:0,0:0:0:0:
96,72,86246,6,0,L|40:72,2,42,2|0|2,0:0|0:0|0:0,0:0:0:0:
392,56,86567,2,0,L|434:56,2,42,8|0|2,0:0|0:0|0:0,0:0:0:0:
314,136,86888,2,0,L|272:136,1,42,0|0,0:0|0:0,0:0:0:0:
434,136,87048,2,0,L|476:136,1,42,2|0,0:0|0:0,0:0:0:0:
216,136,87208,2,0,L|174:136,1,42,8|0,0:0|0:0,0:0:0:0:
336,136,87369,2,0,L|378:136,1,42,8|0,0:0|0:0,0:0:0:0:
128,88,87529,5,2,0:0:0:0:
8,136,87690,1,0,0:0:0:0:
176,136,87850,1,8,0:0:0:0:
384,88,88011,1,2,0:0:0:0:
504,136,88171,1,0,0:0:0:0:
336,136,88331,1,2,0:0:0:0:
64,136,88492,6,0,L|176:136,1,84,8|0,0:0|0:0,0:0:0:0:
368,136,88813,2,0,L|256:136,1,84,2|2,0:0|0:0,0:0:0:0:
24,136,89134,2,0,L|108:136,1,84,8|2,0:0|0:0,0:0:0:0:
408,136,89454,2,0,L|324:136,1,84,0|2,0:0|0:0,0:0:0:0:
160,136,89695,1,0,0:0:0:0:
0,136,89775,2,0,L|84:136,1,84,8|0,0:0|0:0,0:0:0:0:
360,136,90096,6,0,L|464:136,1,84,2|0,0:0|0:0,0:0:0:0:
256,136,90417,2,0,L|160:136,1,84,8|0,0:0|0:0,0:0:0:0:
28,140,90738,2,0,L|132:140,1,84,0|2,0:0|0:0,0:0:0:0:
472,128,91059,6,0,L|346:128,1,126,8|0,0:0|0:0,0:0:0:0:
152,128,91379,2,0,L|26:128,1,126,4|0,0:0|0:0,0:0:0:0:
216,128,91700,2,0,L|342:128,1,126,4|0,0:0|0:0,0:0:0:0:
512,128,92021,2,0,L|386:128,1,126,4|0,0:0|0:0,0:0:0:0:
152,128,92342,2,0,L|256:128,1,84,4|0,0:0|0:0,0:0:0:0:
388,200,92663,5,0,0:0:0:0:
164,200,92823,1,0,0:0:0:0:
404,200,92984,1,0,0:0:0:0:
148,200,93144,1,0,0:0:0:0:
416,200,93305,1,0,0:0:0:0:
136,200,93465,1,0,0:0:0:0:
480,208,93625,6,0,L|216:208,1,236.250009012223,4|2,0:0|0:0,0:0:0:0:
8,208,93946,1,0,0:0:0:0:
120,208,94107,5,0,0:0:0:0:
360,136,94267,1,8,0:0:0:0:
496,136,94428,1,0,0:0:0:0:
304,136,94588,2,0,L|424:136,1,84,0|2,0:0|0:0,0:0:0:0:
168,136,94909,2,0,L|84:136,1,84,8|2,0:0|0:0,0:0:0:0:
176,72,95230,6,0,L|288:72,1,84,2|0,0:0|0:0,0:0:0:0:
392,72,95551,2,0,L|304:72,1,84,8|0,0:0|0:0,0:0:0:0:
104,72,95871,2,0,L|216:72,1,84,0|2,0:0|0:0,0:0:0:0:
464,72,96192,2,0,L|376:72,1,84,8|2,0:0|0:0,0:0:0:0:
32,80,96513,5,2,0:0:0:0:
304,80,96834,1,8,0:0:0:0:
32,80,97155,1,0,0:0:0:0:
152,80,97315,1,2,0:0:0:0:
176,80,97396,1,0,0:0:0:0:
152,80,97476,1,8,0:0:0:0:
32,80,97636,1,2,0:0:0:0:
136,112,97797,6,0,L|32:112,1,84,2|0,0:0|0:0,0:0:0:0:
208,112,98117,2,0,L|292:112,1,84,8|0,0:0|0:0,0:0:0:0:
408,112,98438,2,0,L|492:112,1,84,0|2,0:0|0:0,0:0:0:0:
108,88,98759,2,0,L|20:168,1,84,8|0,0:0|0:0,0:0:0:0:
192,164,99080,5,2,0:0:0:0:
144,164,99160,1,0,0:0:0:0:
96,164,99240,1,0,0:0:0:0:
224,196,99401,1,8,0:0:0:0:
272,196,99481,1,0,0:0:0:0:
320,196,99561,1,0,0:0:0:0:
408,96,99722,6,0,L|480:104,1,42,0|0,0:0|0:0,0:0:0:0:
264,88,99882,2,0,L|200:80,1,42,2|0,0:0|0:0,0:0:0:0:
368,96,100043,2,0,L|440:104,1,42,8|0,0:0|0:0,0:0:0:0:
224,88,100203,2,0,L|160:80,1,42,8|0,0:0|0:0,0:0:0:0:
384,64,100363,6,0,L|500:64,1,84,2|0,0:0|0:0,0:0:0:0:
176,56,100684,2,0,L|60:56,1,84,8|0,0:0|0:0,0:0:0:0:
320,56,101005,2,0,L|400:56,2,42,0|0|2,0:0|0:0|0:0,0:0:0:0:
48,56,101326,2,0,L|192:56,1,84,8|0,0:0|0:0,0:0:0:0:
392,56,101647,6,0,L|448:56,2,42,4|0|0,0:0|0:0|0:0,0:0:0:0:
120,56,101968,2,0,L|78:56,2,42,4|0|0,0:0|0:0|0:0,0:0:0:0:
204,136,102289,2,0,L|162:136,1,42,4|0,0:0|0:0,0:0:0:0:
0,136,102449,2,0,L|42:136,1,42,2|0,0:0|0:0,0:0:0:0:
302,136,102609,2,0,L|260:136,1,42,12|0,0:0|0:0,0:0:0:0:
98,136,102770,2,0,L|140:136,1,42,0|0,0:0|0:0,0:0:0:0:
440,150,102930,6,0,L|384:88,1,84,0|0,0:0|0:0,0:0:0:0:
41,150,103251,2,0,L|96:88,1,84,8|0,0:0|0:0,0:0:0:0:
384,88,103572,2,0,L|440:150,1,84,0|0,0:0|0:0,0:0:0:0:
97,87,103893,2,0,L|41:150,1,84,8|0,0:0|0:0,0:0:0:0:
368,136,104214,6,0,L|256:136,1,84,2|2,0:0|0:0,0:0:0:0:
24,136,104535,2,0,L|108:136,1,84,8|2,0:0|0:0,0:0:0:0:
408,136,104855,2,0,L|324:136,1,84,0|2,0:0|0:0,0:0:0:0:
160,136,105096,1,0,0:0:0:0:
0,136,105176,2,0,L|84:136,1,84,8|2,0:0|0:0,0:0:0:0:
208,136,105497,6,0,L|104:136,1,84,2|0,0:0|0:0,0:0:0:0:
296,136,105818,2,0,L|392:136,1,84,8|0,0:0|0:0,0:0:0:0:
512,136,106139,2,0,L|408:136,1,84,0|2,0:0|0:0,0:0:0:0:
40,128,106460,6,0,L|166:128,1,126,8|0,0:0|0:0,0:0:0:0:
360,128,106781,2,0,L|486:128,1,126,2|0,0:0|0:0,0:0:0:0:
296,128,107101,2,0,L|170:128,1,126,8|0,0:0|0:0,0:0:0:0:
0,128,107422,2,0,L|126:128,1,126,2|0,0:0|0:0,0:0:0:0:
480,136,107743,2,0,L|376:136,1,84,8|8,0:0|0:0,0:0:0:0:
316,112,108064,6,0,L|420:112,1,84,2|0,0:0|0:0,0:0:0:0:
160,112,108385,2,0,L|244:112,1,84,8|0,0:0|0:0,0:0:0:0:
4,112,108706,2,0,L|88:112,1,84,0|0,0:0|0:0,0:0:0:0:
440,104,109027,2,0,L|520:168,1,84,8|0,0:0|0:0,0:0:0:0:
392,168,109347,5,0,0:0:0:0:
344,168,109428,1,0,0:0:0:0:
296,168,109508,1,2,0:0:0:0:
16,176,109668,1,8,0:0:0:0:
64,176,109748,1,0,0:0:0:0:
112,176,109829,1,2,0:0:0:0:
239,180,109989,6,0,L|280:184,1,42,0|0,0:0|0:0,0:0:0:0:
464,208,110150,2,0,L|422:202,1,42,2|0,0:0|0:0,0:0:0:0:
240,184,110310,2,0,L|199:180,1,42,8|0,0:0|0:0,0:0:0:0:
48,160,110470,2,0,L|6:154,1,42,0|0,0:0|0:0,0:0:0:0:
312,136,110631,6,0,L|396:136,1,84,2|0,0:0|0:0,0:0:0:0:
144,136,110952,6,0,L|60:136,1,84,8|0,0:0|0:0,0:0:0:0:
196,136,111273,2,0,L|238:136,2,42,0|0|0,0:0|0:0|0:0,0:0:0:0:
424,80,111593,2,0,L|568:80,1,84,8|0,0:0|0:0,0:0:0:0:
96,72,111914,6,0,L|40:72,2,42,4|0|0,0:0|0:0|0:0,0:0:0:0:
364,64,112235,2,0,L|406:64,2,42,4|0|0,0:0|0:0|0:0,0:0:0:0:
176,88,112556,2,0,L|134:88,1,42,4|0,0:0|0:0,0:0:0:0:
176,88,112716,2,0,L|218:88,1,42
76,144,112877,2,0,L|34:144,1,42,4|0,0:0|0:0,0:0:0:0:
232,152,113037,2,0,L|274:152,1,42,0|0,0:0|0:0,0:0:0:0:
64,304,113198,6,0,L|168:304,1,84,4|0,2:0|0:0,0:0:0:0:
256,288,113519,2,0,L|144:288,1,84,0|0,0:0|0:0,0:0:0:0:
280,264,113839,2,0,L|400:264,1,84,0|0,0:0|0:0,0:0:0:0:
480,240,114160,2,0,L|368:240,1,84,0|0,0:0|0:0,0:0:0:0:
280,240,114481,6,0,L|400:240,2,84,2|0|0,0:0|0:0|0:0,0:0:0:0:
168,240,114962,2,0,L|0:240,1,168,0|2,0:0|0:0,0:0:0:0:
168,240,115444,2,0,L|272:240,1,84
72,160,115765,6,0,L|0:72,1,84,2|0,0:0|0:0,0:0:0:0:
216,160,116085,2,0,L|144:72,1,84,2|2,0:0|0:0,0:0:0:0:
360,160,116406,2,0,L|288:72,1,84,0|2,0:0|0:0,0:0:0:0:
504,160,116727,2,0,L|432:72,1,84,0|2,0:0|0:0,0:0:0:0:
296,92,117048,6,0,L|240:92,2,42,2|2|2,0:0|0:0|0:0,0:0:0:0:
416,88,117369,2,0,L|480:176,1,84,2|2,0:0|0:0,0:0:0:0:
284,92,117690,2,0,L|220:180,1,84,2|0,0:0|0:0,0:0:0:0:
112,160,118011,2,0,L|224:160,1,84,2|0,0:0|0:0,0:0:0:0:
352,160,118331,6,0,L|436:160,2,84,0|0|2,0:0|0:0|0:0,0:0:0:0:
56,152,118973,2,0,L|240:152,1,168,2|0,0:0|0:0,0:0:0:0:
480,224,119615,2,0,L|280:224,1,168,2|0,0:0|0:0,0:0:0:0:
24,224,120096,2,0,L|224:224,1,168,2|0,0:0|0:0,0:0:0:0:
304,168,120577,1,2,0:0:0:0:
440,180,120898,5,0,0:0:0:0:
480,177,120978,1,0,0:0:0:0:
508,146,121059,1,0,0:0:0:0:
506,105,121139,1,0,0:0:0:0:
477,77,121219,1,0,0:0:0:0:
436,77,121299,1,0,0:0:0:0:
288,68,121379,2,0,L|212:44,1,42
76,77,121540,5,0,0:0:0:0:
35,77,121620,1,0,0:0:0:0:
6,105,121700,1,0,0:0:0:0:
4,146,121781,1,0,0:0:0:0:
32,177,121861,1,0,0:0:0:0:
72,180,121941,1,0,0:0:0:0:
160,312,122021,2,0,L|236:336,1,42
132,312,122182,6,0,L|72:344,1,42
312,248,122342,2,0,L|388:272,1,42
288,248,122502,2,0,L|228:280,1,42
420,297,122663,1,0,0:0:0:0:
461,297,122743,1,0,0:0:0:0:
490,269,122823,5,0,0:0:0:0:
492,228,122904,1,0,0:0:0:0:
464,197,122984,1,0,0:0:0:0:
424,194,123064,1,0,0:0:0:0:
459,188,123144,1,0,0:0:0:0:
488,160,123224,1,0,0:0:0:0:
490,119,123305,1,0,0:0:0:0:
462,88,123385,1,0,0:0:0:0:
422,85,123465,1,0,0:0:0:0:
256,192,123625,12,0,127957,0:0:0:0:
