osu file format v14

[General]
AudioFilename: 2.mp3
AudioLeadIn: 0
PreviewTime: 71635
Countdown: 0
SampleSet: Soft
StackLeniency: 0.7
Mode: 0
LetterboxInBreaks: 0
EpilepsyWarning: 1
WidescreenStoryboard: 0

[Editor]
DistanceSpacing: 0.9
BeatDivisor: 4
GridSize: 4
TimelineZoom: 1.8

[Metadata]
Title:Movements Feat. MaHi (Original Mix) (Speed Up Ver.)
TitleUnicode:Movements Feat. MaHi (Original Mix) (Speed Up Ver.)
Artist:MitiS
ArtistUnicode:MitiS
Creator:-[ Asuna ]-
Version:Joey's Insane
Source:
Tags:FlandreScarlet- Serena- AnreFM Path to the Horizon Valentina Remenar CLSW Fort [ Joey ] Game Kin
BeatmapID:531556
BeatmapSetID:183132

[Difficulty]
HPDrainRate:7
CircleSize:4
OverallDifficulty:7.5
ApproachRate:9
SliderMultiplier:2
SliderTickRate:1

[Events]
//Background and Video events
0,0,"Background.jpg",0,0
//Break Periods
2,41526,45848
//Storyboard Layer 0 (Background)
//Storyboard Layer 1 (Fail)
//Storyboard Layer 2 (Pass)
//Storyboard Layer 3 (Foreground)
Sprite,Foreground,Centre,"SB/OpticalFlare.png",320,240 M,0,41326,,320,157 F,0,41326,41406,0,1 V,0,41326,41406,0.1,0.1,0.9340653,1.049677 F,0,41406,51273,1 V,0,41406,51273,0.9340653,1.049677,0.9423233,1.066193 V,0,51273,51433,0.9423233,1.066193,1.024904,1.24787 F,0,51273,51593,1,0 V,0,51433,51593,1.024904,1.24787,0.1,0.1
Sprite,Foreground,Centre,"SB/Flare2.png",320,240 M,0,41326,,319,159 F,0,41326,41406,0,1 S,0,41326,41406,0.1,1.181807 R,0,41326,51593,-1.932387,-1.816774 P,0,41406,,A F,0,41406,50952,1 S,0,41406,51593,1.181807 F,0,50952,51593,1,0
Sprite,Foreground,Centre,"SB/Mapped.png",320,240 P,0,42289,,A F,0,42289,42609,0,0.9 V,1,42289,42609,0.01,0.7687742,0.8432258,0.7687742 M,0,42289,51593,231,109,203,109 V,0,42609,51273,0.8432258,0.7687742 F,0,51273,51593,0.9,0
Sprite,Foreground,Centre,"SB/Joey.png",320,240 P,0,43572,,A F,0,43572,43893,0,0.9 V,1,43572,43893,0.01,0.7687742,0.8432258,0.7687742 M,0,43572,51593,361,202,405,202 V,0,43893,51593,0.8432258,0.7687742 F,0,51273,51593,0.9,0
Sprite,Foreground,Centre,"SB/highlight.png",320,240 M,0,51593,,334,258 S,0,51593,,0.9028968 P,0,51593,,A F,0,51593,51754,1,0
Sprite,Foreground,Centre,"SB/highlight.png",320,240 M,0,51754,,271,155 F,0,51754,,0.8746106 S,0,51754,,0.9028968 P,0,51754,,A F,0,51754,51914,0.8746106,0
Sprite,Foreground,Centre,"SB/highlight.png",320,240 M,0,51914,,331,251 S,0,51914,,0.9028968 P,0,51914,,A F,0,51914,52075,0.75,0
Sprite,Foreground,Centre,"SB/highlight.png",320,240 M,0,52075,,385,157 S,0,52075,,0.9028968 P,0,52075,,A F,0,52075,52235,0.6246106,0
Sprite,Foreground,Centre,"SB/highlight.png",320,240 S,0,52235,,0.9028968 P,0,52235,,A M,0,52235,52396,333,249,333,353 F,0,52235,52396,0.5,0.3746106 F,0,52396,52556,0.3746106,0
Sprite,Foreground,Centre,"SB/highlight.png",320,240 S,0,52556,,0.9028968 P,0,52556,,A M,0,52556,52797,164,287,166,174 F,0,52556,52877,0.25,0
Sprite,Foreground,Centre,"SB/highlight.png",320,240 M,0,54160,,451,132 S,0,54160,,0.9028968 P,0,54160,,A F,0,54160,54321,1,0
Sprite,Foreground,Centre,"SB/highlight.png",320,240 M,0,54321,,340,170 F,0,54321,,0.8746106 S,0,54321,,0.9028968 P,0,54321,,A F,0,54321,54481,0.8746106,0
Sprite,Foreground,Centre,"SB/highlight.png",320,240 M,0,54481,,513,230 S,0,54481,,0.9028968 P,0,54481,,A F,0,54481,54642,0.75,0
Sprite,Foreground,Centre,"SB/highlight.png",320,240 M,0,54642,,333,159 S,0,54642,,0.9028968 P,0,54642,,A F,0,54642,54802,0.6246106,0
Sprite,Foreground,Centre,"SB/highlight.png",320,240 S,0,54802,,0.9028968 P,0,54802,,A M,0,54802,54962,388,283,388,371 F,0,54802,54962,0.5,0.3753894 F,0,54962,55123,0.3753894,0
Sprite,Foreground,Centre,"SB/highlight.png",320,240 S,0,55123,,0.9028968 P,0,55123,,A M,0,55123,55283,230,322,234,243 F,0,55123,55283,0.25,0.1253894 F,0,55283,55444,0.1253894,0
Sprite,Foreground,Centre,"SB/highlight.png",320,240 S,0,56727,,0.9028968 P,0,56727,,A M,0,56727,56807,235,381,182,382 F,0,56727,56888,1,0.8746106 M,0,56807,56888,182,382,152,398 F,0,56888,57048,0.8746106,0
Sprite,Foreground,Centre,"SB/highlight.png",320,240 S,0,57048,,0.9028968 P,0,57048,,A M,0,57048,57128,205,280,188,243 F,0,57048,57208,0.75,0.6253894 M,0,57128,57208,188,243,196,206 F,0,57208,57369,0.6253894,0
Sprite,Foreground,Centre,"SB/highlight.png",320,240 M,0,57369,,92,195 F,0,57369,,0.5 S,0,57369,,0.9028968 P,0,57369,,A F,0,57369,57529,0.5,0
Sprite,Foreground,Centre,"SB/highlight.png",320,240 P,0,57449,,A M,0,57529,,292,207 S,0,57529,,0.9028968 F,0,57529,57690,0.3753894,0
Sprite,Foreground,Centre,"SB/highlight.png",320,240 M,0,57609,,287,199 S,0,57609,,0.9028968 P,0,57609,,A F,0,57609,57690,0.3130841,0
Sprite,Foreground,Centre,"SB/highlight.png",320,240 S,0,57690,,0.9028968 P,0,57690,,A M,0,57690,57770,285,199,296,160 F,0,57690,57850,0.25,0.1253894 M,0,57770,57850,296,160,299,127 F,0,57850,58011,0.1253894,0
Sprite,Foreground,Centre,"SB/highlight.png",320,240 S,0,59294,,0.9028968 P,0,59294,,A M,0,59294,59374,419,320,430,290 F,0,59294,59454,1,0.8752923 M,0,59374,59454,430,290,420,245 F,0,59454,59615,0.8752923,0
Sprite,Foreground,Centre,"SB/highlight.png",320,240 S,0,59615,,0.9028968 P,0,59615,,A M,0,59615,59695,280,284,242,270 F,0,59615,59775,0.7498052,0.6250975 M,0,59695,59775,242,270,217,240 F,0,59775,59936,0.6250975,0
Sprite,Foreground,Centre,"SB/highlight.png",320,240 M,0,59936,,116,255 F,0,59936,,0.4996103 S,0,59936,,0.9028968 P,0,59936,,A F,0,59936,60096,0.4996103,0
Sprite,Foreground,Centre,"SB/highlight.png",320,240 M,0,60096,,301,203 S,0,60096,,0.9028968 P,0,60096,,A F,0,60096,60256,0.3749026,0
Sprite,Foreground,Centre,"SB/highlight.png",320,240 M,0,60176,,296,200 S,0,60176,,0.9028968 P,0,60176,,A F,0,60176,60337,0.3125487,0
Sprite,Foreground,Centre,"SB/highlight.png",320,240 M,0,60256,,294,195 S,0,60256,,0.9028968 P,0,60256,,A F,0,60256,60417,0.2501948,0
Sprite,Foreground,Centre,"SB/highlight.png",320,240 M,0,60417,,210,111 S,0,60417,,0.9028968 P,0,60417,,A F,0,60417,60577,0.1247077,0
Sprite,Foreground,Centre,"SB/highlight.png",320,240 M,0,61861,,505,195 S,0,61861,,0.9028968 P,0,61861,,A F,0,61861,62021,1,0
Sprite,Foreground,Centre,"SB/highlight.png",320,240 M,0,62021,,433,292 S,0,62021,,0.9028968 P,0,62021,,A F,0,62021,62182,0.8752923,0
Sprite,Foreground,Centre,"SB/highlight.png",320,240 M,0,62182,,485,109 S,0,62182,,0.9028968 P,0,62182,,A F,0,62182,62342,0.7498052,0
Sprite,Foreground,Centre,"SB/highlight.png",320,240 M,0,62342,,295,199 S,0,62342,,0.9028968 P,0,62342,,A F,0,62342,62502,0.6250975,0
Sprite,Foreground,Centre,"SB/highlight.png",320,240 S,0,62502,,0.9028968 P,0,62502,,A M,0,62502,62663,289,313,311,399 F,0,62502,62663,0.5003897,0.3812172 F,0,62663,62823,0.3812172,0
Sprite,Foreground,Centre,"SB/highlight.png",320,240 F,0,62823,,0.2501948 S,0,62823,,0.9028968 P,0,62823,,A M,0,62823,62904,154,375,121,344 F,0,62823,63144,0.2501948,0 M,0,62904,62984,121,344,96,308 M,0,62984,63064,96,308,91,271
Sprite,Foreground,Centre,"SB/highlight.png",320,240 M,0,64428,,303,94 S,0,64428,,0.9028968 P,0,64428,,A F,0,64428,64588,1,0
Sprite,Foreground,Centre,"SB/highlight.png",320,240 M,0,64588,,422,150 S,0,64588,,0.9028968 P,0,64588,,A F,0,64588,64748,0.8752923,0
Sprite,Foreground,Centre,"SB/highlight.png",320,240 S,0,64748,,0.9028968 P,0,64748,,A M,0,64748,64829,280,218,237,241 F,0,64748,64909,0.7505845,0.6250974 M,0,64829,64909,237,241,190,243 F,0,64909,65069,0.6250974,0
Sprite,Foreground,Centre,"SB/highlight.png",320,240 M,0,65069,,218,133 S,0,65069,,0.9028968 P,0,65069,,A F,0,65069,65230,0.5003897,0
Sprite,Foreground,Centre,"SB/highlight.png",320,240 M,0,65230,,117,289 S,0,65230,,0.9028968 P,0,65230,,A F,0,65230,65390,0.3749026,0
Sprite,Foreground,Centre,"SB/highlight.png",320,240 M,0,65310,,114,296 S,0,65310,,0.9028968 P,0,65310,,A F,0,65310,65470,0.3125487,0
Sprite,Foreground,Centre,"SB/highlight.png",320,240 M,0,65390,,115,293 S,0,65390,,0.9028968 P,0,65390,,A F,0,65390,65551,0.2501948,0
Sprite,Foreground,Centre,"SB/highlight.png",320,240 M,0,65551,,112,169 S,0,65551,,0.9028968 P,0,65551,,A F,0,65551,65711,0.1247077,0
Sprite,Foreground,Centre,"SB/highlight.png",320,240 M,0,66994,,536,138 S,0,66994,,0.9028968 P,0,66994,,A F,0,66994,67155,1,0
Sprite,Foreground,Centre,"SB/highlight.png",320,240 M,0,67155,,453,333 F,0,67155,,0.8746106 S,0,67155,,0.9028968 P,0,67155,,A F,0,67155,67315,0.8746106,0
Sprite,Foreground,Centre,"SB/highlight.png",320,240 M,0,67315,,430,163 S,0,67315,,0.9028968 P,0,67315,,A F,0,67315,67476,0.75,0
Sprite,Foreground,Centre,"SB/highlight.png",320,240 M,0,67476,,580,236 S,0,67476,,0.9028968 P,0,67476,,A F,0,67476,67636,0.6246106,0
Sprite,Foreground,Centre,"SB/highlight.png",320,240 S,0,68278,,0.9028968 P,0,68278,,A M,0,68278,68358,275,382,299,360 F,0,68278,68438,1,0.7507788 M,0,68358,68438,299,360,344,349 F,0,68438,68599,0.7507788,0
Sprite,Foreground,Centre,"SB/highlight.png",320,240 S,0,68599,,0.9028968 P,0,68599,,A M,0,68599,68759,193,290,179,200 F,0,68599,68759,0.5,0.2507788 F,0,68759,68920,0.2507788,0
Sprite,Foreground,Centre,"SB/highlight.png",320,240 S,0,69561,,0.9028968 P,0,69561,,A M,0,69561,69642,481,350,488,318 F,0,69561,69802,1,0.6246106 M,0,69642,69722,488,318,475,363 M,0,69722,69802,475,363,480,329 F,0,69802,69962,0.6246106,0
Sprite,Foreground,Centre,"SB/highlight.png",320,240 F,0,69882,,0.5 S,0,69882,,0.9028968 P,0,69882,,A M,0,69882,69962,506,308,550,294 F,0,69882,70123,0.5,0.1246106 M,0,69962,70043,550,294,505,315 M,0,70043,70123,505,315,551,290 F,0,70123,70203,0.1246106,0
//Storyboard Sound Samples

[TimingPoints]
257,320.855614973262,4,2,0,100,1,0
20791,-125,4,2,3,60,0,0
31059,-111.111111111111,4,2,0,70,0,0
31219,-111.111111111111,4,2,2,70,0,0
31540,-111.111111111111,4,2,0,70,0,0
31861,-111.111111111111,4,2,0,70,0,0
32021,-111.111111111111,4,2,2,70,0,0
32342,-111.111111111111,4,2,0,70,0,0
32663,-111.111111111111,4,2,2,70,0,0
32823,-111.111111111111,4,2,0,70,0,0
33144,-111.111111111111,4,2,0,70,0,0
33305,-111.111111111111,4,2,2,70,0,0
33625,-111.111111111111,4,2,0,70,0,0
33946,-111.111111111111,4,2,2,70,0,0
34107,-111.111111111111,4,2,0,70,0,0
34428,-111.111111111111,4,2,0,70,0,0
34588,-111.111111111111,4,2,2,70,0,0
34909,-111.111111111111,4,2,0,70,0,0
35069,-111.111111111111,4,2,2,70,0,0
35551,-111.111111111111,4,2,0,70,0,0
35711,-111.111111111111,4,2,2,70,0,0
36192,-111.111111111111,4,2,0,70,0,0
36513,-111.111111111111,4,2,2,70,0,0
36674,-111.111111111111,4,2,0,70,0,0
36994,-111.111111111111,4,2,2,70,0,0
37476,-111.111111111111,4,2,0,70,0,0
37797,-111.111111111111,4,2,2,70,0,0
37957,-111.111111111111,4,2,0,70,0,0
38278,-111.111111111111,4,2,2,70,0,0
38759,-111.111111111111,4,2,0,70,0,0
38920,-111.111111111111,4,2,2,70,0,0
39240,-111.111111111111,4,2,0,70,0,0
39561,-111.111111111111,4,2,2,70,0,0
40043,-111.111111111111,4,2,0,70,0,0
40203,-111.111111111111,4,2,2,70,0,0
40684,-111.111111111111,4,2,0,70,0,0
40845,-111.111111111111,4,2,2,70,0,0
51593,-125,4,2,0,60,0,0
51754,-125,4,2,2,60,0,0
52235,-125,4,2,0,60,0,0
52396,-125,4,2,2,60,0,0
52877,-125,4,2,0,60,0,0
53037,-125,4,2,2,60,0,0
53519,-125,4,2,0,60,0,0
53679,-125,4,2,2,60,0,0
54160,-125,4,2,0,60,0,0
54321,-125,4,2,2,60,0,0
54802,-125,4,2,0,60,0,0
54962,-125,4,2,2,60,0,0
55444,-125,4,2,0,60,0,0
55604,-125,4,2,2,60,0,0
56085,-125,4,2,0,60,0,0
56246,-125,4,2,2,60,0,0
56727,-125,4,2,0,60,0,0
56888,-125,4,2,2,60,0,0
57369,-125,4,2,0,60,0,0
57529,-125,4,2,2,60,0,0
58011,-125,4,2,0,60,0,0
58171,-125,4,2,2,60,0,0
58652,-125,4,2,0,60,0,0
58813,-125,4,2,2,60,0,0
59294,-125,4,2,0,60,0,0
59454,-125,4,2,2,60,0,0
59936,-125,4,2,0,60,0,0
60096,-125,4,2,2,60,0,0
60577,-125,4,2,0,60,0,0
60738,-125,4,2,2,60,0,0
61219,-125,4,2,0,60,0,0
61379,-125,4,2,2,60,0,0
61861,-111.111111111111,4,2,0,60,0,0
62021,-111.111111111111,4,2,2,60,0,0
62502,-111.111111111111,4,2,0,60,0,0
62663,-111.111111111111,4,2,2,60,0,0
63144,-111.111111111111,4,2,0,60,0,0
63305,-111.111111111111,4,2,2,60,0,0
63786,-111.111111111111,4,2,0,60,0,0
63946,-111.111111111111,4,2,2,60,0,0
64428,-111.111111111111,4,2,0,60,0,0
64588,-111.111111111111,4,2,2,60,0,0
65069,-111.111111111111,4,2,0,60,0,0
65230,-111.111111111111,4,2,2,60,0,0
65711,-111.111111111111,4,2,0,60,0,0
65871,-111.111111111111,4,2,2,60,0,0
66353,-111.111111111111,4,2,0,60,0,0
66513,-111.111111111111,4,2,2,60,0,0
66994,-111.111111111111,4,2,0,60,0,0
67155,-111.111111111111,4,2,2,60,0,0
67636,-111.111111111111,4,2,0,60,0,0
67797,-111.111111111111,4,2,2,60,0,0
68278,-111.111111111111,4,2,0,60,0,0
68438,-111.111111111111,4,2,2,60,0,0
68920,-111.111111111111,4,2,0,60,0,0
69080,-111.111111111111,4,2,2,60,0,0
72128,-100,4,2,2,100,0,1
72289,-100,4,2,4,100,0,1
72609,-100,4,2,2,100,0,1
72770,-100,4,2,4,100,0,1
72930,-100,4,2,2,100,0,1
73091,-100,4,2,4,100,0,1
73412,-100,4,2,2,100,0,1
73572,-100,4,2,4,100,0,1
73893,-100,4,2,2,100,0,1
74053,-100,4,2,4,100,0,1
74214,-100,4,2,2,100,0,1
74374,-100,4,2,4,100,0,1
74695,-100,4,2,2,100,0,1
74855,-100,4,2,4,100,0,1
75176,-100,4,2,2,100,0,1
75337,-100,4,2,4,100,0,1
75497,-100,4,2,2,100,0,1
75658,-100,4,2,4,100,0,1
75978,-100,4,2,2,100,0,1
76139,-100,4,2,4,100,0,1
76460,-100,4,2,2,100,0,1
76620,-100,4,2,4,100,0,1
76781,-100,4,2,2,100,0,1
76941,-100,4,2,4,100,0,1
77262,-100,4,2,2,100,0,1
77422,-100,4,2,4,100,0,1
77743,-100,4,2,2,100,0,1
77904,-100,4,2,4,100,0,1
78064,-100,4,2,2,100,0,1
78224,-100,4,2,4,100,0,1
78545,-100,4,2,2,100,0,1
78706,-100,4,2,4,100,0,1
79027,-100,4,2,2,100,0,1
79187,-100,4,2,4,100,0,1
79347,-100,4,2,2,100,0,1
79508,-100,4,2,4,100,0,1
79829,-100,4,2,2,100,0,1
79989,-100,4,2,4,100,0,1
80310,-100,4,2,2,100,0,1
80470,-100,4,2,4,100,0,1
80631,-100,4,2,2,100,0,1
80791,-100,4,2,4,100,0,1
81112,-100,4,2,2,100,0,1
81273,-100,4,2,4,100,0,1
81593,-100,4,2,2,100,0,1
81754,-100,4,2,4,100,0,1
81914,-100,4,2,2,100,0,1
82075,-100,4,2,4,100,0,1
82396,-100,4,2,2,100,0,1
82556,-100,4,2,4,100,0,1
82877,-100,4,2,2,100,0,1
83037,-100,4,2,4,100,0,1
83198,-100,4,2,2,100,0,1
83358,-100,4,2,4,100,0,1
83679,-100,4,2,2,100,0,1
83759,-100,4,2,4,100,0,1
84160,-100,4,2,2,100,0,1
84321,-100,4,2,4,100,0,1
84481,-100,4,2,2,100,0,1
84642,-100,4,2,4,100,0,1
84962,-100,4,2,2,100,0,1
85123,-100,4,2,4,100,0,1
85444,-100,4,2,2,100,0,1
85604,-100,4,2,4,100,0,1
85765,-100,4,2,2,100,0,1
85925,-100,4,2,4,100,0,1
86246,-100,4,2,2,100,0,1
86406,-100,4,2,4,100,0,1
86727,-100,4,2,2,100,0,1
86888,-100,4,2,4,100,0,1
87048,-100,4,2,2,100,0,1
87208,-100,4,2,4,100,0,1
87529,-100,4,2,2,100,0,1
87690,-100,4,2,4,100,0,1
88011,-100,4,2,2,100,0,1
88171,-100,4,2,4,100,0,1
88331,-100,4,2,2,100,0,1
88492,-100,4,2,4,100,0,1
88813,-100,4,2,2,100,0,1
88973,-100,4,2,4,100,0,1
89294,-100,4,2,2,100,0,1
89454,-100,4,2,4,100,0,1
89615,-100,4,2,2,100,0,1
89775,-100,4,2,4,100,0,1
90096,-100,4,2,2,100,0,1
90256,-100,4,2,4,100,0,1
90577,-100,4,2,2,100,0,1
90738,-100,4,2,4,100,0,1
90898,-100,4,2,2,100,0,1
91059,-100,4,2,4,100,0,1
91379,-100,4,2,4,100,0,1
92663,-166.666666666667,4,2,2,60,0,0
93946,-100,4,2,2,100,0,1
93946,-100,4,2,2,100,0,1
94107,-100,4,2,4,100,0,1
94428,-100,4,2,2,100,0,1
94588,-100,4,2,4,100,0,1
95230,-100,4,2,2,100,0,1
95390,-100,4,2,4,100,0,1
95711,-100,4,2,2,100,0,1
95871,-100,4,2,4,100,0,1
96032,-100,4,2,2,100,0,1
96192,-100,4,2,4,100,0,1
96513,-100,4,2,2,100,0,1
96674,-100,4,2,4,100,0,1
96994,-100,4,2,2,100,0,1
97155,-100,4,2,4,100,0,1
97315,-100,4,2,2,100,0,1
97476,-100,4,2,4,100,0,1
97797,-100,4,2,2,100,0,1
97957,-100,4,2,4,100,0,1
98278,-100,4,2,2,100,0,1
98438,-100,4,2,4,100,0,1
98599,-100,4,2,2,100,0,1
98759,-100,4,2,4,100,0,1
99080,-100,4,2,2,100,0,1
99240,-100,4,2,4,100,0,1
99561,-100,4,2,2,100,0,1
99722,-100,4,2,4,100,0,1
99882,-100,4,2,2,100,0,1
100043,-100,4,2,4,100,0,1
100363,-100,4,2,2,100,0,1
100524,-100,4,2,4,100,0,1
100845,-100,4,2,2,100,0,1
101005,-100,4,2,4,100,0,1
101166,-100,4,2,2,100,0,1
101326,-100,4,2,4,100,0,1
101647,-100,4,2,2,100,0,1
101807,-100,4,2,4,100,0,1
102128,-100,4,2,2,100,0,1
102289,-100,4,2,4,100,0,1
102449,-100,4,2,2,100,0,1
102609,-100,4,2,4,100,0,1
102930,-100,4,2,2,100,0,1
103091,-100,4,2,4,100,0,1
103412,-100,4,2,2,100,0,1
103572,-100,4,2,4,100,0,1
103732,-100,4,2,2,100,0,1
103893,-100,4,2,4,100,0,1
104214,-100,4,2,2,100,0,1
104374,-100,4,2,4,100,0,1
104695,-100,4,2,2,100,0,1
104855,-100,4,2,4,100,0,1
105016,-100,4,2,2,100,0,1
105176,-100,4,2,4,100,0,1
105497,-100,4,2,2,100,0,1
105658,-100,4,2,4,100,0,1
105978,-100,4,2,2,100,0,1
106139,-100,4,2,4,100,0,1
106299,-100,4,2,2,100,0,1
106460,-100,4,2,4,100,0,1
106781,-100,4,2,2,100,0,1
106941,-100,4,2,4,100,0,1
107262,-100,4,2,2,100,0,1
107422,-100,4,2,4,100,0,1
107583,-100,4,2,2,100,0,1
107743,-100,4,2,4,100,0,1
108064,-100,4,2,2,100,0,1
108224,-100,4,2,4,100,0,1
108545,-100,4,2,2,100,0,1
108706,-100,4,2,4,100,0,1
108866,-100,4,2,2,100,0,1
109027,-100,4,2,4,100,0,1
109347,-100,4,2,2,100,0,1
109508,-100,4,2,4,100,0,1
109829,-100,4,2,2,100,0,1
109989,-100,4,2,4,100,0,1
110150,-100,4,2,2,100,0,1
110310,-100,4,2,4,100,0,1
110631,-100,4,2,2,100,0,1
110791,-100,4,2,4,100,0,1
111112,-100,4,2,2,100,0,1
111273,-100,4,2,4,100,0,1
111433,-100,4,2,2,100,0,1
111593,-100,4,2,4,100,0,1
111914,-100,4,2,2,100,0,1
114481,-125,4,2,2,50,0,0
124748,-125,4,2,2,40,0,0
126032,-125,4,2,2,30,0,0
127315,-125,4,2,2,20,0,0
128599,-125,4,2,2,5,0,0

[Colours]
Combo1 : 248,97,160
Combo2 : 27,166,241
Combo3 : 236,167,245
Combo4 : 105,82,199

[HitObjects]
46,234,20791,6,0,P|66:270|104:293,1,80,0|0,0:0|0:0,0:0:0:0:
202,250,21112,1,8,0:0:0:0:
294,186,21273,2,0,P|363:142|460:176,1,160,0|0,0:0|0:0,0:0:0:0:
382,255,21754,1,8,0:0:0:0:
282,305,21914,1,0,0:0:0:0:
202,250,22075,6,0,P|169:211|155:162,2,80,0|0|8,0:0|0:0|0:0,0:0:0:0:
192,118,22556,2,0,P|118:122|88:206,1,160,0|0,0:0|0:0,0:0:0:0:
202,250,23037,1,8,0:0:0:0:
299,205,23198,1,0,0:0:0:0:
219,43,23358,6,0,L|185:136,1,80,0|0,0:0|0:0,0:0:0:0:
74,275,23679,2,0,L|56:172,1,80,8|0,0:0|0:0,0:0:0:0:
203,250,24000,2,0,L|307:261,1,80,0|0,0:0|0:0,0:0:0:0:
444,331,24321,2,0,L|331:343,1,80,8|0,0:0|0:0,0:0:0:0:
256,370,24642,5,0,0:0:0:0:
283,258,24802,1,0,0:0:0:0:
365,339,24962,1,8,0:0:0:0:
247,378,25123,1,0,0:0:0:0:
283,248,25283,2,0,L|283:158,1,80,0|0,0:0|0:0,0:0:0:0:
396,56,25604,2,0,L|396:149,1,80,8|0,0:0|0:0,0:0:0:0:
483,205,25925,5,0,0:0:0:0:
394,272,26085,1,0,0:0:0:0:
283,248,26246,1,8,0:0:0:0:
195,178,26406,2,0,P|123:158|39:206,1,160,0|0,0:0|0:0,0:0:0:0:
132,269,26888,1,8,0:0:0:0:
49,193,27048,1,0,0:0:0:0:
231,265,27208,6,0,P|270:271|335:248,1,80,0|0,0:0|0:0,0:0:0:0:
272,157,27529,1,8,0:0:0:0:
430,137,27690,2,0,L|405:295,1,160,0|0,0:0|0:0,0:0:0:0:
234,345,28171,2,0,L|231:252,1,80,8|0,0:0|0:0,0:0:0:0:
272,157,28492,5,0,0:0:0:0:
228,53,28652,1,0,0:0:0:0:
350,97,28813,1,8,0:0:0:0:
157,120,28973,1,0,0:0:0:0:
226,33,29134,5,0,0:0:0:0:
286,170,29294,1,0,0:0:0:0:
145,112,29454,1,8,0:0:0:0:
360,107,29615,1,0,0:0:0:0:
252,282,29775,6,0,B|262:392,1,80
368,187,30096,2,0,B|359:86,1,80,8|0,0:0|0:0,0:0:0:0:
363,302,30417,2,0,B|449:294,1,80,0|0,0:0|0:0,0:0:0:0:
267,170,30738,2,0,B|178:179,1,80,8|0,0:0|0:0,0:0:0:0:
128,348,31059,6,0,P|129:295|103:257,1,89.9999972534181,0|0,0:0|0:0,0:0:0:0:
41,328,31379,1,8,0:0:0:0:
243,341,31540,2,0,P|237:251|179:172,1,179.999994506836
179,48,32021,1,8,0:0:0:0:
48,77,32182,1,0,0:0:0:0:
187,178,32342,6,0,P|264:223|352:214,1,179.999994506836,0|8,0:0|0:0,0:0:0:0:
168,278,32823,2,0,P|102:237|-11:250,1,179.999994506836,0|0,0:0|0:0,0:0:0:0:
94,356,33305,1,8,0:0:0:0:
188,179,33465,1,0,0:0:0:0:
365,224,33625,2,0,L|247:238,1,89.9999972534181
179,170,33946,1,8,0:0:0:0:
364,317,34107,2,0,P|419:301|446:174,1,179.999994506836,0|0,0:0|0:0,0:0:0:0:
392,84,34588,5,8,0:0:0:0:
268,59,34748,1,0,0:0:0:0:
195,187,34909,2,0,L|295:172,1,89.9999972534181,0|0,0:0|0:0,0:0:0:0:
401,229,35230,1,8,0:0:0:0:
482,144,35390,1,0,0:0:0:0:
292,225,35551,2,0,P|286:263|296:339,1,89.9999972534181,0|0,0:0|0:0,0:0:0:0:
293,225,35871,2,0,P|292:168|272:115,1,89.9999972534181,8|0,0:0|0:0,0:0:0:0:
186,326,36192,6,0,B|228:352|228:352|379:366,1,179.999994506836,0|8,0:0|0:0,0:0:0:0:
401,229,36674,2,0,P|380:203|372:52,1,179.999994506836,0|0,0:0|0:0,0:0:0:0:
244,114,37155,2,0,L|142:98,1,89.9999972534181,8|0,0:0|0:0,0:0:0:0:
252,223,37476,6,0,L|346:237,1,89.9999972534181,0|0,0:0|0:0,0:0:0:0:
212,27,37797,1,8,0:0:0:0:
169,198,37957,2,0,P|76:232|-5:205,1,179.999994506836,0|0,0:0|0:0,0:0:0:0:
79,99,38438,1,8,0:0:0:0:
392,255,38759,6,0,L|392:353,1,89.9999972534181
488,266,39080,1,8,0:0:0:0:
293,330,39240,2,0,P|200:342|108:320,1,179.999994506836,0|0,0:0|0:0,0:0:0:0:
89,151,39722,1,8,0:0:0:0:
19,240,39882,1,0,0:0:0:0:
189,185,40043,6,0,P|234:179|292:143,1,89.9999972534181
303,42,40363,2,0,P|249:47|210:71,1,89.9999972534181,8|0,0:0|0:0,0:0:0:0:
296,243,40684,2,0,P|291:184|267:153,1,89.9999972534181
397,257,41005,2,0,P|401:305|435:353,1,89.9999972534181,8|0,0:0|0:0,0:0:0:0:
387,163,41326,1,4,0:0:0:0:
256,192,46460,12,0,51273,0:0:0:0:
256,192,51593,5,4,0:0:0:0:
192,94,51754,1,0,0:0:0:0:
256,200,51914,1,8,0:0:0:0:
314,95,52075,1,0,0:0:0:0:
256,208,52235,6,0,L|256:308,1,80,0|0,0:0|0:0,0:0:0:0:
88,228,52556,2,0,L|88:104,1,120,8|0,0:0|0:0,0:0:0:0:
88,88,52877,5,0,0:0:0:0:
0,172,53037,1,0,0:0:0:0:
182,173,53198,2,0,P|192:123|189:75,1,80,8|0,0:0|0:0,0:0:0:0:
88,228,53519,2,0,P|78:278|84:322,1,80,0|0,0:0|0:0,0:0:0:0:
319,309,53839,2,0,P|329:259|323:215,1,80,8|0,0:0|0:0,0:0:0:0:
377,79,54160,5,0,0:0:0:0:
268,112,54321,1,0,0:0:0:0:
440,172,54481,1,8,0:0:0:0:
255,100,54642,1,0,0:0:0:0:
314,229,54802,2,0,L|321:333,1,80
149,254,55123,2,0,L|155:159,1,80,8|0,0:0|0:0,0:0:0:0:
377,79,55444,6,0,L|456:68,1,80
242,85,55765,2,0,L|138:70,1,80,8|0,0:0|0:0,0:0:0:0:
350,167,56085,1,0,0:0:0:0:
304,26,56246,1,0,0:0:0:0:
263,169,56406,2,0,P|261:202|278:267,1,80,8|0,0:0|0:0,0:0:0:0:
155,320,56727,6,0,B|113:324|113:324|74:342,1,80
123,219,57048,2,0,B|113:177|113:177|120:130,1,80,8|0,0:0|0:0,0:0:0:0:
16,132,57369,1,0,0:0:0:0:
221,135,57529,1,0,0:0:0:0:
221,135,57609,1,0,0:0:0:0:
221,135,57690,2,0,P|231:82|215:34,1,80,8|0,0:0|0:0,0:0:0:0:
349,184,58011,6,0,L|379:298,1,80
239,317,58331,2,0,L|259:217,1,80,8|0,0:0|0:0,0:0:0:0:
330,75,58652,1,0,0:0:0:0:
349,185,58813,1,0,0:0:0:0:
452,80,58973,1,8,0:0:0:0:
222,134,59134,1,0,0:0:0:0:
350,262,59294,6,0,P|357:213|342:168,1,80
197,224,59615,2,0,P|158:204|135:165,1,80,8|0,0:0|0:0,0:0:0:0:
38,192,59936,1,0,0:0:0:0:
222,134,60096,1,0,0:0:0:0:
222,134,60176,1,0,0:0:0:0:
222,134,60256,1,8,0:0:0:0:
128,47,60417,1,0,0:0:0:0:
197,224,60577,6,0,P|241:229|283:223,1,80
375,327,60898,2,0,P|418:298|452:251,1,80,8|0,0:0|0:0,0:0:0:0:
430,126,61219,1,0,0:0:0:0:
444,267,61379,1,0,0:0:0:0:
325,140,61540,2,0,L|344:31,1,80,8|0,0:0|0:0,0:0:0:0:
430,126,61861,5,0,0:0:0:0:
359,226,62021,1,0,0:0:0:0:
417,43,62182,1,8,0:0:0:0:
222,133,62342,1,0,0:0:0:0:
214,251,62502,2,0,L|238:345,1,89.9999972534181
80,305,62823,2,0,P|33:263|19:181,1,134.999995880127,8|0,0:0|0:0,0:0:0:0:
23,180,63144,6,0,P|62:141|74:81,1,89.9999972534181
204,162,63465,2,0,L|217:278,1,89.9999972534181,8|0,0:0|0:0,0:0:0:0:
370,283,63786,1,0,0:0:0:0:
229,344,63946,1,0,0:0:0:0:
310,191,64107,2,0,L|322:92,1,89.9999972534181,8|0,0:0|0:0,0:0:0:0:
232,27,64428,5,0,0:0:0:0:
349,88,64588,1,0,0:0:0:0:
204,161,64748,2,0,P|163:178|115:177,1,89.9999972534181,8|0,0:0|0:0,0:0:0:0:
142,74,65069,1,0,0:0:0:0:
37,223,65230,1,0,0:0:0:0:
37,223,65310,1,0,0:0:0:0:
37,223,65390,1,8,0:0:0:0:
27,103,65551,1,0,0:0:0:0:
70,255,65711,6,0,L|84:362,1,89.9999972534181
182,196,66032,2,0,L|201:98,1,89.9999972534181,8|0,0:0|0:0,0:0:0:0:
292,309,66353,2,0,L|193:351,1,89.9999972534181
328,186,66674,2,0,L|427:177,1,89.9999972534181,8|0,0:0|0:0,0:0:0:0:
462,72,66994,5,0,0:0:0:0:
380,267,67155,1,0,0:0:0:0:
353,92,67315,1,8,0:0:0:0:
512,170,67476,1,0,0:0:0:0:
329,186,67636,2,0,L|221:180,1,89.9999972534181
73,349,67957,2,0,P|119:359|195:330,1,89.9999972534181,8|0,0:0|0:0,0:0:0:0:
184,338,68198,1,0,0:0:0:0:
203,319,68278,6,0,P|238:289|290:278,1,89.9999972534181
115,229,68599,2,0,L|105:119,1,89.9999972534181,8|0,0:0|0:0,0:0:0:0:
185,67,68920,1,0,0:0:0:0:
14,191,69080,1,0,0:0:0:0:
211,174,69240,2,0,L|326:161,1,89.9999972534181,8|0,0:0|0:0,0:0:0:0:
406,298,69561,6,0,L|421:237,3,44.999998626709,0|0|0|0,0:0|0:0|0:0|0:0,0:0:0:0:
439,238,69882,2,0,L|476:213,3,44.999998626709,0|0|0|0,0:0|0:0|0:0|0:0,0:0:0:0:
492,190,70203,5,0,0:0:0:0:
496,163,70283,1,0,0:0:0:0:
496,136,70363,1,0,0:0:0:0:
487,110,70444,1,0,0:0:0:0:
471,87,70524,1,0,0:0:0:0:
447,73,70604,1,0,0:0:0:0:
421,63,70684,1,0,0:0:0:0:
393,63,70765,1,0,0:0:0:0:
367,70,70845,5,0,0:0:0:0:
397,169,71005,1,0,0:0:0:0:
397,169,71085,1,0,0:0:0:0:
397,169,71166,1,0,0:0:0:0:
227,95,71326,1,0,0:0:0:0:
227,95,71406,1,0,0:0:0:0:
227,95,71486,1,0,0:0:0:0:
349,337,71647,1,0,0:0:0:0:
349,337,71727,1,0,0:0:0:0:
349,337,71807,1,8,0:0:0:0:
146,45,72128,6,0,P|131:90|155:158,1,100,2|0,0:0|0:0,0:0:0:0:
323,289,72449,2,0,P|333:228|311:176,1,100,8|2,0:0|0:0,0:0:0:0:
209,244,72770,1,0,0:0:0:0:
270,109,72930,1,2,0:0:0:0:
207,333,73091,2,0,P|138:302|122:223,1,150,8|0,0:0|0:0,0:0:0:0:
124,209,73412,6,0,P|122:154|72:96,1,100,2|0,0:0|0:0,0:0:0:0:
270,109,73732,2,0,L|380:79,1,100,8|2,0:0|0:0,0:0:0:0:
453,140,74053,1,0,0:0:0:0:
294,9,74214,1,0,0:0:0:0:
368,179,74374,2,0,P|376:236|356:308,1,100,8|0,0:0|0:0,0:0:0:0:
257,334,74695,5,2,0:0:0:0:
368,179,74855,1,0,0:0:0:0:
347,352,75016,1,8,0:0:0:0:
236,197,75176,1,2,0:0:0:0:
429,299,75337,2,0,P|478:278|512:230,1,100,0|2,0:0|0:0,0:0:0:0:
340,41,75658,2,0,P|331:106|390:196,1,150,8|0,0:0|0:0,0:0:0:0:
383,187,75978,6,0,P|443:160|485:168,1,100,2|0,0:0|0:0,0:0:0:0:
450,261,76299,1,8,0:0:0:0:
236,197,76460,2,0,P|189:154|192:23,1,200,2|2,0:0|0:0,0:0:0:0:
340,41,76941,1,8,0:0:0:0:
58,108,77101,1,0,0:0:0:0:
236,197,77262,6,0,L|352:197,1,100,2|0,0:0|0:0,0:0:0:0:
228,298,77583,2,0,L|94:298,1,100,8|2,0:0|0:0,0:0:0:0:
327,100,77904,2,0,L|430:101,1,100,0|2,0:0|0:0,0:0:0:0:
228,298,78224,2,0,P|142:243|158:128,1,200,8|2,0:0|0:0,0:0:0:0:
116,34,78706,5,0,0:0:0:0:
245,100,78866,2,0,P|241:186|205:226,1,100,8|2,0:0|0:0,0:0:0:0:
350,292,79187,2,0,L|463:272,1,100,0|2,0:0|0:0,0:0:0:0:
215,347,79508,2,0,L|87:323,1,100,8|0,0:0|0:0,0:0:0:0:
236,196,79829,5,2,0:0:0:0:
306,370,79989,1,0,0:0:0:0:
368,195,80150,1,8,0:0:0:0:
306,371,80310,1,2,0:0:0:0:
468,273,80470,2,0,B|477:225|477:225|467:171,1,100
289,271,80791,2,0,L|310:386,1,100,8|0,0:0|0:0,0:0:0:0:
368,195,81112,6,0,P|277:157|188:221,1,200,2|8,0:0|0:0,0:0:0:0:
34,235,81593,2,0,P|126:267|202:185,1,200,2|2,0:0|0:0,0:0:0:0:
290,271,82075,1,8,0:0:0:0:
104,166,82235,1,0,0:0:0:0:
269,92,82396,6,0,P|293:145|284:206,1,100,2|0,0:0|0:0,0:0:0:0:
395,71,82716,2,0,P|445:53|497:62,1,100,8|2,0:0|0:0,0:0:0:0:
291,185,83037,2,0,L|160:185,1,100,0|2,0:0|0:0,0:0:0:0:
105,352,83358,2,0,P|184:338|237:287,1,150,8|0,0:0|0:0,0:0:0:0:
244,277,83679,6,0,P|283:267|349:285,2,100,2|0|8,0:0|0:0|0:0,0:0:0:0:
291,370,84160,1,2,0:0:0:0:
428,234,84321,2,0,P|446:193|446:137,1,100,0|2,0:0|0:0,0:0:0:0:
286,33,84642,2,0,P|275:104|289:142,1,100,8|0,0:0|0:0,0:0:0:0:
429,234,84962,5,2,0:0:0:0:
244,277,85123,1,0,0:0:0:0:
375,139,85283,1,8,0:0:0:0:
350,335,85444,1,2,0:0:0:0:
462,150,85604,2,0,L|472:38,1,100,0|2,0:0|0:0,0:0:0:0:
326,233,85925,2,0,P|230:279|140:250,1,200,8|2,0:0|0:0,0:0:0:0:
221,140,86406,5,0,0:0:0:0:
375,139,86567,2,0,L|499:103,2,100,8|2|0,0:0|0:0|0:0,0:0:0:0:
297,66,87048,1,2,0:0:0:0:
415,222,87208,2,0,P|433:259|424:327,1,100,8|0,0:0|0:0,0:0:0:0:
243,351,87529,5,2,0:0:0:0:
293,229,87690,1,0,0:0:0:0:
109,361,87850,2,0,P|47:343|11:298,1,100,8|2,0:0|0:0,0:0:0:0:
27,168,88171,2,0,P|89:186|125:231,1,100,0|2,0:0|0:0,0:0:0:0:
31,59,88492,2,0,P|130:81|211:165,1,200,8|2,0:0|0:0,0:0:0:0:
207,331,88973,5,0,0:0:0:0:
294,229,89134,2,0,L|393:216,1,100,8|2,0:0|0:0,0:0:0:0:
306,317,89454,2,0,L|206:330,1,100,0|2,0:0|0:0,0:0:0:0:
352,130,89775,2,0,L|483:114,1,100,8|0,0:0|0:0,0:0:0:0:
294,229,90096,5,2,0:0:0:0:
155,209,90256,1,0,0:0:0:0:
108,76,90417,1,8,0:0:0:0:
23,187,90577,1,2,0:0:0:0:
239,119,90738,2,0,P|277:105|326:57,1,100,0|2,0:0|0:0,0:0:0:0:
155,209,91059,2,0,P|175:284|234:338,1,150,8|0,0:0|0:0,0:0:0:0:
239,338,91379,6,0,L|333:288,1,100
432,266,91700,2,0,L|326:326,1,100,8|0,0:0|0:0,0:0:0:0:
317,207,92021,2,0,L|413:152,1,100
478,81,92342,2,0,L|363:146,1,100,8|0,0:0|0:0,0:0:0:0:
243,142,92663,5,0,0:0:0:0:
160,129,92823,1,0,0:0:0:0:
114,200,92984,2,0,L|57:238,1,59.9999981689454
111,303,93305,2,0,L|59:336,1,59.9999981689454
198,218,93625,1,0,0:0:0:0:
198,218,93946,5,2,0:0:0:0:
127,51,94107,1,0,0:0:0:0:
303,173,94267,2,0,L|284:289,1,100,8|2,0:0|0:0,0:0:0:0:
250,86,94588,2,0,P|308:72|388:117,1,150
392,135,94909,6,0,P|399:189|435:235,1,100,8|0,0:0|0:0,0:0:0:0:
512,293,95230,1,2,0:0:0:0:
326,255,95390,1,0,0:0:0:0:
490,147,95551,1,8,0:0:0:0:
404,332,95711,1,2,0:0:0:0:
231,209,95871,2,0,B|178:203|178:203|119:220,1,100,0|2,0:0|0:0,0:0:0:0:
326,255,96192,2,0,P|341:193|253:99,1,200,8|2,0:0|0:0,0:0:0:0:
143,127,96674,5,0,0:0:0:0:
318,32,96834,1,8,0:0:0:0:
232,209,96994,2,0,P|169:253|48:206,1,200,2|0,0:0|0:0,0:0:0:0:
129,33,97476,2,0,P|149:82|143:129,1,100,8|0,0:0|0:0,0:0:0:0:
41,98,97797,5,2,0:0:0:0:
226,128,97957,1,0,0:0:0:0:
65,195,98117,1,8,0:0:0:0:
129,34,98278,1,2,0:0:0:0:
139,253,98438,2,0,L|107:356,1,100,0|2,0:0|0:0,0:0:0:0:
239,223,98759,2,0,P|291:199|288:54,1,200,8|2,0:0|0:0,0:0:0:0:
226,127,99240,5,0,0:0:0:0:
314,291,99401,2,0,L|424:312,1,100,8|2,0:0|0:0,0:0:0:0:
239,223,99722,2,0,L|134:246,1,100,0|2,0:0|0:0,0:0:0:0:
335,156,100043,2,0,L|442:176,1,100,8|0,0:0|0:0,0:0:0:0:
308,57,100363,5,2,0:0:0:0:
377,219,100524,1,0,0:0:0:0:
302,44,100684,1,8,0:0:0:0:
239,223,100845,1,2,0:0:0:0:
443,116,101005,2,0,P|472:74|475:23,1,100,0|2,0:0|0:0,0:0:0:0:
377,219,101326,2,0,P|348:261|342:377,1,150,8|0,0:0|0:0,0:0:0:0:
336,357,101647,6,0,P|273:355|216:324,1,100,2|0,0:0|0:0,0:0:0:0:
115,250,101968,2,0,L|28:300,2,100,8|2|0,0:0|0:0|0:0,0:0:0:0:
239,222,102449,1,2,0:0:0:0:
209,113,102609,2,0,L|93:97,1,100,8|0,0:0|0:0,0:0:0:0:
114,250,102930,5,2,0:0:0:0:
204,312,103091,1,0,0:0:0:0:
312,316,103251,1,8,0:0:0:0:
396,244,103412,1,2,0:0:0:0:
368,136,103572,2,0,P|360:104|380:28,1,100,0|2,0:0|0:0,0:0:0:0:
209,113,103893,2,0,P|115:139|31:90,1,200,8|2,0:0|0:0,0:0:0:0:
221,220,104374,5,0,0:0:0:0:
228,238,104454,1,0,0:0:0:0:
235,257,104535,2,0,B|284:280|284:280|320:327,1,100,8|2,0:0|0:0,0:0:0:0:
129,319,104855,2,0,L|13:268,1,100,0|2,0:0|0:0,0:0:0:0:
58,150,105176,1,8,0:0:0:0:
235,257,105337,1,0,0:0:0:0:
210,113,105497,6,0,P|175:69|172:9,1,100,2|0,0:0|0:0,0:0:0:0:
150,221,105818,2,0,L|124:337,1,100,8|2,0:0|0:0,0:0:0:0:
58,150,106139,2,0,L|32:266,1,100,0|2,0:0|0:0,0:0:0:0:
123,79,106460,6,0,P|211:20|292:73,1,200,8|2,0:0|0:0,0:0:0:0:
282,206,106941,1,0,0:0:0:0:
150,221,107101,2,0,L|40:209,1,100,8|2,0:0|0:0,0:0:0:0:
331,121,107422,2,0,P|367:146|384:207,1,100,0|2,0:0|0:0,0:0:0:0:
253,362,107743,2,0,P|236:329|243:258,1,100,8|0,0:0|0:0,0:0:0:0:
385,197,108064,5,2,0:0:0:0:
222,259,108224,1,0,0:0:0:0:
222,259,108305,1,0,0:0:0:0:
222,259,108385,1,8,0:0:0:0:
331,121,108545,1,2,0:0:0:0:
441,275,108706,2,0,L|463:380,1,100,0|2,0:0|0:0,0:0:0:0:
246,170,109027,2,0,P|153:130|49:183,1,200,8|2,0:0|0:0,0:0:0:0:
42,289,109508,5,0,0:0:0:0:
158,131,109668,2,0,P|167:80|167:22,1,100,8|2,0:0|0:0,0:0:0:0:
222,258,109989,2,0,P|220:310|235:373,1,100,0|2,0:0|0:0,0:0:0:0:
416,369,110310,1,8,0:0:0:0:
222,259,110470,1,0,0:0:0:0:
381,259,110631,6,0,L|499:277,2,100,2|0|8,0:0|0:0|0:0,0:0:0:0:
308,158,111112,1,2,0:0:0:0:
317,354,111273,2,0,L|434:372,1,100,0|2,0:0|0:0,0:0:0:0:
411,168,111593,1,8,0:0:0:0:
221,259,111754,1,0,0:0:0:0:
365,90,111914,5,0,0:0:0:0:
338,75,111994,1,0,0:0:0:0:
308,69,112075,1,0,0:0:0:0:
278,73,112155,1,0,0:0:0:0:
252,88,112235,1,0,0:0:0:0:
233,111,112315,1,0,0:0:0:0:
222,139,112396,1,0,0:0:0:0:
220,168,112476,1,0,0:0:0:0:
262,181,112556,5,2,0:0:0:0:
294,211,112636,1,2,0:0:0:0:
308,253,112716,1,2,0:0:0:0:
300,297,112797,1,2,0:0:0:0:
271,331,112877,1,2,0:0:0:0:
228,345,112957,1,2,0:0:0:0:
183,338,113037,1,2,0:0:0:0:
149,307,113117,1,2,0:0:0:0:
137,263,113198,5,2,0:0:0:0:
438,337,114481,6,0,P|404:326|360:282,1,80
338,193,114802,1,0,0:0:0:0:
238,242,114962,2,0,P|182:264|71:220,1,160
71,134,115444,2,0,L|-22:90,1,80
137,62,115765,5,0,0:0:0:0:
244,32,115925,1,0,0:0:0:0:
283,136,116085,1,0,0:0:0:0:
391,107,116246,2,0,P|457:130|467:233,1,160
327,196,116727,2,0,P|288:162|284:124,1,80
167,177,117048,6,0,L|118:164,2,40,0|0|0,0:0|0:0|0:0,0:0:0:0:
244,32,117369,1,0,0:0:0:0:
236,253,117690,1,0,0:0:0:0:
391,108,118011,1,0,0:0:0:0:
91,162,118331,5,0,0:0:0:0:
91,162,118492,1,0,0:0:0:0:
91,162,118652,2,0,P|132:179|199:159,1,80
251,68,118973,2,0,P|325:60|402:131,1,160
347,221,119454,1,0,0:0:0:0:
276,308,119615,6,0,P|350:335|430:293,1,160
446,194,120096,2,0,P|434:116|475:40,1,160
347,221,120577,2,0,P|327:293|250:342,1,160
85,161,121219,5,0,0:0:0:0:
195,199,121379,2,0,P|148:262|62:277,2,160,0|0|0,0:0|0:0|0:0,0:0:0:0:
278,126,122182,1,0,0:0:0:0:
85,161,122502,1,0,0:0:0:0:
276,216,122823,5,0,0:0:0:0:
341,279,122984,1,0,0:0:0:0:
252,311,123144,1,0,0:0:0:0:
376,190,123305,1,0,0:0:0:0:
409,336,123465,1,0,0:0:0:0:
256,192,123545,12,0,128599,0:0:0:0:
