osu file format v14

[General]
AudioFilename: 2.mp3
AudioLeadIn: 0
PreviewTime: 71635
Countdown: 0
SampleSet: None
StackLeniency: 0.7
Mode: 2
LetterboxInBreaks: 0
EpilepsyWarning: 1
WidescreenStoryboard: 0

[Editor]
Bookmarks: 20779,72116
DistanceSpacing: 2
BeatDivisor: 4
GridSize: 16
TimelineZoom: 2

[Metadata]
Title:Movements Feat. MaHi (Original Mix) (Speed Up Ver.)
TitleUnicode:Movements Feat. MaHi (Original Mix) (Speed Up Ver.)
Artist:MitiS
ArtistUnicode:MitiS
Creator:-[ Asuna ]-
Version:Crystal's Deluge
Source:
Tags:FlandreScarlet- Serena- AnreFM Path to the Horizon Valentina Remenar CLSW Fort [ Joey ] Game Kin
BeatmapID:1248562
BeatmapSetID:183132

[Difficulty]
HPDrainRate:8
CircleSize:4
OverallDifficulty:9.3
ApproachRate:9.3
SliderMultiplier:2.2
SliderTickRate:1

[Events]
//Background and Video events
0,0,"Background.jpg",0,0
//Break Periods
//Storyboard Layer 0 (Background)
//Storyboard Layer 1 (Fail)
//Storyboard Layer 2 (Pass)
//Storyboard Layer 3 (Foreground)
Sprite,Foreground,Centre,"SB/OpticalFlare.png",320,240 M,0,41326,,320,157 F,0,41326,41406,0,1 V,0,41326,41406,0.1,0.1,0.9340653,1.049677 F,0,41406,51273,1 V,0,41406,51273,0.9340653,1.049677,0.9423233,1.066193 V,0,51273,51433,0.9423233,1.066193,1.024904,1.24787 F,0,51273,51593,1,0 V,0,51433,51593,1.024904,1.24787,0.1,0.1
Sprite,Foreground,Centre,"SB/Flare2.png",320,240 M,0,41326,,319,159 F,0,41326,41406,0,1 S,0,41326,41406,0.1,1.181807 R,0,41326,51593,-1.932387,-1.816774 P,0,41406,,A F,0,41406,50952,1 S,0,41406,51593,1.181807 F,0,50952,51593,1,0
Sprite,Foreground,Centre,"SB/Mapped.png",320,240 P,0,42289,,A F,0,42289,42609,0,0.9 V,1,42289,42609,0.01,0.7687742,0.8432258,0.7687742 M,0,42289,51593,231,109,203,109 V,0,42609,51273,0.8432258,0.7687742 F,0,51273,51593,0.9,0
Sprite,Foreground,Centre,"SB/CLSW.png",320,240 P,0,43572,,A F,0,43572,43893,0,0.9 V,1,43572,43893,0.01,0.7687742,0.8432258,0.7687742 M,0,43572,51593,361,202,405,202 V,0,43893,51593,0.8432258,0.7687742 F,0,51273,51593,0.9,0
//Storyboard Sound Samples

[TimingPoints]
257,320.855614973262,4,2,4,50,1,0
1781,-100,4,2,4,10,0,0
1861,-100,4,2,4,50,0,0
2101,-100,4,2,4,10,0,0
2182,-100,4,2,4,50,0,0
2422,-100,4,2,4,10,0,0
2502,-100,4,2,4,50,0,0
2743,-100,4,2,4,10,0,0
2823,-100,4,2,4,50,0,0
4347,-100,4,2,4,10,0,0
4428,-100,4,2,4,50,0,0
4668,-100,4,2,4,10,0,0
4748,-100,4,2,4,50,0,0
4989,-100,4,2,4,10,0,0
5069,-100,4,2,4,50,0,0
5310,-100,4,2,4,10,0,0
5390,-100,4,2,4,50,0,0
20791,-125,4,2,2,50,0,0
20871,-125,4,2,5,50,0,0
22075,-125,4,2,2,50,0,0
22155,-125,4,2,5,50,0,0
23358,-125,4,2,2,50,0,0
23438,-125,4,2,5,50,0,0
24642,-125,4,2,2,50,0,0
24722,-125,4,2,5,50,0,0
25925,-125,4,2,2,50,0,0
26005,-125,4,2,5,50,0,0
27208,-125,4,2,2,50,0,0
27289,-125,4,2,5,50,0,0
28412,-125,4,2,5,50,0,0
28732,-125,4,2,5,50,0,0
31059,-125,4,2,2,70,0,0
41326,-125,4,2,2,30,0,0
41486,-125,4,2,2,30,0,0
47743,-125,4,2,2,10,0,0
48064,-125,4,2,2,15,0,0
48385,-125,4,2,2,20,0,0
48706,-125,4,2,2,25,0,0
49027,-125,4,2,2,30,0,0
49668,-125,4,2,2,35,0,0
50310,-125,4,2,2,20,0,0
50952,-125,4,2,2,30,0,0
51593,-125,4,2,2,60,0,0
52877,-125,4,2,2,50,0,0
54160,-125,4,2,2,55,0,0
55444,-125,4,2,2,60,0,0
56727,-125,4,2,2,65,0,0
58011,-125,4,2,2,70,0,0
59294,-125,4,2,2,75,0,0
60577,-125,4,2,2,80,0,0
61861,-125,4,1,0,85,0,0
61941,-125,4,2,5,85,0,0
63144,-125,4,2,2,90,0,0
63224,-125,4,2,5,90,0,0
64428,-125,4,2,2,100,0,0
64508,-125,4,2,3,100,0,0
65711,-125,4,2,2,80,0,0
65791,-125,4,2,3,80,0,0
69561,-125,4,3,1,80,0,0
70845,-125,4,2,3,80,0,0
71807,-125,4,2,2,95,0,0
72128,-100,4,2,3,100,0,1
72449,-100,4,2,3,100,0,1
72529,-100,4,2,3,100,0,1
73091,-100,4,2,3,100,0,1
73171,-100,4,2,3,100,0,1
73732,-100,4,2,3,100,0,1
73813,-100,4,2,3,100,0,1
74374,-100,4,2,3,100,0,1
74454,-100,4,2,3,100,0,1
75016,-100,4,2,3,100,0,1
75096,-100,4,2,3,100,0,1
75658,-100,4,2,3,100,0,1
75738,-100,4,2,3,100,0,1
76299,-100,4,2,3,100,0,1
76379,-100,4,2,3,100,0,1
76941,-100,4,2,3,100,0,1
77021,-100,4,2,3,100,0,1
77583,-100,4,2,3,100,0,1
77663,-100,4,2,3,100,0,1
78224,-100,4,2,3,100,0,1
78305,-100,4,2,3,100,0,1
78866,-100,4,2,3,100,0,1
78946,-100,4,2,3,100,0,1
79508,-100,4,2,3,100,0,1
79588,-100,4,2,3,100,0,1
80150,-100,4,2,3,100,0,1
80230,-100,4,2,3,100,0,1
80791,-100,4,2,3,100,0,1
80871,-100,4,2,3,100,0,1
81433,-100,4,2,3,100,0,1
81513,-100,4,2,3,100,0,1
82075,-100,4,2,3,100,0,1
82155,-100,4,2,3,100,0,1
82396,-100,4,2,2,100,0,1
82716,-100,4,2,2,100,0,1
82797,-100,4,2,2,100,0,1
83358,-100,4,2,2,100,0,1
83438,-100,4,2,2,100,0,1
84000,-100,4,2,2,100,0,1
84080,-100,4,2,2,100,0,1
84642,-100,4,2,2,100,0,1
84722,-100,4,2,2,100,0,1
85283,-100,4,2,2,100,0,1
85363,-100,4,2,2,100,0,1
85925,-100,4,2,2,100,0,1
86005,-100,4,2,2,100,0,1
86567,-100,4,2,2,100,0,1
86647,-100,4,2,2,100,0,1
87208,-100,4,2,2,100,0,1
87289,-100,4,2,2,100,0,1
87850,-100,4,2,2,100,0,1
87930,-100,4,2,2,100,0,1
88492,-100,4,2,2,100,0,1
88572,-100,4,2,2,100,0,1
89134,-100,4,2,2,100,0,1
89214,-100,4,2,2,100,0,1
89775,-100,4,2,2,100,0,1
89855,-100,4,2,2,100,0,1
90417,-100,4,2,2,100,0,1
90497,-100,4,2,2,100,0,1
91059,-100,4,2,2,100,0,1
91139,-100,4,2,2,100,0,1
91379,-100,4,2,2,100,0,1
92663,-100,4,2,4,55,0,0
93625,-100,4,2,4,55,0,0
93946,-100,4,2,3,100,0,1
94267,-100,4,2,3,100,0,1
94347,-100,4,2,3,100,0,1
94909,-100,4,2,3,100,0,1
94989,-100,4,2,3,100,0,1
95551,-100,4,2,3,100,0,1
95631,-100,4,2,3,100,0,1
96192,-100,4,2,3,100,0,1
96273,-100,4,2,3,100,0,1
96834,-100,4,2,3,100,0,1
96914,-100,4,2,3,100,0,1
97476,-100,4,2,3,100,0,1
97556,-100,4,2,3,100,0,1
98117,-100,4,2,3,100,0,1
98198,-100,4,2,3,100,0,1
98759,-100,4,2,3,100,0,1
98839,-100,4,2,3,100,0,1
99401,-100,4,2,3,100,0,1
99481,-100,4,2,3,100,0,1
100043,-100,4,2,3,100,0,1
100123,-100,4,2,3,100,0,1
100684,-100,4,2,3,100,0,1
100765,-100,4,2,3,100,0,1
101326,-100,4,2,3,100,0,1
101406,-100,4,2,3,100,0,1
101968,-100,4,2,3,100,0,1
102048,-100,4,2,3,100,0,1
102609,-100,4,2,3,100,0,1
102690,-100,4,2,3,100,0,1
102930,-100,4,2,2,100,0,1
103251,-100,4,2,2,100,0,1
103331,-100,4,2,2,100,0,1
103893,-100,4,2,2,100,0,1
103973,-100,4,2,2,100,0,1
104535,-100,4,2,2,100,0,1
104615,-100,4,2,2,100,0,1
105176,-100,4,2,2,100,0,1
105256,-100,4,2,2,100,0,1
105818,-100,4,2,2,100,0,1
105898,-100,4,2,2,100,0,1
106460,-100,4,2,2,100,0,1
106540,-100,4,2,2,100,0,1
107101,-100,4,2,2,100,0,1
107182,-100,4,2,2,100,0,1
107743,-100,4,2,2,100,0,1
107823,-100,4,2,2,100,0,1
108385,-100,4,2,2,100,0,1
108465,-100,4,2,2,100,0,1
109027,-100,4,2,2,100,0,1
109107,-100,4,2,2,100,0,1
109668,-100,4,2,2,100,0,1
109748,-100,4,2,2,100,0,1
110310,-100,4,2,2,100,0,1
110390,-100,4,2,2,100,0,1
110952,-100,4,2,2,100,0,1
111032,-100,4,2,2,100,0,1
111593,-100,4,2,2,100,0,1
111674,-100,4,2,2,100,0,1
113198,-125,4,2,3,60,0,0
114481,-125,4,2,0,40,0,0
124428,-100,4,2,0,30,0,0
126032,-100,4,2,0,20,0,0
126994,-100,4,2,0,10,0,0

[Colours]
Combo1 : 248,97,160
Combo2 : 27,166,241
Combo3 : 236,167,245
Combo4 : 105,82,199

[HitObjects]
144,208,257,6,0,L|272:208,1,110,0|0,0:0|0:0,0:0:0:0:
416,160,577,1,2,0:0:0:0:
256,160,738,1,0,0:0:0:0:
416,96,898,2,0,L|304:96,1,110,0|0,0:0|0:0,0:0:0:0:
128,96,1219,2,0,L|16:96,1,110,2|0,0:0|0:0,0:0:0:0:
256,96,1540,6,0,P|320:144|272:224,1,165,0|0,0:0|0:0,0:0:0:0:
128,208,1861,2,0,P|64:256|112:336,1,165,0|0,0:0|0:0,0:0:0:0:
432,128,2182,2,0,P|496:176|448:256,1,165,0|0,0:0|0:0,0:0:0:0:
304,240,2502,2,0,P|240:288|288:368,1,165,0|0,0:0|0:0,0:0:0:0:
432,176,2823,6,0,L|368:80,1,110,0|0,0:0|0:0,0:0:0:0:
256,176,3144,1,2,0:0:0:0:
34,176,3305,1,0,0:0:0:0:
89,176,3385,1,0,0:0:0:0:
144,176,3465,1,0,0:0:0:0:
312,160,3625,1,0,0:0:0:0:
480,128,3786,2,0,L|352:128,1,110,2|0,0:0|0:0,0:0:0:0:
144,96,4107,6,0,P|64:112|48:192,1,165,0|0,0:0|0:0,0:0:0:0:
256,240,4428,2,0,P|333:227|354:152,1,165,0|0,0:0|0:0,0:0:0:0:
464,176,4748,2,0,P|442:100|365:87,1,165,0|0,0:0|0:0,0:0:0:0:
160,128,5069,2,0,P|180:203|257:217,1,165,0|0,0:0|0:0,0:0:0:0:
96,128,5390,6,0,L|16:240,1,110,0|0,0:0|0:0,0:0:0:0:
192,224,5711,1,2,0:0:0:0:
352,224,5871,2,0,L|432:224,2,55,0|0|0,0:0|0:0|0:0,0:0:0:0:
432,144,6192,1,0,0:0:0:0:
272,144,6353,1,2,0:0:0:0:
112,144,6513,1,0,0:0:0:0:
352,96,6674,6,0,P|432:112|480:240,1,220,0|0,0:0|0:0,0:0:0:0:
304,224,7155,1,0,0:0:0:0:
288,176,7315,2,0,P|208:192|160:320,1,220,0|0,0:0|0:0,0:0:0:0:
464,320,7957,6,0,L|352:320,2,110,0|0|2,0:0|0:0|0:0,0:0:0:0:
288,320,8438,1,0,0:0:0:0:
233,320,8519,1,0,0:0:0:0:
178,320,8599,1,0,0:0:0:0:
336,272,8759,1,0,0:0:0:0:
496,256,8920,1,2,0:0:0:0:
176,240,9080,1,0,0:0:0:0:
336,224,9240,6,0,P|432:208|384:112,1,220,0|0,0:0|0:0,0:0:0:0:
336,112,9722,1,0,0:0:0:0:
176,224,9882,2,0,P|80:208|128:112,1,220,0|0,0:0|0:0,0:0:0:0:
176,96,10363,1,0,0:0:0:0:
400,80,10524,6,0,L|288:80,2,110,0|0|2,0:0|0:0|0:0,0:0:0:0:
224,80,11005,2,0,P|176:112|192:128,1,55,0|0,0:0|0:0,0:0:0:0:
256,128,11166,1,0,0:0:0:0:
201,128,11246,1,0,0:0:0:0:
146,128,11326,1,0,0:0:0:0:
304,176,11486,2,0,L|192:176,1,110,2|0,0:0|0:0,0:0:0:0:
384,176,11807,6,0,P|432:224|336:320,1,220,0|0,0:0|0:0,0:0:0:0:
512,288,12289,1,0,0:0:0:0:
128,176,12449,2,0,P|80:224|176:320,1,220,0|0,0:0|0:0,0:0:0:0:
0,288,12930,1,0,0:0:0:0:
304,224,13091,6,0,L|432:224,2,110,0|0|2,0:0|0:0|0:0,0:0:0:0:
144,224,13572,1,0,0:0:0:0:
192,224,13652,1,0,0:0:0:0:
240,224,13732,1,0,0:0:0:0:
80,224,13893,2,0,L|16:96,1,110,0|2,0:0|0:0,0:0:0:0:
432,224,14214,2,0,L|496:96,1,110,0|0,0:0|0:0,0:0:0:0:
32,96,14695,6,0,L|144:96,2,110,0|0|0,0:0|0:0|0:0,0:0:0:0:
480,96,15337,2,0,L|370:96,2,110,0|0|0,0:0|0:0|0:0,0:0:0:0:
256,96,15818,6,0,L|128:96,1,110,0|2,0:0|0:0,0:0:0:0:
368,144,16139,1,0,0:0:0:0:
312,144,16219,1,0,0:0:0:0:
256,144,16299,1,0,0:0:0:0:
32,144,16460,1,0,0:0:0:0:
256,208,16620,2,0,L|144:208,1,110,2|0,0:0|0:0,0:0:0:0:
368,208,16941,6,0,L|464:288,3,110,0|0|0|0,0:0|0:0|0:0|0:0,0:0:0:0:
288,272,17583,2,0,L|384:352,3,110,0|0|0|0,0:0|0:0|0:0|0:0,0:0:0:0:
128,336,18224,5,0,0:0:0:0:
77,319,18305,1,0,0:0:0:0:
54,271,18385,1,0,0:0:0:0:
75,221,18465,1,0,0:0:0:0:
128,192,18545,2,0,L|208:192,1,55,0|0,0:0|0:0,0:0:0:0:
368,192,18706,2,0,L|304:192,1,55,0|0,0:0|0:0,0:0:0:0:
224,144,18866,6,0,L|160:144,1,55,0|0,0:0|0:0,0:0:0:0:
416,144,19027,2,0,L|512:144,1,55,0|0,0:0|0:0,0:0:0:0:
128,112,19187,2,0,L|144:48,1,55,0|0,0:0|0:0,0:0:0:0:
288,96,19347,2,0,L|272:32,1,55,0|0,0:0|0:0,0:0:0:0:
128,128,19508,6,0,L|112:160,1,27.5,0|0,0:0|0:0,0:0:0:0:
176,160,19588,2,0,L|160:208,1,27.5,0|0,0:0|0:0,0:0:0:0:
224,192,19668,2,0,L|224:224,1,27.5,0|0,0:0|0:0,0:0:0:0:
272,208,19748,2,0,L|272:240,1,27.5,0|0,0:0|0:0,0:0:0:0:
320,208,19829,6,0,L|320:235,1,27.5,0|0,0:0|0:0,0:0:0:0:
368,192,19909,2,0,L|368:224,1,27.5,0|0,0:0|0:0,0:0:0:0:
416,160,19989,2,0,L|432:208,1,27.5,0|0,0:0|0:0,0:0:0:0:
448,128,20069,2,0,L|464:160,1,27.5,0|0,0:0|0:0,0:0:0:0:
400,96,20150,6,0,L|352:96,7,27.5,0|0|0|0|0|0|0|0,0:0|0:0|0:0|0:0|0:0|0:0|0:0|0:0,0:0:0:0:
320,96,20470,6,0,L|272:96,7,27.5,0|0|0|0|0|0|0|0,0:0|0:0|0:0|0:0|0:0|0:0|0:0|0:0,0:0:0:0:
192,144,20791,5,0,0:0:0:0:
32,224,20952,1,0,0:0:0:0:
192,336,21112,1,8,0:0:0:0:
244,112,21273,1,0,0:0:0:0:
74,56,21433,1,0,0:0:0:0:
108,248,21593,1,0,0:0:0:0:
304,192,21754,1,0,0:0:0:0:
224,32,21914,1,0,0:0:0:0:
112,191,22075,5,0,0:0:0:0:
289,225,22235,1,0,0:0:0:0:
346,56,22396,1,8,0:0:0:0:
154,89,22556,1,0,0:0:0:0:
336,128,22716,2,0,L|432:128,1,88,0|0,0:0|0:0,0:0:0:0:
176,128,23037,2,0,L|80:128,1,88,0|0,0:0|0:0,0:0:0:0:
320,144,23358,5,0,0:0:0:0:
480,224,23519,1,0,0:0:0:0:
320,336,23679,1,8,0:0:0:0:
267,112,23839,1,0,0:0:0:0:
437,56,24000,1,0,0:0:0:0:
403,248,24160,1,0,0:0:0:0:
208,192,24321,1,0,0:0:0:0:
288,32,24481,1,0,0:0:0:0:
400,191,24642,5,0,0:0:0:0:
222,225,24802,1,0,0:0:0:0:
165,56,24962,1,8,0:0:0:0:
357,89,25123,1,0,0:0:0:0:
256,112,25283,1,0,0:0:0:0:
96,128,25444,1,0,0:0:0:0:
416,144,25604,1,0,0:0:0:0:
256,144,25765,1,0,0:0:0:0:
32,176,25925,5,0,0:0:0:0:
192,176,26085,1,0,0:0:0:0:
112,128,26246,1,8,0:0:0:0:
480,176,26406,1,0,0:0:0:0:
320,176,26567,1,0,0:0:0:0:
400,128,26727,1,0,0:0:0:0:
256,80,26888,1,0,0:0:0:0:
176,48,27048,1,0,0:0:0:0:
416,48,27208,5,0,0:0:0:0:
256,48,27369,1,0,0:0:0:0:
336,80,27529,1,8,0:0:0:0:
112,80,27690,1,0,0:0:0:0:
336,128,27850,2,0,L|240:80,1,88,0|0,0:0|0:0,0:0:0:0:
480,128,28171,1,0,0:0:0:0:
256,176,28331,1,0,0:0:0:0:
480,176,28492,6,0,L|368:176,1,88,2|0,0:0|0:0,0:0:0:0:
256,144,28813,1,0,0:0:0:0:
32,112,28973,2,0,L|136:112,1,88,0|8,0:0|0:0,0:0:0:0:
256,80,29294,1,0,0:0:0:0:
480,96,29454,2,0,L|384:64,1,88,0|0,0:0|0:0,0:0:0:0:
256,112,29775,5,2,0:0:0:0:
128,112,29936,1,0,0:0:0:0:
192,160,30096,1,0,0:0:0:0:
352,160,30256,1,0,0:0:0:0:
128,192,30417,1,0,0:0:0:0:
0,192,30577,1,0,0:0:0:0:
384,192,30738,1,0,0:0:0:0:
512,192,30898,1,0,0:0:0:0:
112,112,31059,6,0,L|0:112,1,88,0|0,0:0|0:0,0:0:0:0:
304,176,31379,1,8,0:0:0:0:
144,176,31540,2,0,L|48:176,1,88,0|0,0:0|0:0,0:0:0:0:
336,240,31861,1,0,0:0:0:0:
176,240,32021,2,0,L|80:240,1,88,8|0,0:0|0:0,0:0:0:0:
336,128,32342,5,0,0:0:0:0:
80,128,32502,2,0,L|176:128,1,88,0|8,0:0|0:0,0:0:0:0:
336,96,32823,1,0,0:0:0:0:
96,96,32984,2,0,L|16:176,1,88,0|0,0:0|0:0,0:0:0:0:
336,176,33305,1,8,0:0:0:0:
176,176,33465,1,0,0:0:0:0:
400,112,33625,6,0,L|512:112,1,88,0|0,0:0|0:0,0:0:0:0:
208,176,33946,1,8,0:0:0:0:
368,176,34107,2,0,L|464:176,1,88,0|0,0:0|0:0,0:0:0:0:
176,240,34428,1,0,0:0:0:0:
336,240,34588,2,0,L|432:240,1,88,8|0,0:0|0:0,0:0:0:0:
176,128,34909,5,0,0:0:0:0:
432,128,35069,2,0,L|336:128,1,88,0|8,0:0|0:0,0:0:0:0:
176,96,35390,1,0,0:0:0:0:
336,96,35551,1,0,0:0:0:0:
96,96,35711,1,0,0:0:0:0:
336,128,35871,1,8,0:0:0:0:
96,128,36032,1,0,0:0:0:0:
432,176,36192,6,0,L|480:256,1,88,2|0,0:0|0:0,0:0:0:0:
80,176,36513,2,0,L|32:256,1,88,8|0,0:0|0:0,0:0:0:0:
256,224,36834,1,0,0:0:0:0:
144,192,36994,1,0,0:0:0:0:
368,176,37155,1,8,0:0:0:0:
256,144,37315,1,0,0:0:0:0:
480,128,37476,6,0,L|448:32,1,88,0|0,0:0|0:0,0:0:0:0:
144,48,37797,1,8,0:0:0:0:
368,48,37957,1,0,0:0:0:0:
144,96,38117,1,0,0:0:0:0:
64,96,38278,1,0,0:0:0:0:
224,128,38438,1,8,0:0:0:0:
64,144,38599,1,0,0:0:0:0:
368,160,38759,6,0,L|480:160,1,88,0|0,0:0|0:0,0:0:0:0:
288,208,39080,2,0,L|400:208,1,88,8|0,0:0|0:0,0:0:0:0:
144,160,39401,2,0,L|32:160,1,88,0|0,0:0|0:0,0:0:0:0:
368,160,39722,2,0,L|480:160,1,88,8|0,0:0|0:0,0:0:0:0:
144,96,40043,5,0,0:0:0:0:
32,128,40203,1,0,0:0:0:0:
0,256,40363,1,8,0:0:0:0:
112,256,40524,1,0,0:0:0:0:
400,256,40684,2,0,L|304:256,1,88,0|0,0:0|0:0,0:0:0:0:
448,192,41005,1,0,0:0:0:0:
272,192,41166,1,2,0:0:0:0:
32,192,41326,6,0,L|80:112,1,88,2|0,0:0|0:0,0:0:0:0:
256,128,41647,2,0,L|304:48,1,88,0|0,0:0|0:0,0:0:0:0:
480,192,41968,2,0,L|432:112,1,88,0|0,0:0|0:0,0:0:0:0:
256,128,42289,2,0,L|208:48,1,88,0|0,0:0|0:0,0:0:0:0:
32,112,42609,6,0,L|128:112,1,88,0|0,0:0|0:0,0:0:0:0:
288,96,42930,2,0,L|160:96,1,88,0|0,0:0|0:0,0:0:0:0:
480,112,43251,2,0,L|384:112,1,88,0|0,0:0|0:0,0:0:0:0:
224,96,43572,2,0,L|352:96,1,88,0|0,0:0|0:0,0:0:0:0:
144,144,43893,6,0,L|64:224,1,88,0|0,0:0|0:0,0:0:0:0:
368,144,44214,2,0,L|448:224,1,88,0|0,0:0|0:0,0:0:0:0:
176,192,44535,1,0,0:0:0:0:
336,192,44695,1,0,0:0:0:0:
176,240,44855,1,0,0:0:0:0:
336,240,45016,1,0,0:0:0:0:
16,256,45176,6,0,L|144:256,1,88,0|0,0:0|0:0,0:0:0:0:
336,256,45497,1,0,0:0:0:0:
176,256,45658,1,0,0:0:0:0:
416,256,45818,2,0,L|528:256,1,88,0|0,0:0|0:0,0:0:0:0:
96,208,46139,1,0,0:0:0:0:
52,208,46219,1,0,0:0:0:0:
256,176,46299,1,0,0:0:0:0:
160,144,46460,6,0,L|272:144,1,88,0|0,0:0|0:0,0:0:0:0:
80,112,46781,1,0,0:0:0:0:
256,96,46941,2,0,L|160:96,1,88,0|0,0:0|0:0,0:0:0:0:
336,80,47262,1,0,0:0:0:0:
160,64,47422,2,0,L|112:64,2,44,0|0|0,0:0|0:0|0:0,0:0:0:0:
336,48,47743,6,0,L|368:112,1,44,0|0,0:0|0:0,0:0:0:0:
432,96,47904,2,0,L|464:160,1,44,0|0,0:0|0:0,0:0:0:0:
368,144,48064,2,0,L|336:208,1,44,0|0,0:0|0:0,0:0:0:0:
272,192,48224,2,0,L|240:256,1,44,0|0,0:0|0:0,0:0:0:0:
336,256,48385,6,0,L|400:256,1,44,0|0,0:0|0:0,0:0:0:0:
208,256,48545,2,0,L|128:256,1,44,0|0,0:0|0:0,0:0:0:0:
240,288,48706,2,0,L|320:288,1,44,0|0,0:0|0:0,0:0:0:0:
112,288,48866,2,0,L|48:288,1,44,0|0,0:0|0:0,0:0:0:0:
432,288,49027,6,0,L|496:288,1,44,0|0,0:0|0:0,0:0:0:0:
200,144,49187,1,0,0:0:0:0:
256,144,49267,1,0,0:0:0:0:
312,144,49347,1,0,0:0:0:0:
256,192,49428,1,0,0:0:0:0:
80,176,49508,2,0,L|144:176,1,44,0|0,0:0|0:0,0:0:0:0:
432,176,49668,6,0,L|448:128,1,44,0|0,0:0|0:0,0:0:0:0:
352,160,49829,2,0,L|368:112,1,44,0|0,0:0|0:0,0:0:0:0:
176,160,49989,2,0,L|160:112,1,44,0|0,0:0|0:0,0:0:0:0:
352,112,50150,2,0,L|368:64,1,44,0|0,0:0|0:0,0:0:0:0:
80,80,50310,6,0,L|48:80,7,22,0|0|0|0|0|0|0|0,0:0|0:0|0:0|0:0|0:0|0:0|0:0|0:0,0:0:0:0:
112,112,50631,6,0,L|80:112,7,22,0|0|0|0|0|0|0|0,0:0|0:0|0:0|0:0|0:0|0:0|0:0|0:0,0:0:0:0:
144,144,50952,6,0,L|112:144,7,22,0|0|0|0|0|0|0|0,0:0|0:0|0:0|0:0|0:0|0:0|0:0|0:0,0:0:0:0:
176,176,51273,6,0,L|144:176,7,22,0|0|0|0|0|0|0|0,0:0|0:0|0:0|0:0|0:0|0:0|0:0|0:0,0:0:0:0:
336,176,51593,6,0,L|448:176,2,88,0|0|8,0:0|0:0|0:0,0:0:0:0:
176,128,52075,1,0,0:0:0:0:
336,112,52235,2,0,L|240:112,1,88,0|0,0:0|0:0,0:0:0:0:
496,112,52556,1,8,0:0:0:0:
176,176,52877,6,0,L|64:176,2,88,0|0|8,0:0|0:0|0:0,0:0:0:0:
336,128,53358,1,0,0:0:0:0:
16,160,53519,2,0,L|112:160,1,88,0|0,0:0|0:0,0:0:0:0:
416,160,53839,2,0,L|504:160,1,88,8|0,0:0|0:0,0:0:0:0:
256,96,54160,6,0,L|128:96,2,88,0|0|8,0:0|0:0|0:0,0:0:0:0:
32,96,54642,1,0,0:0:0:0:
256,144,54802,2,0,L|352:144,1,88,0|0,0:0|0:0,0:0:0:0:
32,144,55123,1,8,0:0:0:0:
256,192,55444,6,0,L|128:192,2,88,0|0|8,0:0|0:0|0:0,0:0:0:0:
480,192,55925,2,0,L|368:192,1,88,0|0,0:0|0:0,0:0:0:0:
32,192,56246,2,0,L|128:192,1,88,2|8,0:0|0:0,0:0:0:0:
480,128,56567,1,0,0:0:0:0:
256,144,56727,6,0,L|160:144,2,88,0|0|8,0:0|0:0|0:0,0:0:0:0:
96,144,57208,2,0,L|-16:144,1,88,0|0,0:0|0:0,0:0:0:0:
256,96,57529,1,2,0:0:0:0:
416,144,57609,1,0,0:0:0:0:
496,144,57690,1,8,0:0:0:0:
256,192,58011,6,0,L|352:192,2,88,0|0|8,0:0|0:0|0:0,0:0:0:0:
416,192,58492,2,0,L|464:304,1,88,0|0,0:0|0:0,0:0:0:0:
96,192,58813,2,0,L|0:192,1,88,2|8,0:0|0:0,0:0:0:0:
160,160,59134,1,0,0:0:0:0:
416,144,59294,6,0,L|304:144,1,88,0|0,0:0|0:0,0:0:0:0:
160,144,59615,1,8,0:0:0:0:
336,112,59775,2,0,L|432:112,1,88,0|0,0:0|0:0,0:0:0:0:
160,96,60096,1,0,0:0:0:0:
224,96,60176,1,0,0:0:0:0:
288,96,60256,1,8,0:0:0:0:
48,96,60417,2,0,L|16:144,1,44,0|0,0:0|0:0,0:0:0:0:
272,144,60577,6,0,L|336:144,1,44,0|0,0:0|0:0,0:0:0:0:
240,176,60738,2,0,L|176:176,1,44,0|0,0:0|0:0,0:0:0:0:
432,96,60898,2,0,L|320:96,1,88,2|0,0:0|0:0,0:0:0:0:
304,96,61139,1,0,0:0:0:0:
384,64,61219,2,0,L|448:64,1,44,2|0,0:0|0:0,0:0:0:0:
176,96,61379,2,0,L|160:144,1,44,0|0,0:0|0:0,0:0:0:0:
256,112,61540,2,0,L|272:160,1,44,2|0,0:0|0:0,0:0:0:0:
160,192,61700,2,0,L|224:192,1,44,0|0,0:0|0:0,0:0:0:0:
480,144,61861,6,0,L|384:144,1,88,4|0,0:0|0:0,0:0:0:0:
240,160,62182,1,8,0:0:0:0:
400,192,62342,1,2,0:0:0:0:
336,192,62422,1,0,0:0:0:0:
272,192,62502,1,0,0:0:0:0:
32,192,62663,1,0,0:0:0:0:
480,224,62823,1,8,0:0:0:0:
256,224,62984,1,0,0:0:0:0:
32,144,63144,6,0,L|144:144,2,88,0|0|8,0:0|0:0|0:0,0:0:0:0:
320,112,63625,1,2,0:0:0:0:
256,112,63706,1,0,0:0:0:0:
192,112,63786,1,0,0:0:0:0:
480,80,63946,1,0,0:0:0:0:
416,80,64027,1,0,0:0:0:0:
352,80,64107,1,8,0:0:0:0:
304,112,64187,2,0,L|352:144,1,44,0|0,0:0|0:0,0:0:0:0:
176,176,64428,6,0,L|272:176,1,88,0|0,0:0|0:0,0:0:0:0:
432,176,64748,1,8,0:0:0:0:
128,240,64909,1,2,0:0:0:0:
172,240,64989,1,0,0:0:0:0:
216,240,65069,1,0,0:0:0:0:
384,240,65230,1,0,0:0:0:0:
80,320,65390,1,8,0:0:0:0:
240,320,65551,1,0,0:0:0:0:
0,160,65711,5,2,0:0:0:0:
160,160,65871,1,0,0:0:0:0:
512,160,66032,1,0,0:0:0:0:
352,160,66192,1,2,0:0:0:0:
304,160,66273,1,0,0:0:0:0:
256,160,66353,1,0,0:0:0:0:
0,96,66513,1,0,0:0:0:0:
256,96,66674,1,8,0:0:0:0:
0,96,66834,1,0,0:0:0:0:
288,80,66994,6,0,L|352:80,1,44,2|0,0:0|0:0,0:0:0:0:
288,48,67155,2,0,L|208:48,1,44,0|0,0:0|0:0,0:0:0:0:
416,64,67315,2,0,L|480:64,1,44,2|0,0:0|0:0,0:0:0:0:
160,64,67476,2,0,L|96:64,1,44,0|0,0:0|0:0,0:0:0:0:
416,224,67636,6,0,L|432:272,1,44,2|0,0:0|0:0,0:0:0:0:
424,272,67797,2,0,L|440:320,1,44,0|0,0:0|0:0,0:0:0:0:
160,224,67957,2,0,L|144:272,1,44,2|0,0:0|0:0,0:0:0:0:
416,240,68117,2,0,L|432:288,1,44,2|0,0:0|0:0,0:0:0:0:
160,112,68278,6,0,L|96:112,1,44,8|0,0:0|0:0,0:0:0:0:
256,160,68438,2,0,L|320:160,1,44,8|0,0:0|0:0,0:0:0:0:
448,160,68599,2,0,L|512:160,1,44,8|0,0:0|0:0,0:0:0:0:
256,112,68759,2,0,L|208:112,1,44,8|0,0:0|0:0,0:0:0:0:
368,192,68920,6,0,L|384:144,1,44,8|0,0:0|0:0,0:0:0:0:
144,192,69080,2,0,L|128:144,1,44,8|0,0:0|0:0,0:0:0:0:
480,272,69240,2,0,L|416:272,1,44,0|0,0:0|0:0,0:0:0:0:
32,288,69401,2,0,L|96:288,1,44,0|0,0:0|0:0,0:0:0:0:
384,320,69561,5,0,0:0:0:0:
396,301,69601,1,0,0:0:0:0:
401,280,69642,1,0,0:0:0:0:
397,258,69682,1,0,0:0:0:0:
386,239,69722,1,0,0:0:0:0:
369,226,69762,1,0,0:0:0:0:
348,220,69802,1,0,0:0:0:0:
128,320,69882,5,0,0:0:0:0:
117,301,69922,1,0,0:0:0:0:
112,280,69962,1,0,0:0:0:0:
116,258,70002,1,0,0:0:0:0:
127,239,70043,1,0,0:0:0:0:
144,226,70083,1,0,0:0:0:0:
165,220,70123,1,0,0:0:0:0:
464,160,70203,5,0,0:0:0:0:
469,138,70243,1,0,0:0:0:0:
465,117,70283,1,0,0:0:0:0:
455,98,70323,1,0,0:0:0:0:
438,84,70363,1,0,0:0:0:0:
416,78,70404,1,0,0:0:0:0:
394,80,70444,1,0,0:0:0:0:
48,160,70524,5,0,0:0:0:0:
43,138,70564,1,0,0:0:0:0:
47,117,70604,1,0,0:0:0:0:
57,98,70644,1,0,0:0:0:0:
74,84,70684,1,0,0:0:0:0:
96,78,70724,1,0,0:0:0:0:
118,80,70765,1,0,0:0:0:0:
464,192,70845,6,0,L|352:192,1,88,2|0,0:0|0:0,0:0:0:0:
320,192,71085,1,0,0:0:0:0:
48,192,71166,2,0,L|160:192,1,88,2|0,0:0|0:0,0:0:0:0:
192,192,71406,1,0,0:0:0:0:
464,144,71486,5,2,0:0:0:0:
192,112,71647,2,0,L|120:112,1,44,0|0,0:0|0:0,0:0:0:0:
320,112,71807,1,8,0:0:0:0:
32,96,72128,6,0,L|144:96,1,110,0|0,0:0|0:0,0:0:0:0:
368,96,72449,1,8,0:0:0:0:
144,144,72609,1,2,0:0:0:0:
199,144,72690,1,0,0:0:0:0:
254,144,72770,5,2,0:0:0:0:
416,144,72930,1,0,0:0:0:0:
144,192,73091,2,0,L|32:192,1,110,8|0,0:0|0:0,0:0:0:0:
368,192,73412,6,0,L|496:192,1,110,2|0,0:0|0:0,0:0:0:0:
320,224,73652,1,0,0:0:0:0:
160,224,73732,2,0,L|48:224,1,110,8|2,0:0|0:0,0:0:0:0:
208,272,73973,1,0,0:0:0:0:
368,304,74053,6,0,L|480:304,1,110,0|2,0:0|0:0,0:0:0:0:
320,320,74294,1,0,0:0:0:0:
160,336,74374,2,0,L|48:336,1,110,0|0,0:0|0:0,0:0:0:0:
208,304,74615,1,0,0:0:0:0:
368,256,74695,6,0,L|480:256,1,110,2|0,0:0|0:0,0:0:0:0:
256,176,75016,1,8,0:0:0:0:
32,144,75176,1,0,0:0:0:0:
87,144,75256,1,2,0:0:0:0:
142,144,75337,5,0,0:0:0:0:
368,128,75497,2,0,L|496:128,1,110,2|8,0:0|0:0,0:0:0:0:
256,80,75818,1,2,0:0:0:0:
480,48,75978,6,0,L|368:48,1,110,0|2,0:0|0:0,0:0:0:0:
304,48,76219,1,0,0:0:0:0:
32,48,76299,2,0,L|144:48,1,110,8|0,0:0|0:0,0:0:0:0:
208,48,76540,1,0,0:0:0:0:
368,96,76620,6,0,L|288:96,1,55,0|0,0:0|0:0,0:0:0:0:
144,96,76781,2,0,L|224:96,1,55,0|0,0:0|0:0,0:0:0:0:
368,176,76941,2,0,L|480:176,1,110,0|8,0:0|0:0,0:0:0:0:
144,176,77262,5,2,0:0:0:0:
256,208,77422,1,0,0:0:0:0:
96,256,77583,2,0,L|16:176,1,110,8|0,0:0|0:0,0:0:0:0:
256,160,77823,1,2,0:0:0:0:
496,176,77904,6,0,L|418:253,1,110,0|2,0:0|0:0,0:0:0:0:
96,256,78224,1,0,0:0:0:0:
416,208,78385,1,0,0:0:0:0:
304,224,78545,6,0,L|432:224,1,110,2|0,0:0|0:0,0:0:0:0:
480,224,78786,1,0,0:0:0:0:
144,192,78866,2,0,L|272:192,1,110,8|2,0:0|0:0,0:0:0:0:
320,192,79107,1,0,0:0:0:0:
256,256,79187,6,0,L|128:256,1,110,0|2,0:0|0:0,0:0:0:0:
80,256,79428,1,0,0:0:0:0:
368,192,79508,2,0,L|240:192,1,110,8|0,0:0|0:0,0:0:0:0:
192,192,79748,1,0,0:0:0:0:
368,160,79829,6,0,L|480:160,2,110,2|0|8,0:0|0:0|0:0,0:0:0:0:
32,160,80310,1,0,0:0:0:0:
87,160,80390,1,2,0:0:0:0:
142,160,80470,5,0,0:0:0:0:
368,128,80631,2,0,L|480:128,1,110,2|8,0:0|0:0,0:0:0:0:
32,112,80952,1,0,0:0:0:0:
256,128,81112,6,0,L|400:128,1,110,2|0,0:0|0:0,0:0:0:0:
392,80,81353,1,0,0:0:0:0:
192,128,81433,2,0,L|48:128,1,110,8|0,0:0|0:0,0:0:0:0:
56,80,81674,1,0,0:0:0:0:
320,128,81754,6,0,L|464:128,1,110,2|2,0:0|0:0,0:0:0:0:
456,80,81994,1,0,0:0:0:0:
256,96,82075,2,0,L|112:96,1,110,8|0,0:0|0:0,0:0:0:0:
120,48,82315,1,0,0:0:0:0:
432,80,82396,6,0,L|448:144,1,55,2|0,0:0|0:0,0:0:0:0:
304,128,82556,2,0,L|288:192,1,55,0|0,0:0|0:0,0:0:0:0:
384,192,82716,1,8,0:0:0:0:
80,192,82877,1,0,0:0:0:0:
144,192,82957,1,2,0:0:0:0:
208,192,83037,5,0,0:0:0:0:
272,192,83117,1,0,0:0:0:0:
336,192,83198,1,2,0:0:0:0:
80,80,83358,6,0,L|64:144,1,55,8|0,0:0|0:0,0:0:0:0:
208,128,83519,2,0,L|224:192,1,55,0|0,0:0|0:0,0:0:0:0:
128,192,83679,1,2,0:0:0:0:
448,128,83839,2,0,L|384:128,1,55,0|0,0:0|0:0,0:0:0:0:
240,112,84000,6,0,L|304:112,1,55,8|0,0:0|0:0,0:0:0:0:
448,96,84160,1,2,0:0:0:0:
336,80,84321,6,0,L|272:80,1,55,0|0,0:0|0:0,0:0:0:0:
176,80,84481,2,0,L|112:80,1,55,2|0,0:0|0:0,0:0:0:0:
16,144,84642,2,0,L|80:144,1,55,8|0,0:0|0:0,0:0:0:0:
256,144,84802,2,0,L|320:144,1,55,0|0,0:0|0:0,0:0:0:0:
496,160,84962,6,0,L|416:160,1,55,2|0,0:0|0:0,0:0:0:0:
416,192,85123,2,0,L|480:192,1,55,0|0,0:0|0:0,0:0:0:0:
256,192,85283,1,8,0:0:0:0:
80,144,85444,2,0,L|0:144,1,55,2|0,0:0|0:0,0:0:0:0:
0,176,85604,6,0,L|64:176,1,55,0|0,0:0|0:0,0:0:0:0:
256,240,85765,1,2,0:0:0:0:
432,240,85925,2,0,L|512:240,1,55,8|0,0:0|0:0,0:0:0:0:
80,240,86085,2,0,L|0:240,1,55,0|0,0:0|0:0,0:0:0:0:
256,272,86246,6,0,L|320:272,1,55,2|0,0:0|0:0,0:0:0:0:
224,240,86406,2,0,L|144:240,1,55,2|0,0:0|0:0,0:0:0:0:
352,224,86567,2,0,L|384:176,1,55,8|0,0:0|0:0,0:0:0:0:
128,192,86727,2,0,L|96:144,1,55,2|0,0:0|0:0,0:0:0:0:
400,144,86888,6,0,L|320:144,1,55,0|0,0:0|0:0,0:0:0:0:
288,144,87048,2,0,L|224:144,1,55,2|0,0:0|0:0,0:0:0:0:
144,144,87208,2,0,L|80:144,1,55,8|0,0:0|0:0,0:0:0:0:
32,96,87369,2,0,L|96:96,1,55,8|0,0:0|0:0,0:0:0:0:
352,96,87529,6,0,L|432:96,1,55,2|0,0:0|0:0,0:0:0:0:
464,96,87690,2,0,L|448:160,1,55,0|0,0:0|0:0,0:0:0:0:
256,160,87850,1,8,0:0:0:0:
368,176,88011,2,0,L|448:176,1,55,2|0,0:0|0:0,0:0:0:0:
480,176,88171,6,0,L|464:240,1,55,0|0,0:0|0:0,0:0:0:0:
272,240,88331,1,2,0:0:0:0:
384,288,88492,1,8,0:0:0:0:
448,288,88572,1,0,0:0:0:0:
512,288,88652,1,0,0:0:0:0:
105,96,88813,6,0,L|160:96,1,55,2|0,0:0|0:0,0:0:0:0:
224,96,88973,2,0,L|240:160,1,55,2|0,0:0|0:0,0:0:0:0:
80,160,89134,1,8,0:0:0:0:
144,176,89294,2,0,L|199:176,1,55,2|0,0:0|0:0,0:0:0:0:
256,176,89454,6,0,L|272:240,1,55,0|0,0:0|0:0,0:0:0:0:
112,240,89615,1,2,0:0:0:0:
224,288,89775,1,8,0:0:0:0:
160,256,89855,1,0,0:0:0:0:
96,272,89936,1,0,0:0:0:0:
384,176,90096,6,0,L|448:176,1,55,2|0,0:0|0:0,0:0:0:0:
128,176,90256,2,0,L|64:176,1,55,0|0,0:0|0:0,0:0:0:0:
256,128,90417,1,8,0:0:0:0:
480,80,90577,2,0,L|416:80,1,55,2|0,0:0|0:0,0:0:0:0:
32,80,90738,6,0,L|96:80,1,55,0|0,0:0|0:0,0:0:0:0:
256,64,90898,1,2,0:0:0:0:
416,48,91059,1,8,0:0:0:0:
352,48,91139,1,0,0:0:0:0:
288,48,91219,1,0,0:0:0:0:
48,48,91379,6,0,L|32:112,1,55,4|0,0:0|0:0,0:0:0:0:
256,128,91540,2,0,L|272:192,1,55,0|0,0:0|0:0,0:0:0:0:
112,208,91700,2,0,L|176:208,1,55,4|0,0:0|0:0,0:0:0:0:
256,208,91861,2,0,L|320:208,1,55,0|0,0:0|0:0,0:0:0:0:
448,160,92021,6,0,L|352:160,1,55,4|0,0:0|0:0,0:0:0:0:
192,160,92182,2,0,L|256:160,1,55,0|0,0:0|0:0,0:0:0:0:
320,160,92342,2,0,L|256:160,1,55,4|0,0:0|0:0,0:0:0:0:
64,256,92502,2,0,L|128:256,1,55,0|0,0:0|0:0,0:0:0:0:
384,272,92663,5,0,0:0:0:0:
402,220,92743,1,0,0:0:0:0:
399,165,92823,1,0,0:0:0:0:
376,116,92904,1,0,0:0:0:0:
335,79,92984,1,0,0:0:0:0:
284,60,93064,1,0,0:0:0:0:
230,63,93144,1,0,0:0:0:0:
180,86,93224,1,0,0:0:0:0:
143,126,93305,5,0,0:0:0:0:
124,177,93385,1,0,0:0:0:0:
126,231,93465,1,0,0:0:0:0:
148,281,93545,1,0,0:0:0:0:
384,272,93625,1,4,0:0:0:0:
144,160,93946,5,2,0:0:0:0:
368,160,94107,1,0,0:0:0:0:
144,160,94267,1,8,0:0:0:0:
432,112,94428,1,0,0:0:0:0:
368,112,94508,1,2,0:0:0:0:
304,112,94588,5,0,0:0:0:0:
464,64,94748,1,2,0:0:0:0:
48,64,94909,1,8,0:0:0:0:
336,64,95069,1,2,0:0:0:0:
176,64,95230,5,2,0:0:0:0:
464,64,95390,1,0,0:0:0:0:
176,96,95551,1,8,0:0:0:0:
336,144,95711,1,0,0:0:0:0:
272,144,95791,1,2,0:0:0:0:
208,144,95871,5,0,0:0:0:0:
368,192,96032,1,2,0:0:0:0:
144,192,96192,1,8,0:0:0:0:
368,240,96353,1,2,0:0:0:0:
32,240,96513,6,0,L|176:240,1,110,2|2,0:0|0:0,0:0:0:0:
480,240,96834,2,0,L|336:240,1,110,8|2,0:0|0:0,0:0:0:0:
144,208,97155,6,0,L|80:208,1,55,0|0,0:0|0:0,0:0:0:0:
368,208,97315,2,0,L|432:208,1,55,2|0,0:0|0:0,0:0:0:0:
192,160,97476,1,8,0:0:0:0:
320,160,97636,1,2,0:0:0:0:
80,112,97797,6,0,L|192:112,1,110,2|0,0:0|0:0,0:0:0:0:
432,112,98117,2,0,L|304:112,1,110,8|0,0:0|0:0,0:0:0:0:
256,112,98358,1,2,0:0:0:0:
464,64,98438,6,0,L|352:64,1,110,0|2,0:0|0:0,0:0:0:0:
48,64,98759,2,0,L|160:64,1,110,8|0,0:0|0:0,0:0:0:0:
320,128,99080,5,2,0:0:0:0:
192,128,99240,1,0,0:0:0:0:
336,176,99401,1,8,0:0:0:0:
176,176,99561,1,0,0:0:0:0:
416,176,99722,6,0,L|448:240,1,55,0|0,0:0|0:0,0:0:0:0:
352,224,99882,2,0,L|320:288,1,55,2|0,0:0|0:0,0:0:0:0:
416,304,100043,2,0,L|272:304,1,110,8|8,0:0|0:0,0:0:0:0:
144,304,100363,5,2,0:0:0:0:
304,256,100524,1,0,0:0:0:0:
64,256,100684,1,8,0:0:0:0:
384,192,100845,1,0,0:0:0:0:
144,192,101005,5,0,0:0:0:0:
304,176,101166,1,2,0:0:0:0:
64,144,101326,1,8,0:0:0:0:
384,128,101486,1,0,0:0:0:0:
32,96,101647,6,0,L|0:144,3,55,4|0|0|0,0:0|0:0|0:0|0:0,0:0:0:0:
160,160,101968,2,0,L|144:224,3,55,4|0|0|2,0:0|0:0|0:0|0:0,0:0:0:0:
304,208,102289,6,0,L|320:272,3,55,4|0|2|0,0:0|0:0|0:0|0:0,0:0:0:0:
464,112,102609,2,0,L|496:160,3,55,12|0|0|0,0:0|0:0|0:0|0:0,0:0:0:0:
336,144,102930,5,0,0:0:0:0:
448,80,103091,1,0,0:0:0:0:
144,64,103251,1,8,0:0:0:0:
32,48,103412,2,0,L|0:144,1,55,0|0,0:0|0:0,0:0:0:0:
0,144,103572,5,0,0:0:0:0:
160,144,103732,1,0,0:0:0:0:
512,144,103893,1,8,0:0:0:0:
160,144,104053,1,0,0:0:0:0:
320,176,104214,6,0,L|208:176,1,110,2|2,0:0|0:0,0:0:0:0:
368,208,104535,2,0,L|480:208,1,110,8|2,0:0|0:0,0:0:0:0:
256,208,104855,6,0,L|192:208,1,55,0|0,0:0|0:0,0:0:0:0:
256,160,105016,2,0,L|320:160,1,55,2|0,0:0|0:0,0:0:0:0:
160,160,105176,2,0,L|48:160,1,110,8|2,0:0|0:0,0:0:0:0:
320,96,105497,6,0,L|208:96,3,110,2|0|8|0,0:0|0:0|0:0|0:0,0:0:0:0:
432,160,106139,6,0,L|320:160,1,110,0|2,0:0|0:0,0:0:0:0:
432,208,106460,1,8,0:0:0:0:
80,208,106620,1,2,0:0:0:0:
432,160,106781,6,0,L|496:160,1,55,2|0,0:0|0:0,0:0:0:0:
416,128,106941,2,0,L|336:128,1,55,0|0,0:0|0:0,0:0:0:0:
288,112,107101,2,0,L|352:112,1,55,8|0,0:0|0:0,0:0:0:0:
272,80,107262,2,0,L|192:80,1,55,2|0,0:0|0:0,0:0:0:0:
144,80,107422,6,0,L|112:128,3,55,2|0|2|0,0:0|0:0|0:0|0:0,0:0:0:0:
256,128,107743,2,0,L|336:128,1,55,8|0,0:0|0:0,0:0:0:0:
112,128,107904,2,0,L|48:128,1,55,8|0,0:0|0:0,0:0:0:0:
320,176,108064,6,0,L|192:176,1,110,2|0,0:0|0:0,0:0:0:0:
48,176,108385,1,8,0:0:0:0:
368,256,108545,1,2,0:0:0:0:
313,256,108625,1,0,0:0:0:0:
258,256,108706,5,0,0:0:0:0:
96,256,108866,1,2,0:0:0:0:
416,320,109027,1,8,0:0:0:0:
256,320,109107,1,0,0:0:0:0:
96,320,109187,1,0,0:0:0:0:
32,128,109347,5,2,0:0:0:0:
192,128,109428,1,0,0:0:0:0:
352,128,109508,2,0,L|480:128,1,110,2|8,0:0|0:0,0:0:0:0:
512,192,109829,1,2,0:0:0:0:
352,192,109909,1,0,0:0:0:0:
192,192,109989,6,0,L|64:192,1,110,0|2,0:0|0:0,0:0:0:0:
304,256,110310,2,0,L|192:256,1,110,8|0,0:0|0:0,0:0:0:0:
416,256,110631,5,2,0:0:0:0:
192,256,110791,1,0,0:0:0:0:
304,304,110952,1,8,0:0:0:0:
80,304,111112,1,0,0:0:0:0:
416,208,111273,6,0,L|432:144,1,55,0|0,0:0|0:0,0:0:0:0:
192,208,111433,2,0,L|208:144,1,55,2|0,0:0|0:0,0:0:0:0:
304,208,111593,2,0,L|288:144,1,55,0|0,0:0|0:0,0:0:0:0:
80,240,111754,2,0,L|64:176,1,55,0|0,0:0|0:0,0:0:0:0:
256,144,111914,6,0,L|336:144,1,55,4|0,0:0|0:0,0:0:0:0:
240,112,112075,2,0,L|176:112,1,55,0|0,0:0|0:0,0:0:0:0:
368,112,112235,2,0,L|448:112,1,55,4|0,0:0|0:0,0:0:0:0:
352,80,112396,2,0,L|288:80,1,55,0|0,0:0|0:0,0:0:0:0:
480,80,112556,6,0,L|496:144,1,55,4|0,0:0|0:0,0:0:0:0:
304,144,112716,2,0,L|288:208,1,55,0|0,0:0|0:0,0:0:0:0:
464,176,112877,2,0,L|480:240,1,55,4|0,0:0|0:0,0:0:0:0:
288,208,113037,2,0,L|272:272,1,55,0|0,0:0|0:0,0:0:0:0:
448,304,113198,6,0,L|336:304,1,88,0|0,0:0|0:0,0:0:0:0:
256,288,113519,2,0,L|368:288,1,88,0|0,0:0|0:0,0:0:0:0:
192,256,113839,6,0,L|304:256,1,88,0|0,0:0|0:0,0:0:0:0:
224,192,114160,2,0,L|112:192,1,88,0|0,0:0|0:0,0:0:0:0:
240,144,114481,6,0,L|288:48,1,88,2|0,0:0|0:0,0:0:0:0:
176,64,114802,2,0,L|288:64,1,88,0|2,0:0|0:0,0:0:0:0:
416,64,115123,6,0,L|320:64,1,88,0|0,0:0|0:0,0:0:0:0:
176,112,115444,1,2,0:0:0:0:
336,112,115604,1,0,0:0:0:0:
32,112,115765,6,0,L|16:224,1,88,2|0,0:0|0:0,0:0:0:0:
176,192,116085,2,0,L|192:304,1,88,2|2,0:0|0:0,0:0:0:0:
352,256,116406,6,0,L|336:368,1,88,0|2,0:0|0:0,0:0:0:0:
496,240,116727,2,0,L|512:352,1,88,0|2,0:0|0:0,0:0:0:0:
256,128,117048,5,2,0:0:0:0:
212,128,117128,1,2,0:0:0:0:
168,128,117208,1,2,0:0:0:0:
32,112,117369,2,0,L|128:112,1,88,2|2,0:0|0:0,0:0:0:0:
272,80,117690,6,0,L|176:80,1,88,2|0,0:0|0:0,0:0:0:0:
480,80,118011,2,0,L|384:80,1,88,2|0,0:0|0:0,0:0:0:0:
256,48,118331,6,0,L|352:48,2,88,0|0|2,0:0|0:0|0:0,0:0:0:0:
96,48,118813,1,0,0:0:0:0:
256,112,118973,6,0,L|144:112,2,88,2|0|0,0:0|0:0|0:0,0:0:0:0:
416,112,119454,1,0,0:0:0:0:
256,176,119615,6,0,L|144:176,1,88,2|0,0:0|0:0,0:0:0:0:
32,224,119936,2,0,L|144:224,1,88,0|2,0:0|0:0,0:0:0:0:
256,176,120256,6,0,L|368:176,1,88,0|0,0:0|0:0,0:0:0:0:
480,224,120577,2,0,L|368:224,1,88,2|0,0:0|0:0,0:0:0:0:
112,224,120898,5,2,0:0:0:0:
80,192,120978,1,0,0:0:0:0:
56,160,121059,1,0,0:0:0:0:
35,116,121139,1,0,0:0:0:0:
128,176,121219,1,2,0:0:0:0:
160,144,121299,1,0,0:0:0:0:
192,112,121379,1,2,0:0:0:0:
205,68,121460,1,0,0:0:0:0:
400,224,121540,5,0,0:0:0:0:
432,192,121620,1,0,0:0:0:0:
456,160,121700,1,0,0:0:0:0:
477,116,121781,1,0,0:0:0:0:
384,176,121861,1,2,0:0:0:0:
352,144,121941,1,0,0:0:0:0:
328,112,122021,1,0,0:0:0:0:
307,68,122101,1,0,0:0:0:0:
112,144,122182,6,0,L|80:96,1,44,2|0,0:0|0:0,0:0:0:0:
400,144,122342,2,0,L|432:96,1,44,0|0,0:0|0:0,0:0:0:0:
336,96,122502,2,0,L|368:48,1,44,0|0,0:0|0:0,0:0:0:0:
448,80,122663,2,0,L|480:32,1,44,0|0,0:0|0:0,0:0:0:0:
384,32,122823,6,0,L|343:84,1,44,8|0,0:0|0:0,0:0:0:0:
160,64,122984,2,0,L|136:28,1,44,0|0,0:0|0:0,0:0:0:0:
288,96,123144,2,0,L|312:132,1,44,8|0,0:0|0:0,0:0:0:0:
128,160,123305,2,0,L|152:196,1,44,0|0,0:0|0:0,0:0:0:0:
384,336,123465,5,2,0:0:0:0:
256,192,123625,12,0,127957,0:0:0:0:
