osu file format v14

[General]
AudioFilename: 2.mp3
AudioLeadIn: 0
PreviewTime: 71635
Countdown: 0
SampleSet: Soft
StackLeniency: 0.8
Mode: 0
LetterboxInBreaks: 0
EpilepsyWarning: 1
WidescreenStoryboard: 0

[Editor]
Bookmarks: 20779,30405
DistanceSpacing: 1.3
BeatDivisor: 4
GridSize: 4
TimelineZoom: 1

[Metadata]
Title:Movements Feat. MaHi (Original Mix) (Speed Up Ver.)
TitleUnicode:Movements Feat. MaHi (Original Mix) (Speed Up Ver.)
Artist:MitiS
ArtistUnicode:MitiS
Creator:-[ Asuna ]-
Version:Anre's Hard
Source:
Tags:FlandreScarlet- Serena- AnreFM Path to the Horizon Valentina Remenar CLSW Fort [ Joey ] Game Kin
BeatmapID:531553
BeatmapSetID:183132

[Difficulty]
HPDrainRate:6
CircleSize:4
OverallDifficulty:7
ApproachRate:8
SliderMultiplier:1.5
SliderTickRate:1

[Events]
//Background and Video events
0,0,"Background.jpg",0,0
//Break Periods
2,41526,45710
//Storyboard Layer 0 (Background)
//Storyboard Layer 1 (Fail)
//Storyboard Layer 2 (Pass)
//Storyboard Layer 3 (Foreground)
Sprite,Foreground,Centre,"SB/OpticalFlare.png",320,240 M,0,41326,,320,157 F,0,41326,41406,0,1 V,0,41326,41406,0.1,0.1,0.9340653,1.049677 F,0,41406,51273,1 V,0,41406,51273,0.9340653,1.049677,0.9423233,1.066193 V,0,51273,51433,0.9423233,1.066193,1.024904,1.24787 F,0,51273,51593,1,0 V,0,51433,51593,1.024904,1.24787,0.1,0.1
Sprite,Foreground,Centre,"SB/Flare2.png",320,240 M,0,41326,,319,159 F,0,41326,41406,0,1 S,0,41326,41406,0.1,1.181807 R,0,41326,51593,-1.932387,-1.816774 P,0,41406,,A F,0,41406,50952,1 S,0,41406,51593,1.181807 F,0,50952,51593,1,0
Sprite,Foreground,Centre,"SB/Mapped.png",320,240 P,0,42289,,A F,0,42289,42609,0,0.9 V,1,42289,42609,0.01,0.7687742,0.8432258,0.7687742 M,0,42289,51593,231,109,203,109 V,0,42609,51273,0.8432258,0.7687742 F,0,51273,51593,0.9,0
Sprite,Foreground,Centre,"SB/AnreFM.png",320,240 P,0,43572,,A F,0,43572,43893,0,0.9 V,1,43572,43893,0.01,0.7687742,0.8432258,0.7687742 M,0,43572,51593,361,202,405,202 V,0,43893,51593,0.8432258,0.7687742 F,0,51273,51593,0.9,0
Sprite,Foreground,Centre,"SB/highlight.png",320,240 S,0,51593,,0.9028968 P,0,51593,,A M,0,51593,51914,499,155,501,303 F,0,51593,51914,1,0.75 F,0,51914,52075,0.75,0
Sprite,Foreground,Centre,"SB/highlight.png",320,240 M,0,52075,,425,360 S,0,52075,,0.9028968 P,0,52075,,A F,0,52075,52235,0.6246106,0
Sprite,Foreground,Centre,"SB/highlight.png",320,240 S,0,52235,,0.9028968 P,0,52235,,A M,0,52235,52396,344,416,262,426 F,0,52235,52556,0.5,0.25 M,0,52396,52556,262,426,202,406 F,0,52556,52716,0.25,0
Sprite,Foreground,Centre,"SB/highlight.png",320,240 M,0,52716,,253,333 S,0,52716,,0.9028968 P,0,52716,,A F,0,52716,52877,0.1253894,0
Sprite,Foreground,Centre,"SB/highlight.png",320,240 S,0,54160,,0.9028968 P,0,54160,,A M,0,54160,54240,570,245,552,266 F,0,54160,54481,1,0.75 M,0,54240,54401,552,266,564,326 M,0,54401,54481,564,326,566,369 F,0,54481,54642,0.75,0
Sprite,Foreground,Centre,"SB/highlight.png",520,432 S,0,54642,,0.9028968 P,0,54642,,A F,0,54642,54802,1,0
Sprite,Foreground,Centre,"SB/highlight.png",464,368 F,0,54802,,0.5 S,0,54802,,0.9028968 P,0,54802,,A M,0,54802,54882,464,368,469,347 F,0,54802,55123,0.5,0.25 M,0,54882,54962,469,347,455,315 F,0,55123,55283,0.25,0
Sprite,Foreground,Centre,"SB/highlight.png",392,252 S,0,55123,,0.9028968 P,0,55123,,A M,0,55123,55203,392,252,377,222 F,0,55123,55283,0.25,0.1253894 M,0,55203,55283,377,222,383,199 F,0,55283,55444,0.1253894,0
Sprite,Foreground,Centre,"SB/highlight.png",320,240 S,0,56727,,0.9028968 P,0,56727,,A M,0,56727,56807,303,161,334,172 F,0,56727,56888,1,0.8746106 M,0,56807,56888,334,172,372,164 F,0,56888,57048,0.8746106,0
Sprite,Foreground,Centre,"SB/highlight.png",320,240 F,0,57048,,0.75 S,0,57048,,0.9028968 P,0,57048,,A M,0,57048,57208,441,107,503,107 F,0,57048,57208,0.75,0.6253894 F,0,57208,57369,0.6253894,0
Sprite,Foreground,Centre,"SB/highlight.png",320,240 F,0,57369,,0.5 S,0,57369,,0.9028968 P,0,57369,,A M,0,57369,57529,556,170,571,230 F,0,57369,57609,0.5,0.3130841 M,0,57529,57609,571,230,557,259 F,0,57609,57770,0.3130841,0
Sprite,Foreground,Centre,"SB/highlight.png",320,240 S,0,57690,,0.9028968 P,0,57690,,A M,0,57690,57770,541,317,531,339 F,0,57690,57850,0.3691724,0.2643619 M,0,57770,57850,531,339,533,383 F,0,57850,58011,0.2643619,0
Sprite,Foreground,Centre,"SB/highlight.png",320,240 S,0,59294,,0.9028968 P,0,59294,,A M,0,59294,59454,391,65,350,116 F,0,59294,59615,1,0.7498052 M,0,59454,59615,350,116,273,123 F,0,59615,59775,0.7498052,0
Sprite,Foreground,Centre,"SB/highlight.png",320,240 M,0,59775,,202,95 F,0,59775,,0.6250975 S,0,59775,,0.9028968 P,0,59775,,A F,0,59775,59936,0.6250975,0
Sprite,Foreground,Centre,"SB/highlight.png",320,240 S,0,59936,,0.9028968 P,0,59936,,A M,0,59936,60016,129,141,114,166 F,0,59936,60176,0.4996103,0.3125487 M,0,60016,60096,114,166,117,197 M,0,60096,60176,117,197,119,228 F,0,60176,60337,0.3125487,0
Sprite,Foreground,Centre,"SB/highlight.png",320,240 S,0,60256,,0.9028968 P,0,60256,,A M,0,60256,60417,163,271,156,329 F,0,60256,60417,0.2501948,0.1247077 F,0,60417,60577,0.1247077,0
Sprite,Foreground,Centre,"SB/highlight.png",320,240 S,0,61861,,0.9028968 P,0,61861,,A M,0,61861,62021,98,212,141,255 F,0,61861,62182,1,0.7498052 M,0,62021,62182,141,255,208,231 F,0,62182,62342,0.7498052,0
Sprite,Foreground,Centre,"SB/highlight.png",320,240 M,0,62342,,281,171 S,0,62342,,0.9028968 P,0,62342,,A F,0,62342,62502,0.6250975,0
Sprite,Foreground,Centre,"SB/highlight.png",320,240 F,0,62502,,0.5003897 S,0,62502,,0.9028968 P,0,62502,,A M,0,62502,62583,352,199,390,188 F,0,62502,62663,0.5003897,0.3749025 M,0,62583,62663,390,188,352,188 F,0,62663,62823,0.3749025,0
Sprite,Foreground,Centre,"SB/highlight.png",320,240 S,0,62823,,0.9028968 P,0,62823,,A M,0,62823,62904,298,253,284,280 F,0,62823,62984,0.2501948,0.1247077 M,0,62904,62984,284,280,292,317 F,0,62984,63144,0.1247077,0
Sprite,Foreground,Centre,"SB/highlight.png",320,240 S,0,64428,,0.9028968 P,0,64428,,A M,0,64428,64588,538,87,490,120 F,0,64428,64748,1,0.7505845 M,0,64588,64748,490,120,428,100 F,0,64748,64909,0.7505845,0
Sprite,Foreground,Centre,"SB/highlight.png",320,240 M,0,64909,,362,154 S,0,64909,,0.9028968 P,0,64909,,A F,0,64909,65069,0.6250975,0
Sprite,Foreground,Centre,"SB/highlight.png",320,240 S,0,65069,,0.9028968 P,0,65069,,A M,0,65069,65230,296,217,301,278 F,0,65069,65230,0.5003897,0.3749025 F,0,65230,65390,0.3749025,0
Sprite,Foreground,Centre,"SB/highlight.png",320,240 S,0,65390,,0.9028968 P,0,65390,,A M,0,65390,65551,209,271,220,342 F,0,65390,65551,0.2501948,0.1247077 F,0,65551,65711,0.1247077,0
Sprite,Foreground,Centre,"SB/highlight.png",320,240 S,0,66994,,0.9028968 P,0,66994,,A M,0,66994,67155,345,178,412,202 F,0,66994,67315,1,0.5 M,0,67155,67315,412,202,463,182 F,0,67315,67476,0.5,0
Sprite,Foreground,Centre,"SB/highlight.png",320,240 M,0,67476,,402,120 S,0,67476,,0.9028968 P,0,67476,,A F,0,67476,67636,0.2492212,0
Sprite,Foreground,Centre,"SB/highlight.png",320,240 S,0,68278,,0.9028968 P,0,68278,,A M,0,68278,68438,202,384,220,321 F,0,68278,68599,1,0.5 M,0,68438,68599,220,321,187,263 F,0,68599,68759,0.5,0
Sprite,Foreground,Centre,"SB/highlight.png",320,240 M,0,68759,,120,225 S,0,68759,,0.9028968 P,0,68759,,A F,0,68759,68920,0.2507788,0
//Storyboard Sound Samples

[TimingPoints]
257,320.855614973262,4,2,4,50,1,0
20791,-133.333333333333,4,2,2,50,0,0
20871,-133.333333333333,4,2,5,50,0,0
22075,-133.333333333333,4,2,2,50,0,0
22155,-133.333333333333,4,2,5,50,0,0
23358,-133.333333333333,4,2,2,50,0,0
23438,-133.333333333333,4,2,5,50,0,0
24642,-133.333333333333,4,2,2,50,0,0
24722,-133.333333333333,4,2,5,50,0,0
25925,-133.333333333333,4,2,2,50,0,0
26005,-133.333333333333,4,2,5,50,0,0
27208,-133.333333333333,4,2,2,50,0,0
27289,-133.333333333333,4,2,5,50,0,0
28492,-133.333333333333,4,2,2,50,0,0
28572,-133.333333333333,4,2,5,50,0,0
31059,-117.647058823529,4,2,2,70,0,0
41326,-100,4,2,2,30,0,0
46460,-125,4,2,2,30,0,0
46781,-125,4,2,2,30,0,0
47743,-125,4,2,2,30,0,0
48385,-125,4,2,2,10,0,0
49027,-125,4,2,2,20,0,0
49668,-125,4,2,2,30,0,0
50310,-125,4,2,2,40,0,0
50952,-125,4,2,2,50,0,0
51593,-105.263157894737,4,2,2,60,0,0
52877,-105.263157894737,4,2,2,50,0,0
52957,-105.263157894737,4,2,2,50,0,0
54160,-105.263157894737,4,2,2,55,0,0
54240,-105.263157894737,4,2,2,55,0,0
55444,-105.263157894737,4,2,2,60,0,0
55524,-105.263157894737,4,2,2,60,0,0
56727,-105.263157894737,4,2,2,65,0,0
56807,-105.263157894737,4,2,2,65,0,0
58011,-105.263157894737,4,2,2,70,0,0
58091,-105.263157894737,4,2,2,70,0,0
59294,-105.263157894737,4,2,2,75,0,0
59374,-105.263157894737,4,2,2,75,0,0
60577,-105.263157894737,4,2,2,80,0,0
60658,-105.263157894737,4,2,2,80,0,0
61861,-105.263157894737,4,1,0,85,0,0
61941,-105.263157894737,4,2,5,85,0,0
63144,-105.263157894737,4,2,2,90,0,0
63224,-105.263157894737,4,2,5,90,0,0
64428,-105.263157894737,4,2,2,100,0,0
64508,-105.263157894737,4,2,3,100,0,0
65711,-105.263157894737,4,2,2,80,0,0
65791,-105.263157894737,4,2,3,80,0,0
72128,-100,4,2,3,100,0,1
92663,-133.333333333333,4,2,4,55,0,0
93946,-100,4,2,3,100,0,1
113198,-133.333333333333,4,2,3,60,0,0
114481,-133.333333333333,4,2,0,40,0,0
124428,-133.333333333333,4,2,0,30,0,0
126032,-133.333333333333,4,2,0,20,0,0
126994,-133.333333333333,4,2,0,10,0,0

[Colours]
Combo1 : 248,97,160
Combo2 : 27,166,241
Combo3 : 236,167,245
Combo4 : 105,82,199

[HitObjects]
8,188,20791,6,0,P|52:204|112:180,1,112.500004291535,0|8,0:0|0:0,0:0:0:0:
172,132,21273,2,0,L|304:128,1,112.500004291535,0|0,0:0|0:0,0:0:0:0:
412,156,21754,1,0,0:0:0:0:
412,156,22075,6,0,P|416:136|408:88,2,56.2500021457673,0|0|8,0:0|0:0|0:0,0:0:0:0:
356,212,22556,2,0,L|368:324,1,112.500004291535,0|0,0:0|0:0,0:0:0:0:
316,384,23037,1,8,0:0:0:0:
232,340,23198,1,0,0:0:0:0:
128,364,23358,6,0,P|64:380|16:348,1,112.500004291535,0|8,0:0|0:0,0:0:0:0:
80,300,23839,2,0,P|96:244|64:192,1,112.500004291535,0|0,0:0|0:0,0:0:0:0:
16,256,24321,1,0,0:0:0:0:
4,100,24642,6,0,P|0:72|16:40,1,56.2500021457673,0|0,0:0|0:0,0:0:0:0:
76,4,24962,1,8,0:0:0:0:
220,72,25283,2,0,L|292:64,1,56.2500021457673,8|0,0:0|0:0,0:0:0:0:
400,120,25604,2,0,L|344:126,1,56.2500021457673,8|0,0:0|0:0,0:0:0:0:
260,208,25925,6,0,P|212:232|156:212,1,112.500004291535,0|8,0:0|0:0,0:0:0:0:
96,168,26406,1,0,0:0:0:0:
8,296,26727,2,0,P|0:328|4:352,2,56.2500021457673,0|0|0,0:0|0:0|0:0,0:0:0:0:
76,256,27208,6,0,L|192:252,1,112.500004291535,0|8,0:0|0:0,0:0:0:0:
256,296,27690,2,0,P|284:300|324:288,1,56.2500021457673,0|8,0:0|0:0,0:0:0:0:
452,224,28171,1,8,0:0:0:0:
300,140,28492,6,0,P|284:80|316:32,1,112.500004291535,0|8,0:0|0:0,0:0:0:0:
368,92,28973,2,0,P|384:152|352:200,1,112.500004291535,0|0,0:0|0:0,0:0:0:0:
288,220,29454,1,8,0:0:0:0:
272,224,29775,1,0,0:0:0:0:
20,192,31059,5,0,0:0:0:0:
20,192,31540,2,0,L|152:184,1,127.50000243187,0|0,0:0|0:0,0:0:0:0:
212,236,32021,2,0,P|244:244|288:228,1,63.7500012159348,8|0,0:0|0:0,0:0:0:0:
388,180,32342,5,0,0:0:0:0:
388,180,32823,2,0,P|360:240|392:304,1,127.50000243187,0|0,0:0|0:0,0:0:0:0:
328,360,33305,2,0,L|260:372,1,63.7500012159348,8|0,0:0|0:0,0:0:0:0:
140,316,33625,5,0,0:0:0:0:
140,316,34107,2,0,P|64:328|28:292,1,127.50000243187,0|0,0:0|0:0,0:0:0:0:
96,244,34588,1,8,0:0:0:0:
24,96,34909,6,0,P|16:68|40:20,1,63.7500012159348,0|0,0:0|0:0,0:0:0:0:
100,72,35230,2,0,P|108:102|98:132,1,63.7500012159348,8|0,0:0|0:0,0:0:0:0:
136,208,35551,2,0,L|220:216,1,63.7500012159348,0|0,0:0|0:0,0:0:0:0:
256,276,35871,2,0,L|340:284,1,63.7500012159348,8|0,0:0|0:0,0:0:0:0:
408,340,36192,6,0,P|428:276|392:216,1,127.50000243187,2|8,0:0|0:0,0:0:0:0:
344,164,36674,2,0,P|318:107|338:48,1,127.50000243187,0|0,0:0|0:0,0:0:0:0:
408,104,37155,1,8,0:0:0:0:
408,104,37315,1,0,0:0:0:0:
408,104,37476,6,0,P|424:128|424:176,1,63.7500012159348,0|0,0:0|0:0,0:0:0:0:
384,232,37797,2,0,L|392:308,1,63.7500012159348,8|0,0:0|0:0,0:0:0:0:
336,360,38117,2,0,P|268:380|212:348,1,127.50000243187,0|8,0:0|0:0,0:0:0:0:
152,304,38599,1,0,0:0:0:0:
60,196,38759,6,0,L|68:258,1,63.7500012159348
92,116,39080,2,0,L|83:53,1,63.7500012159348,8|0,0:0|0:0,0:0:0:0:
176,136,39401,2,0,P|207:146|252:128,2,63.7500012159348,0|0|8,0:0|0:0|0:0,0:0:0:0:
248,52,39882,1,0,0:0:0:0:
336,92,40043,2,0,P|346:120|340:172,1,63.7500012159348,0|0,0:0|0:0,0:0:0:0:
292,216,40363,2,0,L|296:304,1,63.7500012159348,8|0,0:0|0:0,0:0:0:0:
232,336,40684,2,0,P|164:368|112:344,1,127.50000243187,0|0,0:0|0:0,0:0:0:0:
118,350,41326,5,2,0:0:0:0:
12,192,46460,5,0,0:0:0:0:
76,136,46620,1,0,0:0:0:0:
152,176,46781,2,0,P|200:200|272:168,1,120,0|0,0:0|0:0,0:0:0:0:
392,76,47422,2,0,P|388:52|400:16,1,60,0|0,0:0|0:0,0:0:0:0:
468,64,47743,6,0,L|456:196,1,120,0|0,0:0|0:0,0:0:0:0:
428,348,48385,1,0,0:0:0:0:
356,304,48545,2,0,P|328:292|280:300,2,60,0|0|0,0:0|0:0|0:0,0:0:0:0:
428,348,49027,2,0,P|436:328|428:272,1,60,0|0,0:0|0:0,0:0:0:0:
380,228,49347,2,0,P|357:167|380:108,1,120,0|0,0:0|0:0,0:0:0:0:
232,24,49989,2,0,L|236:96,1,60,0|0,0:0|0:0,0:0:0:0:
180,148,50310,6,0,L|184:220,2,60,0|0|0,0:0|0:0|0:0,0:0:0:0:
116,256,50952,1,0,0:0:0:0:
184,208,51112,1,0,0:0:0:0:
260,240,51273,1,0,0:0:0:0:
328,192,51433,1,0,0:0:0:0:
432,100,51593,6,0,L|424:248,1,142.49999619484,0|8,0:0|0:0,0:0:0:0:
360,300,52075,1,0,0:0:0:0:
292,348,52235,2,0,P|216:376|160:344,1,142.49999619484,0|8,0:0|0:0,0:0:0:0:
212,276,52716,1,0,0:0:0:0:
168,204,52877,2,0,L|160:116,1,71.2499980974198,2|0,0:0|0:0,0:0:0:0:
224,76,53198,2,0,P|216:44|232:4,2,71.2499980974198,8|0|0,0:0|0:0|0:0,0:0:0:0:
292,132,53679,1,0,0:0:0:0:
376,128,53839,2,0,L|460:116,1,71.2499980974198,8|0,0:0|0:0,0:0:0:0:
508,176,54160,6,0,B|492:192|492:192|532:240|500:328,1,142.49999619484,2|8,0:0|0:0,0:0:0:0:
456,376,54642,1,0,0:0:0:0:
400,312,54802,2,0,P|408:288|392:236,1,71.2499980974198,0|0,0:0|0:0,0:0:0:0:
328,196,55123,2,0,P|317:162|326:128,1,71.2499980974198,8|0,0:0|0:0,0:0:0:0:
392,40,55444,2,0,P|324:89|276:72,1,142.49999619484,0|8,0:0|0:0,0:0:0:0:
204,28,55925,1,0,0:0:0:0:
136,80,56085,2,0,L|64:88,2,71.2499980974198,0|2|8,0:0|0:0|0:0,0:0:0:0:
204,28,56567,1,0,0:0:0:0:
256,96,56727,6,0,P|288:104|336:88,1,71.2499980974198,2|0,0:0|0:0,0:0:0:0:
392,40,57048,2,0,L|468:40,1,71.2499980974198,8|0,0:0|0:0,0:0:0:0:
504,116,57369,2,0,P|524:156|500:228,1,106.87499714613,0|0,0:0|0:0,0:0:0:0:
488,252,57690,2,0,P|476:284|488:340,1,71.2499980974198,8|0,0:0|0:0,0:0:0:0:
416,380,58011,1,2,0:0:0:0:
336,352,58171,2,0,L|248:352,2,71.2499980974198,0|8|0,0:0|0:0|0:0,0:0:0:0:
396,292,58652,2,0,P|404:264|392:216,1,71.2499980974198,0|2,0:0|0:0,0:0:0:0:
336,164,58973,2,0,L|340:84,1,71.2499980974198,8|0,0:0|0:0,0:0:0:0:
336,4,59294,6,0,P|296:58|208:44,1,142.49999619484,2|8,0:0|0:0,0:0:0:0:
148,24,59775,1,0,0:0:0:0:
80,76,59936,2,0,P|56:120|76:184,1,106.87499714613,0|0,0:0|0:0,0:0:0:0:
96,204,60256,2,0,L|88:288,1,71.2499980974198,8|0,0:0|0:0,0:0:0:0:
256,192,60577,12,0,61540,0:0:0:0:
48,148,61861,6,0,P|104:184|180:152,1,142.49999619484,4|8,0:0|0:0,0:0:0:0:
232,100,62342,1,0,0:0:0:0:
308,136,62502,2,0,L|352:132,2,35.6249990487099,0|0|0,0:0|0:0|0:0,0:0:0:0:
248,196,62823,2,0,P|240:234|260:276,1,71.2499980974198,8|0,0:0|0:0,0:0:0:0:
300,332,63144,1,0,0:0:0:0:
380,364,63305,2,0,L|472:356,1,71.2499980974198,0|8,0:0|0:0,0:0:0:0:
504,292,63625,1,0,0:0:0:0:
504,292,63706,1,0,0:0:0:0:
504,292,63786,2,0,B|512:280|512:280|508:212,1,71.2499980974198,0|0,0:0|0:0,0:0:0:0:
452,160,64107,2,0,P|444:136|460:76,1,71.2499980974198,8|0,0:0|0:0,0:0:0:0:
500,20,64428,6,0,P|455:58|376:32,1,142.49999619484,0|8,0:0|0:0,0:0:0:0:
316,92,64909,1,0,0:0:0:0:
252,148,65069,2,0,L|260:240,1,71.2499980974198,0|0,0:0|0:0,0:0:0:0:
172,216,65390,2,0,L|180:308,1,71.2499980974198,8|0,0:0|0:0,0:0:0:0:
88,360,65711,2,0,L|76:208,1,142.49999619484,2|0,0:0|0:0,0:0:0:0:
32,144,66192,1,0,0:0:0:0:
60,64,66353,1,0,0:0:0:0:
60,64,66433,1,0,0:0:0:0:
60,64,66513,2,0,P|94:73|140:56,1,71.2499980974198,0|8,0:0|0:0,0:0:0:0:
204,28,66834,1,0,0:0:0:0:
308,112,66994,6,0,P|376:144|440:104,1,142.49999619484,2|2,0:0|0:0,0:0:0:0:
368,56,67476,1,0,0:0:0:0:
284,36,67636,2,0,P|252:48|232:96,1,71.2499980974198,2|0,0:0|0:0,0:0:0:0:
232,164,67957,2,0,L|240:260,1,71.2499980974198,2|2,0:0|0:0,0:0:0:0:
168,320,68278,2,0,P|187:250|152:196,1,142.49999619484,8|8,0:0|0:0,0:0:0:0:
76,156,68759,1,8,0:0:0:0:
76,156,68839,1,8,0:0:0:0:
76,156,68920,1,0,0:0:0:0:
16,96,69080,2,0,L|8:12,2,71.2499980974198,8|0|0,0:0|0:0|0:0,0:0:0:0:
256,192,69561,12,2,70845,0:0:0:0:
36,164,72128,6,0,L|128:152,1,75,4|0,0:0|0:0,0:0:0:0:
192,144,72449,1,8,0:0:0:0:
264,184,72609,2,0,P|327:205|396:152,1,150,2|0,0:0|0:0,0:0:0:0:
460,92,73091,2,0,P|444:132|460:176,1,75,8|0,0:0|0:0,0:0:0:0:
496,232,73412,1,2,0:0:0:0:
464,308,73572,1,0,0:0:0:0:
384,324,73732,1,8,0:0:0:0:
304,296,73893,1,2,0:0:0:0:
220,300,74053,2,0,L|136:308,1,75,0|2,0:0|0:0,0:0:0:0:
72,344,74374,2,0,P|60:308|80:260,1,75,0|0,0:0|0:0,0:0:0:0:
112,204,74695,5,2,0:0:0:0:
164,140,74855,2,0,L|152:52,1,75,0|8,0:0|0:0,0:0:0:0:
236,80,75176,2,0,L|289:9,1,75,0|0,0:0|0:0,0:0:0:0:
328,88,75497,2,0,L|416:76,2,75,0|8|0,0:0|0:0|0:0,0:0:0:0:
276,152,75978,2,0,P|264:184|280:240,1,75,2|2,0:0|0:0,0:0:0:0:
340,268,76299,2,0,P|352:232|346:196,2,75,8|0|0,0:0|0:0|0:0,0:0:0:0:
280,328,76781,1,2,0:0:0:0:
200,308,76941,1,2,0:0:0:0:
136,360,77101,1,8,0:0:0:0:
68,312,77262,6,0,L|60:232,1,75,2|0,0:0|0:0,0:0:0:0:
48,156,77583,1,8,0:0:0:0:
16,64,77743,2,0,P|60:104|152:80,1,150,0|2,0:0|0:0,0:0:0:0:
240,60,78224,2,0,L|320:56,1,75,0|0,0:0|0:0,0:0:0:0:
380,8,78545,2,0,P|396:44|388:92,1,75,2|0,0:0|0:0,0:0:0:0:
345,202,78866,2,0,P|329:169|332:132,1,75,8|2,0:0|0:0,0:0:0:0:
428,160,79187,2,0,L|440:256,1,75,0|2,0:0|0:0,0:0:0:0:
376,364,79508,2,0,L|366:289,1,75,8|0,0:0|0:0,0:0:0:0:
288,268,79829,5,2,0:0:0:0:
212,300,79989,2,0,P|176:312|132:292,1,75,0|8,0:0|0:0,0:0:0:0:
68,340,80310,2,0,P|56:304|76:256,1,75,2|0,0:0|0:0,0:0:0:0:
128,216,80631,1,2,0:0:0:0:
232,176,80791,2,0,L|384:164,1,150,8|2,0:0|0:0,0:0:0:0:
452,120,81273,2,0,P|460:92|440:40,1,75,0|8,0:0|0:0,0:0:0:0:
376,8,81593,1,0,0:0:0:0:
316,64,81754,2,0,L|220:72,1,75,2|2,0:0|0:0,0:0:0:0:
172,116,82075,2,0,L|76:124,1,75,2|2,0:0|0:0,0:0:0:0:
20,88,82396,6,0,P|52:151|28:224,1,150,2|10,0:0|0:0,0:0:0:0:
80,288,82877,2,0,P|104:288|144:316,1,75,0|0,0:0|0:0,0:0:0:0:
208,368,83198,1,2,0:0:0:0:
304,324,83358,2,0,P|337:303|448:344,1,150,8|2,0:0|0:0,0:0:0:0:
508,376,83839,2,0,P|498:331|520:292,1,75,2|8,0:0|0:0,0:0:0:0:
456,240,84160,1,2,0:0:0:0:
448,156,84321,2,0,L|440:68,1,75,2|2,0:0|0:0,0:0:0:0:
353,9,84642,2,0,L|360:84,2,75,8|0|2,0:0|0:0|0:0,0:0:0:0:
280,48,85123,6,0,P|244:60|192:40,1,75,0|8,0:0|0:0,0:0:0:0:
132,24,85444,1,2,0:0:0:0:
60,64,85604,2,0,P|40:100|48:148,1,75,2|2,0:0|0:0,0:0:0:0:
64,244,85925,2,0,B|80:256|80:256|216:240,1,150,8|2,0:0|0:0,0:0:0:0:
280,196,86406,2,0,P|295:225|288:276,1,75,2|8,0:0|0:0,0:0:0:0:
240,328,86727,2,0,L|160:340,2,75,2|0|2,0:0|0:0|0:0,0:0:0:0:
312,364,87208,1,0,0:0:0:0:
396,352,87369,1,2,0:0:0:0:
456,296,87529,6,0,P|464:264|444:216,1,75,2|0,0:0|0:0,0:0:0:0:
392,164,87850,2,0,P|379:129|387:92,2,75,8|0|0,0:0|0:0|0:0,0:0:0:0:
464,124,88331,1,2,0:0:0:0:
456,16,88492,2,0,P|388:59|324:28,1,150,8|2,0:0|0:0,0:0:0:0:
256,76,88973,1,2,0:0:0:0:
172,84,89134,2,0,L|72:88,1,75,8|2,0:0|0:0,0:0:0:0:
224,12,89454,2,0,P|252:44|248:104,1,75,0|2,0:0|0:0,0:0:0:0:
220,148,89775,1,8,0:0:0:0:
268,216,89936,1,0,0:0:0:0:
228,292,90096,6,0,L|236:372,2,75,2|0|8,0:0|0:0|0:0,0:0:0:0:
184,224,90577,1,2,0:0:0:0:
268,216,90738,2,0,P|304:228|356:212,1,75,0|2,0:0|0:0,0:0:0:0:
480,176,91059,2,0,P|444:164|408:170,1,75,8|0,0:0|0:0,0:0:0:0:
440,248,91379,1,4,0:0:0:0:
440,248,91460,1,0,0:0:0:0:
440,248,91540,2,0,L|444:352,2,75,0|4|0,0:0|0:0|0:0,0:0:0:0:
480,176,92021,2,0,P|488:144|468:96,1,75,4|0,0:0|0:0,0:0:0:0:
396,0,92342,2,0,P|388:36|400:71,1,75,4|0,0:0|0:0,0:0:0:0:
348,148,92663,6,0,L|276:156,1,56.2500021457673,0|0,0:0|0:0,0:0:0:0:
260,160,92984,1,0,0:0:0:0:
232,164,93305,1,0,0:0:0:0:
204,168,93625,1,4,0:0:0:0:
204,168,93946,6,0,L|120:176,1,75,2|0,0:0|0:0,0:0:0:0:
52,144,94267,2,0,P|40:120|56:56,2,75,8|0|0,0:0|0:0|0:0,0:0:0:0:
128,176,94748,1,2,0:0:0:0:
128,176,94829,1,0,0:0:0:0:
128,176,94909,2,0,L|120:268,1,75,8|2,0:0|0:0,0:0:0:0:
164,320,95230,1,2,0:0:0:0:
240,348,95390,2,0,P|272:356|336:336,1,75,0|8,0:0|0:0,0:0:0:0:
380,300,95711,2,0,P|372:284|388:220,1,75,0|0,0:0|0:0,0:0:0:0:
428,164,96032,1,0,0:0:0:0:
496,72,96192,6,0,P|424:112|368:84,1,150,2|2,0:0|0:0,0:0:0:0:
304,32,96674,2,0,L|204:40,1,75,2|8,0:0|0:0,0:0:0:0:
172,96,96994,1,2,0:0:0:0:
172,96,97075,1,0,0:0:0:0:
172,96,97155,2,0,L|72:104,1,75,0|2,0:0|0:0,0:0:0:0:
32,152,97476,2,0,P|20:184|32:232,1,75,8|2,0:0|0:0,0:0:0:0:
92,324,97797,5,2,0:0:0:0:
176,320,97957,2,0,L|260:312,1,75,0|8,0:0|0:0,0:0:0:0:
368,252,98278,2,0,L|452:244,2,75,0|0|2,0:0|0:0|0:0,0:0:0:0:
288,232,98759,2,0,P|268:172|320:88,1,150,8|2,0:0|0:0,0:0:0:0:
368,44,99240,1,0,0:0:0:0:
304,100,99401,2,0,L|220:100,1,75,8|0,0:0|0:0,0:0:0:0:
156,140,99722,1,0,0:0:0:0:
156,140,99802,1,0,0:0:0:0:
156,140,99882,1,2,0:0:0:0:
84,88,100043,2,0,P|68:124|76:172,1,75,8|8,0:0|0:0,0:0:0:0:
128,224,100363,5,2,0:0:0:0:
184,288,100524,2,0,L|272:280,1,75,0|8,0:0|0:0,0:0:0:0:
332,316,100845,2,0,P|340:272|320:232,1,75,0|0,0:0|0:0,0:0:0:0:
260,200,101166,1,0,0:0:0:0:
332,316,101326,2,0,P|384:336|460:288,1,150,12|4,0:0|0:0,0:0:0:0:
472,200,101807,2,0,P|432:204|392:240,1,75,0|4,0:0|0:0,0:0:0:0:
332,316,102128,2,0,L|328:232,1,75,0|4,0:0|0:0,0:0:0:0:
344,81,102449,2,0,L|348:156,2,75,0|4|0,0:0|0:0|0:0,0:0:0:0:
260,200,102930,5,10,0:0:0:0:
188,240,103091,2,0,P|147:251|104:236,1,75,0|8,0:0|0:0,0:0:0:0:
36,268,103412,2,0,L|28:168,1,75,0|0,0:0|0:0,0:0:0:0:
28,112,103732,1,0,0:0:0:0:
96,64,103893,2,0,P|160:92|236:52,1,150,8|2,0:0|0:0,0:0:0:0:
300,20,104374,1,0,0:0:0:0:
372,56,104535,2,0,P|396:80|400:140,1,75,8|2,0:0|0:0,0:0:0:0:
328,196,104855,2,0,P|313:156|332:112,1,75,0|2,0:0|0:0,0:0:0:0:
472,172,105176,2,0,P|444:196|407:201,1,75,8|2,0:0|0:0,0:0:0:0:
328,196,105497,5,2,0:0:0:0:
244,200,105658,2,0,L|144:200,1,75,0|8,0:0|0:0,0:0:0:0:
96,160,105978,2,0,P|84:136|100:72,1,75,0|0,0:0|0:0,0:0:0:0:
220,68,106299,2,0,P|200:100|152:120,1,75,2|8,0:0|0:0,0:0:0:0:
96,160,106620,1,2,0:0:0:0:
52,228,106781,2,0,L|56:316,2,75,2|0|8,0:0|0:0|0:0,0:0:0:0:
140,264,107262,2,0,L|144:356,2,75,2|2|2,0:0|0:0|0:0,0:0:0:0:
216,228,107743,1,8,0:0:0:0:
376,188,107904,1,8,0:0:0:0:
296,208,108064,5,2,0:0:0:0:
376,188,108224,2,0,P|389:222|384:258,1,75,0|8,0:0|0:0,0:0:0:0:
296,208,108545,2,0,P|282:173|287:137,1,75,2|0,0:0|0:0,0:0:0:0:
328,64,108866,1,2,0:0:0:0:
400,0,109027,2,0,L|240:16,1,150,8|2,0:0|0:0,0:0:0:0:
148,108,109508,2,0,L|68:116,1,75,2|8,0:0|0:0,0:0:0:0:
176,36,109829,2,0,P|208:52|224:104,1,75,2|0,0:0|0:0,0:0:0:0:
204,164,110150,1,2,0:0:0:0:
156,232,110310,2,0,L|160:336,2,75,8|0|2,0:0|0:0|0:0,0:0:0:0:
204,164,110791,5,0,0:0:0:0:
280,196,110952,2,0,P|316:204|368:180,1,75,0|0,0:0|0:0,0:0:0:0:
340,56,111273,2,0,P|316:84|316:132,1,75,0|0,0:0|0:0,0:0:0:0:
436,180,111593,2,0,P|428:144|397:119,1,75,0|0,0:0|0:0,0:0:0:0:
352,193,111914,5,4,0:0:0:0:
352,193,111994,1,0,0:0:0:0:
352,193,112075,2,0,L|356:285,1,75,0|4,0:0|0:0,0:0:0:0:
362,350,112396,1,0,0:0:0:0:
283,326,112556,1,4,0:0:0:0:
283,326,112636,1,0,0:0:0:0:
283,326,112716,2,0,P|247:335|196:321,1,75,0|4,0:0|0:0,0:0:0:0:
135,292,113037,1,0,0:0:0:0:
76,230,113198,6,0,L|69:96,2,112.500004291535,0|0|0,0:0|0:0|0:0,0:0:0:0:
135,292,114000,2,0,P|159:296|210:282,1,56.2500021457673,0|0,0:0|0:0,0:0:0:0:
269,262,114321,1,0,0:0:0:0:
344,299,114481,2,0,P|398:333|493:300,2,168.750006437302,2|2|2,0:0|0:0|0:0,0:0:0:0:
269,262,115604,1,0,0:0:0:0:
176,228,115765,2,0,P|171:213|179:160,2,56.2500021457673,2|0|2,0:0|0:0|0:0,0:0:0:0:
269,262,116246,2,0,P|246:190|284:102,1,168.750006437302,2|0,0:0|0:0,0:0:0:0:
342,50,116888,1,2,0:0:0:0:
410,98,117048,5,2,0:0:0:0:
410,98,117128,1,2,0:0:0:0:
410,98,117208,2,0,L|474:98,1,56.2500021457673,2|2,0:0|0:0,0:0:0:0:
484,180,117529,2,0,L|419:182,1,56.2500021457673,2|2,0:0|0:0,0:0:0:0:
401,262,117850,2,0,L|457:260,2,56.2500021457673,0|2|0,0:0|0:0|0:0,0:0:0:0:
340,320,118331,5,0,0:0:0:0:
260,350,118492,1,0,0:0:0:0:
177,333,118652,1,2,0:0:0:0:
114,275,118813,2,0,L|39:280,2,56.2500021457673,0|2|0,0:0|0:0|0:0,0:0:0:0:
172,213,119294,2,0,P|166:193|178:147,1,56.2500021457673,0|0,0:0|0:0,0:0:0:0:
235,103,119615,6,0,P|265:118|344:88,1,112.500004291535,2|0,0:0|0:0,0:0:0:0:
415,65,120096,2,0,P|465:92|475:162,1,112.500004291535,2|0,0:0|0:0,0:0:0:0:
438,216,120577,2,0,P|408:264|425:327,1,112.500004291535,2|2,0:0|0:0,0:0:0:0:
248,332,121219,5,2,0:0:0:0:
248,332,121379,2,0,L|242:215,1,112.500004291535,2|0,0:0|0:0,0:0:0:0:
237,133,121861,1,2,0:0:0:0:
111,20,122182,1,2,0:0:0:0:
9,154,122502,5,0,0:0:0:0:
9,154,122663,2,0,L|11:286,1,112.500004291535,2|0,0:0|0:0,0:0:0:0:
15,351,123144,1,8,0:0:0:0:
15,351,123465,5,2,0:0:0:0:
256,192,123545,12,0,128599,0:0:0:0:
