osu file format v14

[General]
AudioFilename: 2.mp3
AudioLeadIn: 0
PreviewTime: 71635
Countdown: 0
SampleSet: Soft
StackLeniency: 0.7
Mode: 2
LetterboxInBreaks: 0
EpilepsyWarning: 1
WidescreenStoryboard: 1

[Editor]
Bookmarks: 20779,72116
DistanceSpacing: 1.5
BeatDivisor: 4
GridSize: 4
TimelineZoom: 1.3

[Metadata]
Title:Movements Feat. MaHi (Original Mix) (Speed Up Ver.)
TitleUnicode:Movements Feat. MaHi (Original Mix) (Speed Up Ver.)
Artist:MitiS
ArtistUnicode:MitiS
Creator:-[ Asuna ]-
Version:Rain
Source:
Tags:FlandreScarlet- Serena- AnreFM Path to the Horizon Valentina Remenar CLSW Fort [ Joey ] Game Kin
BeatmapID:531559
BeatmapSetID:183132

[Difficulty]
HPDrainRate:6
CircleSize:4
OverallDifficulty:9
ApproachRate:9
SliderMultiplier:2
SliderTickRate:1

[Events]
//Background and Video events
0,0,"Background.jpg",0,0
//Break Periods
2,41526,47143
//Storyboard Layer 0 (Background)
//Storyboard Layer 1 (Fail)
//Storyboard Layer 2 (Pass)
//Storyboard Layer 3 (Foreground)
Sprite,Foreground,Centre,"SB/OpticalFlare.png",320,240 M,0,41326,,320,157 F,0,41326,41406,0,1 V,0,41326,41406,0.1,0.1,0.9340653,1.049677 F,0,41406,51273,1 V,0,41406,51273,0.9340653,1.049677,0.9423233,1.066193 V,0,51273,51433,0.9423233,1.066193,1.024904,1.24787 F,0,51273,51593,1,0 V,0,51433,51593,1.024904,1.24787,0.1,0.1
Sprite,Foreground,Centre,"SB/Flare2.png",320,240 M,0,41326,,319,159 F,0,41326,41406,0,1 S,0,41326,41406,0.1,1.181807 R,0,41326,51593,-1.932387,-1.816774 P,0,41406,,A F,0,41406,50952,1 S,0,41406,51593,1.181807 F,0,50952,51593,1,0
Sprite,Foreground,Centre,"SB/Mapped.png",320,240 P,0,42289,,A F,0,42289,42609,0,0.9 V,1,42289,42609,0.01,0.7687742,0.8432258,0.7687742 M,0,42289,51593,231,109,203,109 V,0,42609,51273,0.8432258,0.7687742 F,0,51273,51593,0.9,0
Sprite,Foreground,Centre,"SB/Asuna.png",320,240 P,0,43572,,A F,0,43572,43893,0,0.9 V,1,43572,43893,0.01,0.7687742,0.8432258,0.7687742 M,0,43572,51593,361,202,405,202 V,0,43893,51593,0.8432258,0.7687742 F,0,51273,51593,0.9,0
//Storyboard Sound Samples

[TimingPoints]
257,320.855614973262,4,2,2,30,1,0
20791,-125,4,2,2,50,0,0
28412,-125,4,2,0,30,0,0
28732,-125,4,2,2,50,0,0
31059,-125,4,2,2,95,0,0
41326,-125,4,2,2,55,0,0
47743,-125,4,2,2,10,0,0
48064,-125,4,2,2,20,0,0
48385,-125,4,2,2,30,0,0
48706,-125,4,2,2,35,0,0
49027,-125,4,2,2,40,0,0
49668,-125,4,2,2,50,0,0
50310,-125,4,2,2,60,0,0
50952,-125,4,2,2,80,0,0
51593,-125,4,2,2,75,0,0
69561,-125,4,2,2,90,0,0
70845,-125,4,2,2,50,0,0
71807,-125,4,2,3,95,0,0
72128,-125,4,2,3,100,0,1
72449,-125,4,2,4,82,0,1
72529,-125,4,2,3,100,0,1
73091,-125,4,2,4,82,0,1
73171,-125,4,2,3,100,0,1
73732,-125,4,2,4,82,0,1
73813,-125,4,2,3,100,0,1
74374,-125,4,2,4,82,0,1
74454,-125,4,2,3,100,0,1
75016,-125,4,2,4,82,0,1
75096,-125,4,2,3,100,0,1
75658,-125,4,2,4,82,0,1
75738,-125,4,2,3,100,0,1
76299,-125,4,2,4,82,0,1
76379,-125,4,2,3,100,0,1
76941,-125,4,2,4,82,0,1
77021,-125,4,2,3,100,0,1
77583,-125,4,2,4,82,0,1
77663,-125,4,2,3,100,0,1
78224,-125,4,2,4,82,0,1
78305,-125,4,2,3,100,0,1
78866,-125,4,2,4,82,0,1
78946,-125,4,2,3,100,0,1
79508,-125,4,2,4,82,0,1
79588,-125,4,2,3,100,0,1
80150,-125,4,2,4,82,0,1
80230,-125,4,2,3,100,0,1
80791,-125,4,2,4,82,0,1
80871,-125,4,2,3,100,0,1
81433,-125,4,2,4,82,0,1
81513,-125,4,2,3,100,0,1
82075,-125,4,2,4,82,0,1
82155,-125,4,2,3,100,0,1
82716,-125,4,2,4,82,0,1
82797,-125,4,2,3,100,0,1
83358,-125,4,2,4,82,0,1
83438,-125,4,2,3,100,0,1
84000,-125,4,2,4,82,0,1
84080,-125,4,2,3,100,0,1
84642,-125,4,2,4,82,0,1
84722,-125,4,2,3,100,0,1
85283,-125,4,2,4,82,0,1
85363,-125,4,2,3,100,0,1
85925,-125,4,2,4,82,0,1
86005,-125,4,2,3,100,0,1
86567,-125,4,2,4,82,0,1
86647,-125,4,2,3,100,0,1
87208,-125,4,2,4,82,0,1
87289,-125,4,2,3,100,0,1
87850,-125,4,2,4,82,0,1
87930,-125,4,2,3,100,0,1
88492,-125,4,2,4,82,0,1
88572,-125,4,2,3,100,0,1
89134,-125,4,2,4,82,0,1
89214,-125,4,2,3,100,0,1
89775,-125,4,2,4,82,0,1
89855,-125,4,2,3,100,0,1
90417,-125,4,2,4,82,0,1
90497,-125,4,2,3,100,0,1
91059,-125,4,2,4,82,0,1
91139,-125,4,2,3,100,0,1
91379,-125,4,2,3,80,0,1
92663,-125,4,2,4,55,0,0
93625,-125,4,2,4,75,0,0
93946,-125,4,2,3,100,0,1
94267,-125,4,2,4,82,0,1
94347,-125,4,2,3,100,0,1
94909,-125,4,2,4,82,0,1
94989,-125,4,2,3,100,0,1
95551,-125,4,2,4,82,0,1
95631,-125,4,2,3,100,0,1
96192,-125,4,2,4,82,0,1
96273,-125,4,2,3,100,0,1
96834,-125,4,2,4,82,0,1
96914,-125,4,2,3,100,0,1
97476,-125,4,2,4,82,0,1
97556,-125,4,2,3,100,0,1
98117,-125,4,2,4,82,0,1
98198,-125,4,2,3,100,0,1
98759,-125,4,2,4,82,0,1
98839,-125,4,2,3,100,0,1
99401,-125,4,2,4,82,0,1
99481,-125,4,2,3,100,0,1
100043,-125,4,2,4,82,0,1
100123,-125,4,2,3,100,0,1
100684,-125,4,2,4,82,0,1
100765,-125,4,2,3,100,0,1
101326,-125,4,2,4,82,0,1
101406,-125,4,2,3,100,0,1
101968,-125,4,2,4,82,0,1
102048,-125,4,2,3,100,0,1
102609,-125,4,2,4,82,0,1
102690,-125,4,2,3,100,0,1
103251,-125,4,2,4,82,0,1
103331,-125,4,2,3,100,0,1
103893,-125,4,2,4,82,0,1
103973,-125,4,2,3,100,0,1
104535,-125,4,2,4,82,0,1
104615,-125,4,2,3,100,0,1
105176,-125,4,2,4,82,0,1
105256,-125,4,2,3,100,0,1
105818,-125,4,2,4,82,0,1
105898,-125,4,2,3,100,0,1
106460,-125,4,2,4,82,0,1
106540,-125,4,2,3,100,0,1
107101,-125,4,2,4,82,0,1
107182,-125,4,2,3,100,0,1
107743,-125,4,2,4,82,0,1
107823,-125,4,2,3,100,0,1
108385,-125,4,2,4,82,0,1
108465,-125,4,2,3,100,0,1
109027,-125,4,2,4,82,0,1
109107,-125,4,2,3,100,0,1
109668,-125,4,2,4,82,0,1
109748,-125,4,2,3,100,0,1
110310,-125,4,2,4,82,0,1
110390,-125,4,2,3,100,0,1
110952,-125,4,2,4,82,0,1
111032,-125,4,2,3,100,0,1
111593,-125,4,2,4,82,0,1
111674,-125,4,2,3,100,0,1
113198,-125,4,2,3,60,0,0
113839,-125,4,2,0,40,0,0
124428,-100,4,2,0,30,0,0
126032,-100,4,2,0,20,0,0
126994,-100,4,2,0,5,0,0

[Colours]
Combo1 : 248,97,160
Combo2 : 27,166,241
Combo3 : 236,167,245
Combo4 : 105,82,199

[HitObjects]
256,192,18224,12,0,20470,0:0:0:0:
220,304,20791,6,0,L|204:224,1,80,0|0,0:0|0:0,0:0:0:0:
84,112,21112,2,0,L|103:189,1,80,8|0,0:0|0:0,0:0:0:0:
224,24,21433,2,0,L|144:24,2,80,0|0|8,0:0|0:0|0:0,0:0:0:0:
344,28,21914,1,0,0:0:0:0:
204,108,22075,6,0,P|184:148|184:184,1,80,2|0,0:0|0:0,0:0:0:0:
296,220,22396,1,8,0:0:0:0:
456,216,22556,2,0,L|331:115,1,160,0|0,0:0|0:0,0:0:0:0:
428,44,23037,2,0,L|456:124,1,80,8|0,0:0|0:0,0:0:0:0:
292,108,23358,5,2,0:0:0:0:
200,140,23519,1,0,0:0:0:0:
160,228,23679,1,8,0:0:0:0:
184,320,23839,1,0,0:0:0:0:
264,372,24000,2,0,P|304:380|344:372,2,80,0|0|8,0:0|0:0|0:0,0:0:0:0:
148,340,24481,1,0,0:0:0:0:
312,336,24642,6,0,L|396:336,2,80,2|0|8,0:0|0:0|0:0,0:0:0:0:
196,304,25123,1,0,0:0:0:0:
36,276,25283,2,0,L|76:200,1,80,8|0,0:0|0:0,0:0:0:0:
236,192,25604,2,0,L|196:116,1,80,8|0,0:0|0:0,0:0:0:0:
36,128,25925,5,2,0:0:0:0:
108,164,26085,1,0,0:0:0:0:
180,196,26246,1,0,0:0:0:0:
340,204,26406,2,0,L|300:276,1,80,8|0,0:0|0:0,0:0:0:0:
180,272,26727,2,0,L|138:340,1,80,0|8,0:0|0:0,0:0:0:0:
260,308,27048,1,0,0:0:0:0:
100,304,27208,6,0,L|68:228,1,80,2|0,0:0|0:0,0:0:0:0:
172,164,27529,1,0,0:0:0:0:
336,148,27690,2,0,L|176:196,1,160,8|0,0:0|0:0,0:0:0:0:
304,264,28171,1,8,0:0:0:0:
380,172,28331,1,0,0:0:0:0:
220,144,28492,6,0,L|192:176,2,40,2|0|2,0:0|0:0|0:0,0:0:0:0:
340,132,28813,2,0,P|348:88|336:44,1,80,0|8,0:0|0:0,0:0:0:0:
200,48,29134,1,0,0:0:0:0:
88,92,29294,1,0,0:0:0:0:
52,204,29454,1,8,0:0:0:0:
88,324,29615,1,0,0:0:0:0:
248,348,29775,6,0,L|328:348,1,80,2|0,0:0|0:0,0:0:0:0:
232,288,30096,2,0,L|316:288,1,80,8|0,0:0|0:0,0:0:0:0:
172,284,30417,2,0,L|92:284,1,80,2|0,0:0|0:0,0:0:0:0:
212,216,30738,2,0,L|308:216,1,80,8|0,0:0|0:0,0:0:0:0:
36,216,31059,6,0,L|116:216,2,80,4|0|0,0:0|0:0|0:0,0:0:0:0:
188,184,31540,2,0,P|228:136|208:44,1,160,8|0,0:0|0:0,0:0:0:0:
96,4,32021,2,0,L|72:80,1,80,0|0,0:0|0:0,0:0:0:0:
316,72,32342,6,0,L|400:72,2,80,8|0|0,0:0|0:0|0:0,0:0:0:0:
148,72,32823,2,0,L|300:140,1,160,8|0,0:0|0:0,0:0:0:0:
416,144,33305,2,0,L|356:204,1,80,8|0,0:0|0:0,0:0:0:0:
180,200,33625,6,0,P|176:248|184:280,1,80,2|0,0:0|0:0,0:0:0:0:
304,276,33946,2,0,L|384:276,1,80,8|0,0:0|0:0,0:0:0:0:
264,276,34267,2,0,L|184:276,2,80,2|0|8,0:0|0:0|0:0,0:0:0:0:
384,276,34748,1,0,0:0:0:0:
140,192,34909,6,0,P|128:152|136:104,1,80,2|0,0:0|0:0,0:0:0:0:
252,156,35230,2,0,L|324:120,1,80,8|0,0:0|0:0,0:0:0:0:
184,96,35551,2,0,L|272:92,2,80,8|0|8,0:0|0:0|0:0,0:0:0:0:
64,104,36032,1,0,0:0:0:0:
304,280,36192,6,0,L|384:280,2,80,2|0|0,0:0|0:0|0:0,0:0:0:0:
184,284,36674,2,0,P|160:248|224:164,1,160,8|0,0:0|0:0,0:0:0:0:
340,168,37155,2,0,L|420:168,1,80,2|0,0:0|0:0,0:0:0:0:
180,160,37476,6,0,L|88:160,2,80,2|0|0,0:0|0:0|0:0,0:0:0:0:
340,168,37957,2,0,L|176:160,1,160,8|0,0:0|0:0,0:0:0:0:
296,164,38438,1,2,0:0:0:0:
408,168,38599,1,0,0:0:0:0:
232,280,38759,6,0,L|148:280,1,80,2|0,0:0|0:0,0:0:0:0:
272,264,39080,2,0,L|352:264,1,80,0|8,0:0|0:0,0:0:0:0:
472,260,39401,2,0,L|384:264,2,80,0|0|2,0:0|0:0|0:0,0:0:0:0:
352,260,39882,1,0,0:0:0:0:
112,260,40043,6,0,L|32:260,2,80,2|2|0,0:0|0:0|0:0,0:0:0:0:
232,256,40524,1,2,0:0:0:0:
392,260,40684,1,8,0:0:0:0:
472,260,40845,1,0,0:0:0:0:
392,260,41005,1,8,0:0:0:0:
272,260,41166,1,8,0:0:0:0:
28,264,41326,5,0,0:0:0:0:
256,192,47743,12,4,51273,0:0:0:0:
184,296,51593,6,0,P|168:256|172:216,1,80,2|0,3:0|0:0,0:0:0:0:
276,164,51914,1,8,0:0:0:0:
396,168,52075,2,0,L|316:168,2,80,0|2|0,3:0|0:0|3:0,0:0:0:0:
232,168,52556,1,8,3:0:0:0:
424,272,52877,6,0,L|340:272,2,80,2|0|8,3:0|0:0|0:0,0:0:0:0:
264,272,53358,1,0,3:0:0:0:
232,272,53438,1,0,0:0:0:0:
220,272,53519,2,0,P|232:228|256:196,1,80,2|0,0:0|3:0,0:0:0:0:
492,204,53839,1,8,3:0:0:0:
372,204,54000,1,2,0:0:0:0:
208,200,54160,6,0,L|288:200,1,80,0|2,3:0|0:0,0:0:0:0:
408,200,54481,2,0,L|328:200,1,80,8|0,0:0|3:0,0:0:0:0:
208,200,54802,2,0,L|124:200,1,80,0|0,0:0|3:0,0:0:0:0:
292,200,55123,1,8,3:0:0:0:
52,204,55444,6,0,P|40:156|44:116,1,80,2|0,3:0|0:0,0:0:0:0:
160,112,55765,2,0,L|244:108,1,80,8|0,0:0|3:0,0:0:0:0:
124,76,56085,2,0,L|76:80,2,40,2|0|2,0:0|0:0|3:0,0:0:0:0:
244,68,56406,2,0,L|184:128,1,80,8|2,3:0|0:0,0:0:0:0:
428,128,56727,6,0,L|512:148,1,80,2|0,3:0|0:0,0:0:0:0:
384,216,57048,2,0,L|304:244,1,80,8|0,0:0|3:0,0:0:0:0:
188,256,57369,2,0,L|144:256,2,40,2|0|0,0:0|0:0|3:0,0:0:0:0:
348,252,57690,1,8,3:0:0:0:
268,160,58011,6,0,P|301:135|321:95,1,80,2|0,3:0|0:0,0:0:0:0:
200,84,58331,2,0,P|164:112|150:151,1,80,8|0,0:0|3:0,0:0:0:0:
276,140,58652,2,0,L|192:148,1,80,2|2,0:0|3:0,0:0:0:0:
316,152,58973,2,0,L|400:160,1,80,8|0,3:0|0:0,0:0:0:0:
152,168,59294,6,0,L|56:176,2,80,2|2|8,3:0|0:0|0:0,0:0:0:0:
272,160,59775,1,0,3:0:0:0:
152,148,59936,2,0,L|112:144,2,40,2|0|0,0:0|0:0|3:0,0:0:0:0:
316,148,60256,2,0,L|400:152,1,80,8|0,3:0|0:0,0:0:0:0:
228,176,60577,6,0,L|144:180,1,80,2|0,3:0|0:0,0:0:0:0:
264,216,60898,2,0,L|348:212,2,80,8|0|0,0:0|3:0|0:0,0:0:0:0:
144,228,61379,2,0,L|232:224,1,80,2|8,3:0|3:0,0:0:0:0:
108,188,61700,1,0,0:0:0:0:
352,188,61861,6,0,L|440:188,1,80,2|0,3:0|0:0,0:0:0:0:
312,188,62182,2,0,L|228:188,1,80,8|0,0:0|3:0,0:0:0:0:
348,156,62502,2,0,L|264:156,1,80,0|2,0:0|3:0,0:0:0:0:
408,156,62823,1,8,3:0:0:0:
168,152,63144,5,2,3:0:0:0:
128,156,63224,1,0,0:0:0:0:
120,156,63305,2,0,P|120:196|128:236,1,80,0|8,0:0|0:0,0:0:0:0:
248,224,63625,2,0,L|336:228,1,80,0|0,3:0|0:0,0:0:0:0:
208,236,63946,2,0,L|120:240,2,80,2|8|0,3:0|3:0|0:0,0:0:0:0:
452,236,64428,6,0,L|364:236,1,80,2|0,3:0|0:0,0:0:0:0:
252,240,64748,2,0,L|164:240,1,80,8|0,0:0|3:0,0:0:0:0:
292,244,65069,2,0,L|336:244,2,40,0|0|2,0:0|0:0|3:0,0:0:0:0:
132,244,65390,1,8,3:0:0:0:
375,287,65711,5,2,3:0:0:0:
432,268,65791,1,0,0:0:0:0:
460,216,65871,1,0,0:0:0:0:
456,156,65952,1,0,0:0:0:0:
424,108,66032,2,0,L|356:55,1,80,8|0,0:0|3:0,0:0:0:0:
194,94,66353,2,0,L|255:150,1,80,0|0,0:0|3:0,0:0:0:0:
99,200,66674,2,0,L|68:280,1,80,8|2,3:0|0:0,0:0:0:0:
348,220,66994,6,0,L|428:212,1,80,2|0,0:0|0:0,0:0:0:0:
204,208,67315,2,0,L|268:152,1,80,8|0,0:0|0:0,0:0:0:0:
40,216,67636,2,0,P|28:256|32:296,1,80,8|0,0:0|0:0,0:0:0:0:
316,312,67957,2,0,P|364:320|404:316,1,80,0|0,0:0|0:0,0:0:0:0:
395,317,68198,1,0,0:0:0:0:
192,324,68278,6,0,P|168:288|168:248,1,80,10|0,0:0|0:0,0:0:0:0:
324,252,68599,2,0,L|364:168,1,80,8|0,0:0|0:0,0:0:0:0:
136,308,68920,2,0,L|88:232,1,80,8|0,0:0|0:0,0:0:0:0:
376,308,69240,2,0,L|424:236,1,80,8|0,0:0|0:0,0:0:0:0:
136,64,69561,5,2,0:0:0:0:
84,92,69642,1,0,0:0:0:0:
84,152,69722,1,2,0:0:0:0:
132,188,69802,1,2,0:0:0:0:
184,220,69882,1,0,0:0:0:0:
196,280,69962,1,0,0:0:0:0:
180,340,70043,1,2,0:0:0:0:
128,368,70123,1,0,0:0:0:0:
368,308,70203,5,0,0:0:0:0:
428,296,70284,1,0,0:0:0:0:
452,244,70364,1,2,0:0:0:0:
428,188,70444,1,0,0:0:0:0:
380,156,70524,1,0,0:0:0:0:
352,104,70605,1,0,0:0:0:0:
376,48,70685,1,2,0:0:0:0:
432,64,70765,1,0,0:0:0:0:
212,12,70845,5,0,0:0:0:0:
164,20,70925,1,0,0:0:0:0:
132,56,71005,1,2,0:0:0:0:
128,104,71085,1,0,0:0:0:0:
312,108,71166,5,10,0:0:0:0:
352,132,71246,1,0,0:0:0:0:
368,176,71326,1,0,0:0:0:0:
352,220,71406,1,0,0:0:0:0:
172,228,71486,6,0,L|132:228,1,40,2|0,0:0|0:0,0:0:0:0:
132,228,71647,2,0,L|180:228,1,40
352,300,71807,5,8,0:0:0:0:
152,348,72128,2,0,P|146:311|154:263,1,80,6|0,0:0|0:0,0:0:0:0:
392,216,72449,2,0,P|396:176|384:136,1,80,8|0,0:0|0:0,0:0:0:0:
224,136,72770,2,0,P|216:176|228:216,1,80,0|2,0:0|0:0,0:0:0:0:
468,224,73091,2,0,L|388:220,1,80,8|0,0:0|0:0,0:0:0:0:
144,288,73412,6,0,L|223:280,1,80,2|2,0:0|0:0,0:0:0:0:
344,276,73732,2,0,L|264:280,2,80,8|0|0,0:0|0:0|0:0,0:0:0:0:
464,256,74214,1,2,0:0:0:0:
224,196,74374,2,0,L|140:196,1,80,8|0,0:0|0:0,0:0:0:0:
384,168,74695,6,0,L|468:168,1,80,2|0,0:0|0:0,0:0:0:0:
344,168,75016,2,0,L|264:168,1,80,8|0,0:0|0:0,0:0:0:0:
384,256,75337,2,0,P|392:296|384:336,1,80,0|0,0:0|0:0,0:0:0:0:
144,332,75658,2,0,P|140:292|148:252,1,80,8|0,0:0|0:0,0:0:0:0:
388,60,75978,6,0,L|468:60,1,80,2|2,0:0|0:0,0:0:0:0:
348,60,76299,2,0,L|268:60,2,80,8|0|0,0:0|0:0|0:0,0:0:0:0:
468,60,76781,2,0,L|492:100,1,40,2|0,0:0|0:0,0:0:0:0:
268,148,76941,2,0,L|184:148,1,80,8|0,0:0|0:0,0:0:0:0:
428,148,77262,6,0,L|508:148,1,80,2|0,0:0|0:0,0:0:0:0:
372,148,77583,2,0,L|292:148,1,80,8|0,0:0|0:0,0:0:0:0:
156,148,77904,2,0,L|244:148,1,80,0|2,0:0|0:0,0:0:0:0:
476,200,78224,2,0,L|392:200,1,80,8|0,0:0|0:0,0:0:0:0:
156,264,78545,6,0,L|76:264,1,80,2|2,0:0|0:0,0:0:0:0:
196,268,78866,2,0,L|276:268,2,80,8|0|0,0:0|0:0|0:0,0:0:0:0:
76,272,79347,1,2,0:0:0:0:
316,276,79508,2,0,L|396:276,1,80,8|8,0:0|0:0,0:0:0:0:
152,212,79829,6,0,L|236:204,1,80,2|0,0:0|0:0,0:0:0:0:
352,188,80150,2,0,L|272:176,1,80,8|0,0:0|0:0,0:0:0:0:
392,152,80470,2,0,L|476:144,1,80,0|2,0:0|0:0,0:0:0:0:
152,212,80791,2,0,P|144:252|152:292,1,80,8|0,0:0|0:0,0:0:0:0:
392,300,81112,5,2,0:0:0:0:
364,244,81192,1,0,0:0:0:0:
336,188,81273,1,2,0:0:0:0:
212,184,81433,1,8,0:0:0:0:
308,112,81593,1,0,0:0:0:0:
184,112,81754,1,0,0:0:0:0:
132,140,81834,1,0,0:0:0:0:
112,196,81914,1,2,0:0:0:0:
128,252,81994,1,0,0:0:0:0:
312,328,82075,2,0,L|392:328,1,80,8|0,0:0|0:0,0:0:0:0:
108,332,82396,6,0,L|24:328,1,80,2|0,0:0|0:0,0:0:0:0:
164,332,82716,2,0,L|244:332,1,80,8|0,0:0|0:0,0:0:0:0:
380,332,83037,2,0,L|288:332,1,80,0|2,0:0|0:0,0:0:0:0:
60,280,83358,2,0,L|148:276,1,80,8|0,0:0|0:0,0:0:0:0:
384,272,83679,6,0,L|304:256,1,80,2|2,0:0|0:0,0:0:0:0:
184,248,84000,2,0,L|268:248,2,80,8|0|0,0:0|0:0|0:0,0:0:0:0:
64,248,84481,1,2,0:0:0:0:
304,156,84642,2,0,L|384:168,1,80,8|8,0:0|0:0,0:0:0:0:
144,180,84962,6,0,L|64:172,1,80,2|0,0:0|0:0,0:0:0:0:
200,108,85283,2,0,L|279:115,1,80,8|0,0:0|0:0,0:0:0:0:
416,184,85604,2,0,L|332:196,1,80,0|2,0:0|0:0,0:0:0:0:
96,208,85925,2,0,P|132:200|180:208,1,80,8|0,0:0|0:0,0:0:0:0:
416,100,86246,6,0,L|336:100,1,80,2|2,0:0|0:0,0:0:0:0:
216,100,86567,2,0,L|296:100,1,80,8|0,0:0|0:0,0:0:0:0:
176,96,86888,1,0,0:0:0:0:
56,100,87048,2,0,L|96:100,1,40,2|0,0:0|0:0,0:0:0:0:
276,16,87208,2,0,L|356:16,1,80,8|0,0:0|0:0,0:0:0:0:
116,272,87529,6,0,L|80:184,1,80,2|0,0:0|0:0,0:0:0:0:
248,188,87850,2,0,L|264:108,1,80,8|0,0:0|0:0,0:0:0:0:
104,116,88171,2,0,L|120:32,1,80,0|2,0:0|0:0,0:0:0:0:
360,56,88492,2,0,L|280:56,1,80,8|0,0:0|0:0,0:0:0:0:
40,312,88813,6,0,L|120:312,1,80,2|2,0:0|0:0,0:0:0:0:
240,312,89134,2,0,L|320:312,2,80,8|0|0,0:0|0:0|0:0,0:0:0:0:
120,312,89615,1,2,0:0:0:0:
364,312,89775,2,0,L|444:312,1,80,8|8,0:0|0:0,0:0:0:0:
120,204,90096,6,0,L|200:204,1,80,2|0,0:0|0:0,0:0:0:0:
320,204,90417,2,0,L|236:204,1,80,8|0,0:0|0:0,0:0:0:0:
360,204,90738,2,0,L|444:204,1,80,0|2,0:0|0:0,0:0:0:0:
120,204,91059,2,0,L|200:204,1,80,8|0,0:0|0:0,0:0:0:0:
440,152,91379,6,0,L|352:152,1,80,6|0,0:0|0:0,0:0:0:0:
240,152,91700,2,0,L|320:152,1,80,12|0,0:0|0:0,0:0:0:0:
440,144,92021,1,4,0:0:0:0:
340,152,92182,1,2,0:0:0:0:
240,152,92342,1,12,0:0:0:0:
340,152,92502,1,0,0:0:0:0:
76,336,92663,5,2,0:0:0:0:
36,312,92743,1,0,0:0:0:0:
12,272,92823,1,0,0:0:0:0:
16,224,92904,1,0,0:0:0:0:
40,184,92984,1,2,0:0:0:0:
80,160,93064,1,0,0:0:0:0:
128,156,93144,1,0,0:0:0:0:
172,172,93224,1,0,0:0:0:0:
208,204,93305,1,2,0:0:0:0:
220,260,93385,1,0,0:0:0:0:
164,312,93465,1,0,0:0:0:0:
152,352,93545,1,0,0:0:0:0:
372,124,93625,5,8,0:0:0:0:
132,268,93946,6,0,L|96:196,1,80,6|0,0:0|0:0,0:0:0:0:
220,268,94267,2,0,L|300:268,2,80,8|0|0,0:0|0:0|0:0,0:0:0:0:
100,264,94748,1,2,0:0:0:0:
340,256,94909,2,0,L|420:256,1,80,8|0,0:0|0:0,0:0:0:0:
176,200,95230,6,0,L|96:200,1,80,2|0,0:0|0:0,0:0:0:0:
232,196,95551,2,0,L|312:196,1,80,8|0,0:0|0:0,0:0:0:0:
448,200,95871,2,0,L|368:200,1,80,0|2,0:0|0:0,0:0:0:0:
128,108,96192,2,0,L|48:108,1,80,8|0,0:0|0:0,0:0:0:0:
292,108,96513,6,0,L|372:108,1,80,2|2,0:0|0:0,0:0:0:0:
252,108,96834,2,0,L|172:108,2,80,8|0|0,0:0|0:0|0:0,0:0:0:0:
372,108,97315,2,0,L|412:108,1,40,2|0,0:0|0:0,0:0:0:0:
188,272,97476,2,0,L|104:272,1,80,8|0,0:0|0:0,0:0:0:0:
352,280,97797,6,0,L|268:280,1,80,2|0,0:0|0:0,0:0:0:0:
152,284,98117,2,0,L|232:284,1,80,8|0,0:0|0:0,0:0:0:0:
112,284,98438,2,0,L|24:284,1,80,0|2,0:0|0:0,0:0:0:0:
272,208,98759,2,0,P|280:160|272:128,1,80,8|0,0:0|0:0,0:0:0:0:
32,152,99080,6,0,L|120:152,1,80,2|2,0:0|0:0,0:0:0:0:
232,60,99401,2,0,L|312:60,2,80,8|0|0,0:0|0:0|0:0,0:0:0:0:
112,64,99882,1,2,0:0:0:0:
352,64,100043,2,0,L|436:64,1,80,8|0,0:0|0:0,0:0:0:0:
192,140,100363,6,0,L|112:140,1,80,2|0,0:0|0:0,0:0:0:0:
232,140,100684,2,0,L|316:140,1,80,8|0,0:0|0:0,0:0:0:0:
192,60,101005,2,0,L|112:60,1,80,0|2,0:0|0:0,0:0:0:0:
352,64,101326,2,0,P|356:108|352:144,1,80,8|0,0:0|0:0,0:0:0:0:
112,280,101647,6,0,L|104:196,1,80,6|2,0:0|0:0,0:0:0:0:
348,192,101968,1,12,0:0:0:0:
128,248,102128,2,0,L|120:164,1,80,0|4,0:0|0:0,0:0:0:0:
364,160,102449,1,2,0:0:0:0:
144,216,102609,2,0,L|136:132,1,80,12|0,0:0|0:0,0:0:0:0:
380,128,102930,6,0,L|388:44,1,80,2|0,0:0|0:0,0:0:0:0:
148,68,103251,2,0,L|120:144,1,80,8|0,0:0|0:0,0:0:0:0:
364,68,103572,2,0,L|392:144,1,80,0|2,0:0|0:0,0:0:0:0:
148,68,103893,2,0,L|80:120,1,80,8|0,0:0|0:0,0:0:0:0:
364,68,104214,6,0,L|427:116,1,80,2|2,0:0|0:0,0:0:0:0:
308,120,104535,2,0,L|224:120,2,80,8|0|0,0:0|0:0|0:0,0:0:0:0:
428,120,105016,1,2,0:0:0:0:
188,244,105176,2,0,P|180:204|192:160,1,80,8|0,0:0|0:0,0:0:0:0:
432,168,105497,6,0,L|512:168,1,80,2|0,0:0|0:0,0:0:0:0:
376,168,105818,2,0,L|296:168,1,80,8|0,0:0|0:0,0:0:0:0:
160,168,106139,2,0,L|240:168,1,80,0|2,0:0|0:0,0:0:0:0:
480,292,106460,2,0,L|400:292,1,80,8|0,0:0|0:0,0:0:0:0:
156,292,106781,6,0,L|240:292,1,80,2|0,0:0|0:0,0:0:0:0:
356,292,107101,2,0,L|436:292,2,80,8|0|0,0:0|0:0|0:0,0:0:0:0:
236,292,107583,2,0,L|196:292,1,40,2|0,0:0|0:0,0:0:0:0:
416,296,107743,2,0,L|448:220,1,80,8|8,0:0|0:0,0:0:0:0:
124,208,108064,6,0,L|204:208,1,80,2|0,0:0|0:0,0:0:0:0:
324,208,108385,2,0,L|240:208,1,80,8|0,0:0|0:0,0:0:0:0:
364,208,108706,2,0,L|444:208,1,80,0|2,0:0|0:0,0:0:0:0:
200,124,109027,2,0,L|120:124,1,80,8|0,0:0|0:0,0:0:0:0:
360,148,109347,6,0,L|440:148,1,80,2|0,0:0|0:0,0:0:0:0:
320,148,109668,2,0,L|240:148,2,80,8|0|0,0:0|0:0|0:0,0:0:0:0:
440,144,110150,1,2,0:0:0:0:
200,124,110310,2,0,L|120:124,1,80,8|0,0:0|0:0,0:0:0:0:
360,264,110631,6,0,L|280:264,1,80,2|0,0:0|0:0,0:0:0:0:
160,268,110952,2,0,L|240:268,1,80,8|0,0:0|0:0,0:0:0:0:
360,264,111273,2,0,L|440:264,1,80,0|2,0:0|0:0,0:0:0:0:
200,328,111593,2,0,L|168:248,1,80,8|0,0:0|0:0,0:0:0:0:
392,216,111914,5,6,0:0:0:0:
444,188,111994,1,0,0:0:0:0:
472,132,112075,1,0,0:0:0:0:
476,72,112155,1,0,0:0:0:0:
256,56,112235,5,6,0:0:0:0:
204,84,112315,1,0,0:0:0:0:
176,140,112396,1,0,0:0:0:0:
184,200,112476,1,0,0:0:0:0:
404,172,112556,5,6,0:0:0:0:
456,204,112636,1,0,0:0:0:0:
476,260,112716,1,0,0:0:0:0:
468,320,112797,1,0,0:0:0:0:
260,320,112877,6,0,L|220:320,1,40,6|0,0:0|0:0,0:0:0:0:
220,320,113037,2,0,L|264:320,1,40,0|0,0:0|0:0,0:0:0:0:
468,320,113198,5,6,0:0:0:0:
272,200,113839,1,2,0:0:0:0:
272,200,114481,5,2,0:0:0:0:
272,200,114641,1,0,0:0:0:0:
152,196,114801,2,0,L|92:248,1,80,0|2,0:0|0:0,0:0:0:0:
28,144,115122,1,0,0:0:0:0:
84,44,115283,1,0,0:0:0:0:
184,108,115443,6,0,L|272:108,1,80,0|0,0:0|0:0,0:0:0:0:
360,80,115764,1,2,0:0:0:0:
468,148,115924,2,0,L|376:148,1,80,0|2,0:0|0:0,0:0:0:0:
272,152,116245,1,2,0:0:0:0:
396,240,116406,1,0,0:0:0:0:
300,240,116566,1,0,0:0:0:0:
180,240,116727,6,0,L|272:240,1,80,2|0,0:0|0:0,0:0:0:0:
424,308,117047,1,2,0:0:0:0:
404,260,117128,1,2,0:0:0:0:
384,204,117208,1,2,0:0:0:0:
144,216,117368,1,2,0:0:0:0:
164,272,117448,1,0,0:0:0:0:
184,308,117529,1,2,0:0:0:0:
304,308,117689,5,2,0:0:0:0:
200,308,117849,1,2,0:0:0:0:
252,308,118010,2,0,L|252:196,1,80,2|0,0:0|0:0,0:0:0:0:
128,152,118331,2,0,L|212:156,1,80,2|0,0:0|0:0,0:0:0:0:
372,156,118652,5,2,0:0:0:0:
300,156,118812,2,0,L|392:156,1,80,2|0,0:0|0:0,0:0:0:0:
468,100,119133,1,0,0:0:0:0:
372,64,119293,1,0,0:0:0:0:
272,64,119454,1,0,0:0:0:0:
184,60,119615,6,0,L|96:60,2,80,2|0|0,0:0|0:0|0:0,0:0:0:0:
100,128,120095,1,2,0:0:0:0:
40,196,120256,2,0,L|140:196,1,80,0|0,0:0|0:0,0:0:0:0:
288,220,120577,2,0,L|192:224,1,80,2|0,0:0|0:0,0:0:0:0:
32,292,120898,6,0,L|128:288,1,80,2|0,0:0|0:0,0:0:0:0:
276,296,121218,1,0,0:0:0:0:
440,296,121379,1,2,0:0:0:0:
356,296,121540,1,0,0:0:0:0:
268,288,121700,5,2,0:0:0:0:
144,292,121861,2,0,L|52:296,1,80,0|0,0:0|0:0,0:0:0:0:
208,296,122182,2,0,L|280:244,1,80,2|0,0:0|0:0,0:0:0:0:
152,236,122502,1,0,0:0:0:0:
272,249,122662,1,2,0:0:0:0:
396,264,122823,5,2,0:0:0:0:
300,240,122984,1,0,0:0:0:0:
36,244,123144,1,0,0:0:0:0:
132,224,123304,1,0,0:0:0:0:
412,212,123464,5,2,0:0:0:0:
256,192,123625,12,0,128599,0:0:0:0:
