osu file format v14

[General]
AudioFilename: 2.mp3
AudioLeadIn: 2000
PreviewTime: 71635
Countdown: 0
SampleSet: Soft
StackLeniency: 0.7
Mode: 0
LetterboxInBreaks: 0
EpilepsyWarning: 1
WidescreenStoryboard: 0

[Editor]
Bookmarks: 20779,26567,30405
DistanceSpacing: 1.2
BeatDivisor: 4
GridSize: 4
TimelineZoom: 0.8999997

[Metadata]
Title:Movements Feat. MaHi (Original Mix) (Speed Up Ver.)
TitleUnicode:Movements Feat. MaHi (Original Mix) (Speed Up Ver.)
Artist:MitiS
ArtistUnicode:MitiS
Creator:-[ Asuna ]-
Version:Fxtra
Source:
Tags:FlandreScarlet- Serena- AnreFM Path to the Horizon Valentina Remenar CLSW Fort [ Joey ] Game Kin
BeatmapID:531555
BeatmapSetID:183132

[Difficulty]
HPDrainRate:7
CircleSize:4
OverallDifficulty:8
ApproachRate:9
SliderMultiplier:1.4
SliderTickRate:1

[Events]
//Background and Video events
0,0,"Background.jpg",0,0
//Break Periods
//Storyboard Layer 0 (Background)
//Storyboard Layer 1 (Fail)
//Storyboard Layer 2 (Pass)
//Storyboard Layer 3 (Foreground)
Sprite,Foreground,Centre,"SB/OpticalFlare.png",320,240 M,0,41326,,320,157 F,0,41326,41406,0,1 V,0,41326,41406,0.1,0.1,0.9340653,1.049677 F,0,41406,51273,1 V,0,41406,51273,0.9340653,1.049677,0.9423233,1.066193 V,0,51273,51433,0.9423233,1.066193,1.024904,1.24787 F,0,51273,51593,1,0 V,0,51433,51593,1.024904,1.24787,0.1,0.1
Sprite,Foreground,Centre,"SB/Flare2.png",320,240 M,0,41326,,319,159 F,0,41326,41406,0,1 S,0,41326,41406,0.1,1.181807 R,0,41326,51593,-1.932387,-1.816774 P,0,41406,,A F,0,41406,50952,1 S,0,41406,51593,1.181807 F,0,50952,51593,1,0
Sprite,Foreground,Centre,"SB/Mapped.png",320,240 P,0,42289,,A F,0,42289,42609,0,0.9 V,1,42289,42609,0.01,0.7687742,0.8432258,0.7687742 M,0,42289,51593,231,109,203,109 V,0,42609,51273,0.8432258,0.7687742 F,0,51273,51593,0.9,0
Sprite,Foreground,Centre,"SB/Fort.png",320,240 P,0,43572,,A F,0,43572,43893,0,0.9 V,1,43572,43893,0.01,0.7687742,0.8432258,0.7687742 M,0,43572,51593,361,202,405,202 V,0,43893,51593,0.8432258,0.7687742 F,0,51273,51593,0.9,0
Sprite,Foreground,Centre,"SB/highlight.png",320,240 M,0,51593,,334,258 S,0,51593,,0.9028968 P,0,51593,,A F,0,51593,51754,1,0
Sprite,Foreground,Centre,"SB/highlight.png",320,240 M,0,51754,,320,329 S,0,51754,,0.9028968 P,0,51754,,A F,0,51754,51914,0.8746106,0
Sprite,Foreground,Centre,"SB/highlight.png",320,240 M,0,51834,,316,331 S,0,51834,,0.9028968 P,0,51834,,A F,0,51834,51994,0.8123053,0
Sprite,Foreground,Centre,"SB/highlight.png",320,240 S,0,51914,,0.9028968 P,0,51914,,A M,0,51914,52075,318,329,337,393 F,0,51914,52075,0.75,0.6246106 F,0,52075,52235,0.6246106,0
Sprite,Foreground,Centre,"SB/highlight.png",320,240 M,0,52155,,385,419 S,0,52155,,0.9028968 P,0,52155,,A F,0,52155,52315,0.5623053,0
Sprite,Foreground,Centre,"SB/highlight.png",320,240 M,0,52315,,523,340 S,0,52315,,0.9028968 P,0,52315,,A F,0,52315,52476,0.4376947,0
Sprite,Foreground,Centre,"SB/highlight.png",320,240 M,0,52396,,503,297 S,0,52396,,0.9028968 P,0,52396,,A F,0,52396,52556,0.3746106,0
Sprite,Foreground,Centre,"SB/highlight.png",320,240 M,0,52476,,517,255 S,0,52476,,0.9028968 P,0,52476,,A F,0,52476,52636,0.3123053,0
Sprite,Foreground,Centre,"SB/highlight.png",320,240 S,0,52556,,0.9028968 P,0,52556,,A M,0,52556,52636,515,220,485,208 F,0,52556,52877,0.25,0 M,0,52636,52716,485,208,462,180
Sprite,Foreground,Centre,"SB/highlight.png",320,240 M,0,54160,,324,276 S,0,54160,,0.9028968 P,0,54160,,A F,0,54160,54321,1,0
Sprite,Foreground,Centre,"SB/highlight.png",320,240 M,0,54321,,443,391 S,0,54321,,0.9028968 P,0,54321,,A F,0,54321,54481,0.8746106,0
Sprite,Foreground,Centre,"SB/highlight.png",320,240 S,0,54481,,0.9028968 P,0,54481,,A M,0,54481,54642,429,232,410,171 F,0,54481,54642,0.75,0.6246106 F,0,54642,54802,0.6246106,0
Sprite,Foreground,Centre,"SB/highlight.png",320,240 M,0,54722,,422,125 S,0,54722,,0.9028968 P,0,54722,,A F,0,54722,54882,0.5623053,0
Sprite,Foreground,Centre,"SB/highlight.png",320,240 M,0,54882,,543,242 S,0,54882,,0.9028968 P,0,54882,,A F,0,54882,55043,0.4376947,0
Sprite,Foreground,Centre,"SB/highlight.png",320,240 S,0,54962,,0.9028968 P,0,54962,,A M,0,54962,55123,515,272,540,343 F,0,54962,55123,0.3753894,0.25 F,0,55123,55283,0.25,0
Sprite,Foreground,Centre,"SB/highlight.png",320,240 M,0,55283,,563,417 S,0,55283,,0.9028968 P,0,55283,,A F,0,55283,55444,0.1253894,0
Sprite,Foreground,Centre,"SB/highlight.png",320,240 M,0,55363,,565,433 S,0,55363,,0.9028968 P,0,55363,,A F,0,55363,55444,0.06308411,0
Sprite,Foreground,Centre,"SB/highlight.png",320,240 S,0,56727,,0.9028968 P,0,56727,,A M,0,56727,56807,386,231,345,248 F,0,56727,56888,1,0.8746106 M,0,56807,56888,345,248,313,262 F,0,56888,57048,0.8746106,0
Sprite,Foreground,Centre,"SB/highlight.png",320,240 M,0,56968,,305,262 S,0,56968,,0.9028968 P,0,56968,,A F,0,56968,57128,0.8123053,0
Sprite,Foreground,Centre,"SB/highlight.png",320,240 M,0,57048,,313,261 S,0,57048,,0.9028968 P,0,57048,,A F,0,57048,57208,0.75,0
Sprite,Foreground,Centre,"SB/highlight.png",320,240 M,0,57208,,419,136 S,0,57208,,0.9028968 P,0,57208,,A F,0,57208,57369,0.6253894,0
Sprite,Foreground,Centre,"SB/highlight.png",320,240 M,0,57289,,439,163 S,0,57289,,0.9028968 P,0,57289,,A F,0,57289,57449,0.5623053,0
Sprite,Foreground,Centre,"SB/highlight.png",320,240 M,0,57449,,520,177 S,0,57449,,0.9028968 P,0,57449,,A F,0,57449,57609,0.4376947,0
Sprite,Foreground,Centre,"SB/highlight.png",320,240 M,0,57529,,518,212 S,0,57529,,0.9028968 P,0,57529,,A F,0,57529,57690,0.3753894,0
Sprite,Foreground,Centre,"SB/highlight.png",320,240 S,0,57690,,0.9028968 P,0,57690,,A M,0,57690,57850,456,269,467,329 F,0,57690,58011,0.25,0
Sprite,Foreground,Centre,"SB/highlight.png",320,240 S,0,59294,,0.9028968 P,0,59294,,A M,0,59294,59454,174,152,251,170 F,0,59294,59454,1,0.8752923 F,0,59454,59615,0.8752923,0
Sprite,Foreground,Centre,"SB/highlight.png",320,240 M,0,59535,,294,182 S,0,59535,,0.9028968 P,0,59535,,A F,0,59535,59695,0.812159,0
Sprite,Foreground,Centre,"SB/highlight.png",320,240 M,0,59615,,287,184 S,0,59615,,0.9028968 P,0,59615,,A F,0,59615,59775,0.7498052,0
Sprite,Foreground,Centre,"SB/highlight.png",320,240 M,0,59775,,353,229 S,0,59775,,0.9028968 P,0,59775,,A F,0,59775,59936,0.6250975,0
Sprite,Foreground,Centre,"SB/highlight.png",320,240 M,0,59855,,389,241 S,0,59855,,0.9028968 P,0,59855,,A F,0,59855,60016,0.5627435,0
Sprite,Foreground,Centre,"SB/highlight.png",320,240 M,0,59936,,430,234 S,0,59936,,0.9028968 P,0,59936,,A F,0,59936,60096,0.4996103,0
Sprite,Foreground,Centre,"SB/highlight.png",320,240 M,0,60016,,462,218 S,0,60016,,0.9028968 P,0,60016,,A F,0,60016,60176,0.4372564,0
Sprite,Foreground,Centre,"SB/highlight.png",320,240 S,0,60096,,0.9028968 P,0,60096,,A M,0,60096,60176,485,187,510,196 F,0,60096,60176,0.3749026,0.3125487 F,0,60176,60337,0.3125487,0
Sprite,Foreground,Centre,"SB/highlight.png",320,240 M,0,60256,,462,320 S,0,60256,,0.9028968 P,0,60256,,A F,0,60256,60417,0.2501948,0
Sprite,Foreground,Centre,"SB/highlight.png",320,240 M,0,60337,,457,343 S,0,60337,,0.9028968 P,0,60337,,A F,0,60337,60497,0.1870616,0
Sprite,Foreground,Centre,"SB/highlight.png",320,240 M,0,60417,,447,351 S,0,60417,,0.9028968 P,0,60417,,A F,0,60417,60577,0.1247077,0
Sprite,Foreground,Centre,"SB/highlight.png",320,240 M,0,60497,,454,378 S,0,60497,,0.9028968 P,0,60497,,A F,0,60497,60577,0.06235386,0
Sprite,Foreground,Centre,"SB/highlight.png",320,240 S,0,61861,,0.9028968 P,0,61861,,A M,0,61861,61941,163,326,198,310 F,0,61861,62101,1,0.8129385 M,0,61941,62021,198,310,227,305 M,0,62021,62101,227,305,260,318 F,0,62101,62262,0.8129385,0
Sprite,Foreground,Centre,"SB/highlight.png",320,240 S,0,62182,,0.9028968 P,0,62182,,A M,0,62182,62342,286,354,296,288 F,0,62182,62342,0.7498052,0.6250975 F,0,62342,62502,0.6250975,0
Sprite,Foreground,Centre,"SB/highlight.png",320,240 M,0,62422,,303,243 S,0,62422,,0.9028968 P,0,62422,,A F,0,62422,62583,0.5627435,0
Sprite,Foreground,Centre,"SB/highlight.png",320,240 M,0,62502,,299,238 S,0,62502,,0.9028968 P,0,62502,,A F,0,62502,62663,0.5003897,0
Sprite,Foreground,Centre,"SB/highlight.png",320,240 M,0,62663,,381,210 S,0,62663,,0.9028968 P,0,62663,,A F,0,62663,62823,0.3749026,0
Sprite,Foreground,Centre,"SB/highlight.png",320,240 S,0,62823,,0.9028968 P,0,62823,,A M,0,62823,62984,325,171,244,139 F,0,62823,62984,0.2501948,0.1247077 F,0,62984,63144,0.1247077,0
Sprite,Foreground,Centre,"SB/highlight.png",320,240 S,0,64428,,0.9028968 P,0,64428,,A M,0,64428,64508,346,350,327,324 F,0,64428,64668,1,0.8129385 M,0,64508,64588,327,324,319,298 M,0,64588,64668,319,298,338,259 F,0,64668,64829,0.8129385,0
Sprite,Foreground,Centre,"SB/highlight.png",320,240 S,0,64748,,0.9028968 P,0,64748,,A M,0,64748,64909,325,205,374,255 F,0,64748,64909,0.7505845,0.6250974 F,0,64909,65069,0.6250974,0
Sprite,Foreground,Centre,"SB/highlight.png",320,240 M,0,64989,,403,294 S,0,64989,,0.9028968 P,0,64989,,A F,0,64989,65150,0.5627435,0
Sprite,Foreground,Centre,"SB/highlight.png",320,240 M,0,65069,,403,286 S,0,65069,,0.9028968 P,0,65069,,A F,0,65069,65230,0.5003897,0
Sprite,Foreground,Centre,"SB/highlight.png",320,240 M,0,65230,,287,406 S,0,65230,,0.9028968 P,0,65230,,A F,0,65230,65390,0.3749026,0
Sprite,Foreground,Centre,"SB/highlight.png",320,240 S,0,65390,,0.9028968 P,0,65390,,A M,0,65390,65711,237,359,154,359 F,0,65390,65711,0.2501948,0
Sprite,Foreground,Centre,"SB/highlight.png",320,240 S,0,66994,,0.9028968 P,0,66994,,A M,0,66994,67075,296,153,279,187 F,0,66994,67155,1,0.7492212 M,0,67075,67155,279,187,285,218 F,0,67155,67235,0.7492212,0 F,0,67235,67315,0
Sprite,Foreground,Centre,"SB/highlight.png",320,240 M,0,67235,,397,346 S,0,67235,,0.9028968 P,0,67235,,A F,0,67235,67396,0.6246106,0
Sprite,Foreground,Centre,"SB/highlight.png",320,240 S,0,67315,,0.9028968 P,0,67315,,A M,0,67315,67476,399,347,333,371 F,0,67315,67636,0.5,0
Sprite,Foreground,Centre,"SB/highlight.png",320,240 M,0,67556,,214,348 S,0,67556,,0.9028968 P,0,67556,,A F,0,67556,67636,0.1246106,0
Sprite,Foreground,Centre,"SB/highlight.png",320,240 M,0,68278,,421,264 S,0,68278,,0.9028968 P,0,68278,,A F,0,68278,68438,1,0
Sprite,Foreground,Centre,"SB/highlight.png",320,240 M,0,68438,,254,224 S,0,68438,,0.9028968 P,0,68438,,A F,0,68438,68599,0.7507788,0
Sprite,Foreground,Centre,"SB/highlight.png",320,240 M,0,68599,,501,156 S,0,68599,,0.9028968 P,0,68599,,A F,0,68599,68759,0.5,0
Sprite,Foreground,Centre,"SB/highlight.png",320,240 M,0,68759,,337,282 S,0,68759,,0.9028968 P,0,68759,,A F,0,68759,68920,0.2507788,0
Sprite,Foreground,Centre,"SB/highlight.png",320,240 M,0,69561,,414,336 S,0,69561,,0.9028968 P,0,69561,,A F,0,69561,69722,1,0
Sprite,Foreground,Centre,"SB/highlight.png",320,240 M,0,69642,,364,358 S,0,69642,,0.9028968 P,0,69642,,A F,0,69642,69802,0.8738317,0
Sprite,Foreground,Centre,"SB/highlight.png",320,240 M,0,69722,,341,364 S,0,69722,,0.9028968 P,0,69722,,A F,0,69722,69882,0.7492212,0
Sprite,Foreground,Centre,"SB/highlight.png",320,240 M,0,69802,,298,354 S,0,69802,,0.9028968 P,0,69802,,A F,0,69802,69962,0.6246106,0
Sprite,Foreground,Centre,"SB/highlight.png",320,240 M,0,69882,,258,336 S,0,69882,,0.9028968 P,0,69882,,A F,0,69882,70043,0.5,0
//Storyboard Sound Samples

[TimingPoints]
257,320.855614973262,4,2,4,50,1,0
20791,-100,4,2,2,50,0,0
20871,-100,4,2,5,50,0,0
22075,-100,4,2,2,50,0,0
22155,-100,4,2,5,50,0,0
23358,-100,4,2,2,50,0,0
23438,-100,4,2,5,50,0,0
24642,-100,4,2,2,50,0,0
24722,-100,4,2,5,50,0,0
25925,-100,4,2,2,50,0,0
26005,-100,4,2,5,50,0,0
27208,-100,4,2,2,50,0,0
27289,-100,4,2,5,50,0,0
31059,-100,4,2,2,70,0,0
41326,-100,4,2,2,30,0,0
41647,-200,4,2,2,30,0,0
47743,-200,4,2,2,30,0,0
48385,-66.6666666666667,4,2,2,10,0,0
49027,-200,4,2,2,20,0,0
49668,-66.6666666666667,4,2,2,30,0,0
50310,-200,4,2,2,40,0,0
50952,-200,4,2,2,50,0,0
51593,-100,4,2,2,60,0,0
52877,-100,4,2,2,50,0,0
52957,-100,4,2,2,50,0,0
54160,-100,4,2,2,55,0,0
54240,-100,4,2,2,55,0,0
55444,-100,4,2,2,60,0,0
55524,-100,4,2,2,60,0,0
56727,-100,4,2,2,65,0,0
56807,-100,4,2,2,65,0,0
58011,-100,4,2,2,70,0,0
58091,-100,4,2,2,70,0,0
59294,-100,4,2,2,75,0,0
59374,-100,4,2,2,75,0,0
60577,-100,4,2,2,80,0,0
60658,-100,4,2,2,80,0,0
61861,-100,4,1,0,85,0,0
61941,-100,4,2,5,85,0,0
63144,-100,4,2,2,90,0,0
63224,-100,4,2,5,90,0,0
64428,-100,4,2,2,100,0,0
64508,-100,4,2,3,100,0,0
65390,-200,4,2,3,100,0,0
65711,-100,4,2,2,80,0,0
65791,-100,4,2,3,80,0,0
70845,-100,4,2,3,80,0,0
71166,-83.3333333333333,4,2,3,80,0,0
71486,-66.6666666666667,4,2,3,80,0,0
71807,-100,4,2,2,95,0,0
72128,-50,4,2,3,100,0,1
92663,-100,4,2,4,55,0,0
93946,-50,4,2,3,100,0,1
102930,-100,4,2,3,100,0,1
103893,-50,4,2,3,100,0,1
111914,-50,4,2,3,100,0,1
112235,-66.6666666666667,4,2,3,100,0,1
112556,-100,4,2,3,100,0,1
112877,-133.333333333333,4,2,3,100,0,1
113198,-100,4,2,3,60,0,0
114481,-125,4,2,0,40,0,0
124428,-100,4,2,0,30,0,0
126032,-100,4,2,0,20,0,0
126994,-100,4,2,0,10,0,0

[Colours]
Combo1 : 248,97,160
Combo2 : 27,166,241
Combo3 : 236,167,245
Combo4 : 105,82,199

[HitObjects]
424,112,257,22,0,P|376:128|348:124,1,70
324,204,577,2,0,P|272:176|192:176,1,140,2|0,0:0|0:0,0:0:0:0:
128,232,1059,1,0,0:0:0:0:
128,232,1219,1,2,0:0:0:0:
128,232,1379,1,0,0:0:0:0:
308,320,2823,6,0,B|292:280|292:280|304:236,1,70
220,220,3144,2,0,P|236:168|212:88,1,140,2|0,0:0|0:0,0:0:0:0:
136,52,3625,1,0,0:0:0:0:
76,112,3786,1,2,0:0:0:0:
116,36,3946,1,0,0:0:0:0:
408,76,5390,37,0,0:0:0:0:
392,160,5551,1,0,0:0:0:0:
420,240,5711,1,2,0:0:0:0:
420,240,5871,1,0,0:0:0:0:
476,180,6032,5,0,0:0:0:0:
328,104,6192,1,0,0:0:0:0:
476,180,6353,1,2,0:0:0:0:
320,240,6513,1,0,0:0:0:0:
352,336,7957,38,0,L|260:348,1,70
200,336,8278,2,0,B|176:316|176:316|164:272,1,70,2|0,0:0|0:0,0:0:0:0:
200,116,8599,1,0,0:0:0:0:
252,276,8759,2,0,B|280:268|280:268|300:228,2,70,0|2|0,0:0|0:0|0:0,0:0:0:0:
392,112,10524,5,0,0:0:0:0:
316,144,10684,1,0,0:0:0:0:
316,144,10845,2,0,P|272:152|216:144,1,70,2|0,0:0|0:0,0:0:0:0:
380,200,11166,2,0,B|376:240|376:240|392:296,1,70
468,256,11486,1,2,0:0:0:0:
220,216,11647,1,0,0:0:0:0:
324,92,13091,38,0,L|404:88,1,70
252,176,13412,2,0,L|172:180,1,70,2|0,0:0|0:0,0:0:0:0:
182,179,13732,1,0,0:0:0:0:
216,256,13893,1,0,0:0:0:0:
216,256,14053,2,0,P|204:292|204:332,1,70,2|0,0:0|0:0,0:0:0:0:
180,84,15658,6,0,L|100:96,1,70
64,164,15978,2,0,B|68:216|68:216|88:248|88:248|92:316,1,140,2|0,0:0|0:0,0:0:0:0:
20,344,16460,1,0,0:0:0:0:
164,192,16620,1,2,0:0:0:0:
256,332,16781,1,0,0:0:0:0:
256,192,16941,12,0,20631,0:0:0:0:
424,96,20791,38,0,P|384:108|324:108,1,70
280,76,21112,1,8,0:0:0:0:
196,72,21273,2,0,L|104:84,1,70
160,156,21593,2,0,L|68:168,1,70
40,232,21914,1,0,0:0:0:0:
124,248,22075,6,0,P|108:280|112:328,1,70
188,300,22396,1,8,0:0:0:0:
268,324,22556,1,0,0:0:0:0:
348,308,22716,1,0,0:0:0:0:
372,228,22877,1,0,0:0:0:0:
328,156,23037,1,0,0:0:0:0:
244,164,23198,1,0,0:0:0:0:
279,239,23358,37,0,0:0:0:0:
276,72,23519,1,0,0:0:0:0:
168,200,23679,1,8,0:0:0:0:
396,92,23839,1,0,0:0:0:0:
396,92,23920,1,0,0:0:0:0:
396,92,24000,1,0,0:0:0:0:
232,52,24160,2,0,L|160:40,2,70,0|0|0,0:0|0:0|0:0,0:0:0:0:
356,169,24642,5,0,0:0:0:0:
440,24,24802,1,0,0:0:0:0:
276,72,24962,1,8,0:0:0:0:
448,169,25123,1,0,0:0:0:0:
220,215,25283,2,0,P|203:246|199:281,1,70
375,340,25604,2,0,P|392:309|396:274,1,70
175,363,25925,38,0,P|210:362|244:352,1,70
96,268,26246,2,0,B|64:288|60:316|60:316|32:276|36:228,1,140,8|0,0:0|0:0,0:0:0:0:
48,156,26727,1,0,0:0:0:0:
88,84,26888,1,0,0:0:0:0:
140,148,27048,1,0,0:0:0:0:
40,16,27208,5,0,0:0:0:0:
140,148,27369,1,0,0:0:0:0:
264,36,27529,1,8,0:0:0:0:
228,112,27690,2,0,P|284:120|320:104,1,70
368,156,28011,2,0,P|384:108|376:68,1,70
364,8,28331,1,0,0:0:0:0:
300,208,28492,38,0,P|344:236|432:212,1,140,2|0,0:0|0:0,0:0:0:0:
464,292,28973,1,0,0:0:0:0:
296,308,29134,6,0,P|252:280|164:304,1,140,2|0,0:0|0:0,0:0:0:0:
144,216,29615,1,0,0:0:0:0:
256,192,29775,12,0,30898,0:0:0:0:
308,64,31059,38,0,P|268:72|232:68,1,70
156,52,31379,1,8,0:0:0:0:
156,52,31540,1,0,0:0:0:0:
324,40,31700,2,0,B|372:48|372:48|472:32,1,140,0|8,0:0|0:0,0:0:0:0:
172,64,32182,1,0,0:0:0:0:
172,64,32342,6,0,B|124:56|124:56|24:72,1,140,0|8,0:0|0:0,0:0:0:0:
8,152,32823,1,0,0:0:0:0:
8,152,32904,1,0,0:0:0:0:
8,152,32984,1,0,0:0:0:0:
100,292,33144,1,0,0:0:0:0:
160,232,33305,2,0,P|128:212|88:212,1,70,8|0,0:0|0:0,0:0:0:0:
228,316,33625,38,0,L|256:240,1,70
276,168,33946,1,8,0:0:0:0:
132,80,34107,2,0,L|104:156,1,70
84,228,34428,1,0,0:0:0:0:
336,236,34588,1,8,0:0:0:0:
172,192,34748,1,0,0:0:0:0:
208,268,34909,5,0,0:0:0:0:
216,100,35069,1,0,0:0:0:0:
52,140,35230,1,8,0:0:0:0:
276,168,35390,1,0,0:0:0:0:
276,168,35470,1,0,0:0:0:0:
276,168,35551,38,0,L|352:152,1,70
336,236,35871,2,0,L|412:220,1,70,8|0,0:0|0:0,0:0:0:0:
448,148,36192,5,2,0:0:0:0:
384,92,36353,1,0,0:0:0:0:
460,56,36513,1,8,0:0:0:0:
180,244,36834,37,0,0:0:0:0:
252,92,36994,1,0,0:0:0:0:
176,56,37155,2,0,P|168:104|172:128,1,70,8|0,0:0|0:0,0:0:0:0:
276,356,37476,5,0,0:0:0:0:
344,304,37636,1,0,0:0:0:0:
268,268,37797,1,8,0:0:0:0:
432,232,37957,1,0,0:0:0:0:
432,232,38037,1,0,0:0:0:0:
432,232,38117,37,0,0:0:0:0:
100,176,38278,1,0,0:0:0:0:
180,148,38438,2,0,P|184:188|176:220,1,70,8|0,0:0|0:0,0:0:0:0:
132,288,38759,5,0,0:0:0:0:
96,40,38920,1,0,0:0:0:0:
312,168,39080,1,8,0:0:0:0:
100,176,39401,37,0,0:0:0:0:
432,120,39561,1,0,0:0:0:0:
280,52,39722,2,0,L|192:32,1,70,8|0,0:0|0:0,0:0:0:0:
208,288,40043,5,0,0:0:0:0:
372,316,40203,1,0,0:0:0:0:
240,212,40363,2,0,P|188:208|128:288,1,140,8|0,0:0|0:0,0:0:0:0:
300,268,40845,38,0,P|320:228|320:224,2,35,0|0|0,0:0|0:0|0:0,0:0:0:0:
56,208,41166,1,2,0:0:0:0:
324,104,41326,5,0,0:0:0:0:
256,56,41486,1,2,0:0:0:0:
376,40,41647,2,0,L|452:36,1,70,0|0,0:0|0:0,0:0:0:0:
220,148,42128,37,0,0:0:0:0:
224,168,42289,1,0,0:0:0:0:
228,188,42449,1,0,0:0:0:0:
252,312,42609,5,0,0:0:0:0:
176,272,42770,1,0,0:0:0:0:
340,228,42930,2,0,P|356:260|360:304,1,70
144,96,43412,37,0,0:0:0:0:
164,88,43572,1,0,0:0:0:0:
184,80,43732,1,0,0:0:0:0:
108,232,43893,5,0,0:0:0:0:
56,168,44053,1,0,0:0:0:0:
224,188,44214,2,0,L|216:264,1,70
112,328,44695,37,0,0:0:0:0:
92,332,44855,1,0,0:0:0:0:
72,336,45016,1,0,0:0:0:0:
144,140,45176,5,0,0:0:0:0:
216,180,45337,1,0,0:0:0:0:
296,152,45497,2,0,L|304:76,1,70
336,248,45978,21,0,0:0:0:0:
418,147,46139,1,0,0:0:0:0:
420,164,46219,1,0,0:0:0:0:
423,181,46299,1,0,0:0:0:0:
426,198,46379,1,0,0:0:0:0:
444,232,46460,5,0,0:0:0:0:
404,304,46620,1,0,0:0:0:0:
324,332,46781,2,0,P|284:316|260:292,1,70
144,332,47262,5,0,0:0:0:0:
172,252,47422,1,0,0:0:0:0:
164,168,47583,1,0,0:0:0:0:
72,28,47743,37,0,0:0:0:0:
96,104,47904,1,0,0:0:0:0:
152,48,48064,2,0,P|208:56|224:48,1,70
344,60,48545,21,0,0:0:0:0:
284,172,48706,2,0,P|320:160|388:160,1,105
428,256,49027,37,0,0:0:0:0:
476,324,49187,1,0,0:0:0:0:
392,336,49347,2,0,B|352:332|352:332|316:344,1,70
252,296,49829,5,0,0:0:0:0:
132,260,49989,2,0,L|112:368,1,105.000004005432
120,152,50310,37,0,0:0:0:0:
192,200,50470,1,0,0:0:0:0:
200,116,50631,1,0,0:0:0:0:
60,208,50952,5,0,0:0:0:0:
384,116,51112,1,0,0:0:0:0:
200,116,51273,1,0,0:0:0:0:
324,228,51433,1,0,0:0:0:0:
256,180,51593,21,0,0:0:0:0:
248,264,51754,1,0,0:0:0:0:
248,264,51834,1,0,0:0:0:0:
248,264,51914,2,0,L|264:336,1,70,8|0,0:0|0:0,0:0:0:0:
300,356,52155,1,2,0:0:0:0:
440,272,52315,1,0,0:0:0:0:
432,232,52396,1,0,0:0:0:0:
436,192,52476,1,0,0:0:0:0:
440,156,52556,2,0,P|396:132|380:108,1,70,8|0,0:0|0:0,0:0:0:0:
276,76,52877,38,0,P|216:80|192:80,1,70,2|0,0:0|0:0,0:0:0:0:
172,156,53198,2,0,P|112:136|80:128,1,70,8|0,0:0|0:0,0:0:0:0:
64,132,53438,1,2,0:0:0:0:
64,300,53599,1,0,0:0:0:0:
100,320,53679,2,0,L|180:308,1,70,0|8,0:0|0:0,0:0:0:0:
328,252,54000,1,0,0:0:0:0:
256,208,54160,5,2,0:0:0:0:
372,332,54321,1,0,0:0:0:0:
352,164,54481,2,0,L|332:80,1,70,8|0,0:0|0:0,0:0:0:0:
344,56,54722,1,2,0:0:0:0:
464,176,54882,1,0,0:0:0:0:
440,208,54962,2,0,L|456:288,1,70,0|8,0:0|0:0,0:0:0:0:
480,356,55283,1,0,0:0:0:0:
480,356,55363,1,0,0:0:0:0:
480,356,55444,37,0,0:0:0:0:
280,296,55604,1,0,0:0:0:0:
76,336,55765,1,8,0:0:0:0:
80,252,55925,1,0,0:0:0:0:
60,216,56005,1,2,0:0:0:0:
76,176,56085,1,0,0:0:0:0:
108,144,56166,1,0,0:0:0:0:
100,104,56246,1,2,0:0:0:0:
136,84,56326,1,0,0:0:0:0:
184,96,56406,2,0,L|200:24,1,70,8|0,0:0|0:0,0:0:0:0:
296,164,56727,6,0,P|252:188|224:192,1,70,2|0,0:0|0:0,0:0:0:0:
232,191,56968,1,0,0:0:0:0:
232,191,57048,1,8,0:0:0:0:
336,60,57208,1,0,0:0:0:0:
360,92,57289,1,2,0:0:0:0:
444,100,57449,1,0,0:0:0:0:
436,140,57529,1,2,0:0:0:0:
376,200,57690,2,0,P|388:252|392:300,1,70,0|8,0:0|0:0,0:0:0:0:
436,340,58011,38,0,P|392:352|344:352,1,70,2|0,0:0|0:0,0:0:0:0:
288,324,58331,2,0,P|240:312|188:308,1,70,8|0,0:0|0:0,0:0:0:0:
176,316,58572,1,2,0:0:0:0:
52,344,58732,1,0,0:0:0:0:
80,316,58813,2,0,P|68:272|64:232,1,70,2|8,0:0|0:0,0:0:0:0:
68,164,59134,1,0,0:0:0:0:
100,88,59294,6,0,L|168:104,1,70,2|0,0:0|0:0,0:0:0:0:
208,116,59535,1,0,0:0:0:0:
208,116,59615,1,8,0:0:0:0:
280,156,59775,1,0,0:0:0:0:
312,167,59855,1,0,0:0:0:0:
347,165,59935,1,0,0:0:0:0:
378,150,60015,1,0,0:0:0:0:
401,124,60096,2,0,L|444:136,1,35
380,252,60256,37,8,0:0:0:0:
377,269,60337,1,0,0:0:0:0:
374,286,60417,1,0,0:0:0:0:
371,303,60497,1,0,0:0:0:0:
368,321,60577,5,2,0:0:0:0:
452,312,60738,1,0,0:0:0:0:
288,284,60898,2,0,P|280:328|284:360,1,70,2|0,0:0|0:0,0:0:0:0:
224,100,61219,2,0,P|232:56|228:24,1,70,2|0,0:0|0:0,0:0:0:0:
88,136,61540,2,0,L|124:208,1,70,2|0,0:0|0:0,0:0:0:0:
88,268,61861,6,0,P|144:244|204:264,1,105,4|0,0:0|0:0,0:0:0:0:
208,284,62182,2,0,L|220:192,1,70,8|0,0:0|0:0,0:0:0:0:
220,172,62422,1,0,0:0:0:0:
220,172,62502,1,0,0:0:0:0:
300,140,62663,1,0,0:0:0:0:
236,88,62823,2,0,P|188:76|144:72,1,70,8|0,0:0|0:0,0:0:0:0:
320,216,63144,22,0,P|364:196|384:136,1,105
384,104,63465,2,0,L|404:196,1,70,8|0,0:0|0:0,0:0:0:0:
424,208,63706,1,0,0:0:0:0:
424,208,63786,1,0,0:0:0:0:
476,140,63946,1,0,0:0:0:0:
396,288,64107,2,0,B|416:328|416:328|420:376,1,70,8|0,0:0|0:0,0:0:0:0:
268,276,64428,22,0,P|240:232|248:176,1,105
240,140,64748,2,0,L|308:208,1,70,8|0,0:0|0:0,0:0:0:0:
320,216,64989,1,0,0:0:0:0:
320,216,65069,1,0,0:0:0:0:
208,340,65230,1,0,0:0:0:0:
144,288,65390,38,0,L|64:296,1,70,8|2,0:0|0:0,0:0:0:0:
120,132,65871,1,0,0:0:0:0:
120,132,65952,1,0,0:0:0:0:
120,132,66032,5,0,0:0:0:0:
172,196,66192,1,0,0:0:0:0:
148,28,66353,2,0,L|64:40,1,70
36,108,66674,1,8,0:0:0:0:
288,116,66834,1,0,0:0:0:0:
212,80,66994,22,0,P|204:120|212:152,1,70,2|0,0:0|0:0,0:0:0:0:
316,280,67235,1,0,0:0:0:0:
316,280,67315,2,0,P|272:304|232:304,1,70,2|0,0:0|0:0,0:0:0:0:
132,272,67556,1,0,0:0:0:0:
132,272,67636,2,0,P|156:228|196:200,1,70,2|0,0:0|0:0,0:0:0:0:
288,116,67877,1,0,0:0:0:0:
288,116,67957,2,0,P|340:132|368:168,1,70,2|2,0:0|0:0,0:0:0:0:
348,184,68198,1,0,0:0:0:0:
348,184,68278,37,8,0:0:0:0:
184,152,68438,1,8,0:0:0:0:
424,80,68599,1,8,0:0:0:0:
260,212,68759,1,8,0:0:0:0:
348,68,68920,1,8,0:0:0:0:
332,276,69080,1,8,0:0:0:0:
200,60,69240,2,8,L|180:12,2,35,0|0|0,0:0|0:0|0:0,0:0:0:0:
332,276,69561,5,0,0:0:0:0:
296,300,69642,1,0,0:0:0:0:
256,304,69722,1,0,0:0:0:0:
220,288,69802,1,0,0:0:0:0:
180,276,69882,1,0,0:0:0:0:
144,296,69962,1,0,0:0:0:0:
104,284,70043,1,0,0:0:0:0:
80,248,70123,1,0,0:0:0:0:
84,208,70203,37,0,0:0:0:0:
60,176,70283,1,0,0:0:0:0:
72,136,70363,1,0,0:0:0:0:
96,104,70444,1,0,0:0:0:0:
136,108,70524,1,0,0:0:0:0:
168,80,70604,1,0,0:0:0:0:
196,112,70684,1,0,0:0:0:0:
236,96,70765,1,0,0:0:0:0:
270,122,70845,6,0,P|320:104|368:112,1,70,2|0,0:0|0:0,0:0:0:0:
448,160,71085,1,0,0:0:0:0:
448,160,71166,6,0,L|444:256,1,83.9999974365235,2|0,0:0|0:0,0:0:0:0:
344,228,71406,1,0,0:0:0:0:
344,228,71486,6,0,L|320:348,1,105.000004005432,2|0,0:0|0:0,0:0:0:0:
256,224,71807,1,8,0:0:0:0:
256,224,72128,6,0,P|164:228|120:188,1,140,0|0,0:0|0:0,0:0:0:0:
56,60,72449,1,8,0:0:0:0:
208,128,72609,1,2,0:0:0:0:
40,156,72770,1,2,0:0:0:0:
168,48,72930,1,0,0:0:0:0:
168,48,73011,1,0,0:0:0:0:
168,48,73091,2,0,P|260:56|296:100,1,140,0|8,0:0|0:0,0:0:0:0:
368,200,73412,6,0,B|392:148|392:148|384:92|384:92|404:24,1,140,2|0,0:0|0:0,0:0:0:0:
391,66,73652,1,0,0:0:0:0:
391,66,73732,1,8,0:0:0:0:
264,176,73893,1,2,0:0:0:0:
348,320,74053,38,0,B|424:300|424:300|496:324,1,140,0|2,0:0|0:0,0:0:0:0:
232,280,74374,2,0,B|156:300|156:300|84:276,1,140
432,260,74695,5,2,0:0:0:0:
104,192,74855,1,0,0:0:0:0:
272,168,75016,2,0,B|280:96|232:100|240:16,1,140,8|0,0:0|0:0,0:0:0:0:
239,34,75256,1,2,0:0:0:0:
364,144,75417,1,0,0:0:0:0:
364,144,75497,2,0,P|360:208|352:224,1,70,2|0,0:0|0:0,0:0:0:0:
196,144,75658,2,0,B|260:116|248:80|344:76,1,140,8|0,0:0|0:0,0:0:0:0:
460,168,75978,1,2,0:0:0:0:
100,88,76139,1,2,0:0:0:0:
100,88,76219,1,2,0:0:0:0:
100,88,76299,38,0,P|96:184|272:220,1,280,8|0,0:0|0:0,0:0:0:0:
372,120,76781,1,2,0:0:0:0:
372,160,76861,1,2,0:0:0:0:
372,200,76941,1,2,0:0:0:0:
272,336,77101,1,8,0:0:0:0:
212,180,77262,6,0,L|224:32,1,140,2|0,0:0|0:0,0:0:0:0:
280,244,77583,2,0,P|208:268|136:224,1,140,8|0,0:0|0:0,0:0:0:0:
128,208,77823,1,2,0:0:0:0:
300,120,77984,1,0,0:0:0:0:
300,120,78064,2,0,B|328:148|316:176|316:176|364:196|356:256,2,140,2|0|0,0:0|0:0|0:0,0:0:0:0:
40,200,78545,38,0,L|56:348,1,140,2|0,0:0|0:0,0:0:0:0:
55,339,78786,1,0,0:0:0:0:
55,339,78866,1,8,0:0:0:0:
116,168,79027,1,2,0:0:0:0:
20,12,79187,1,0,0:0:0:0:
180,64,79347,5,2,0:0:0:0:
16,104,79508,1,8,0:0:0:0:
212,180,79668,1,0,0:0:0:0:
108,108,79829,37,2,0:0:0:0:
276,116,79989,1,0,0:0:0:0:
40,200,80150,1,8,0:0:0:0:
272,300,80310,1,2,0:0:0:0:
240,272,80390,1,0,0:0:0:0:
200,284,80470,1,0,0:0:0:0:
416,352,80631,2,0,P|424:304|420:256,1,70,2|0,0:0|0:0,0:0:0:0:
400,48,80791,1,0,0:0:0:0:
304,204,80952,1,0,0:0:0:0:
484,96,81112,6,0,P|416:136|356:132,1,140,2|0,0:0|0:0,0:0:0:0:
276,116,81353,1,0,0:0:0:0:
276,116,81433,2,0,P|216:104|152:152,1,140,8|0,0:0|0:0,0:0:0:0:
164,188,81674,1,2,0:0:0:0:
164,188,81754,1,2,0:0:0:0:
392,276,81914,2,0,L|316:248,1,70,2|2,0:0|0:0,0:0:0:0:
60,156,82075,2,0,P|20:216|32:308,1,140,2|0,0:0|0:0,0:0:0:0:
168,328,82396,38,0,P|220:272|232:196,1,140,2|0,0:0|0:0,0:0:0:0:
152,236,82636,1,0,0:0:0:0:
152,236,82716,2,0,P|200:272|296:272,1,140,10|0,0:0|0:0,0:0:0:0:
316,260,82957,1,2,0:0:0:0:
444,252,83117,1,0,0:0:0:0:
432,212,83198,2,0,P|416:156|424:56,2,140,2|8|2,0:0|0:0|0:0,0:0:0:0:
328,344,83679,5,2,0:0:0:0:
320,176,83839,2,0,L|360:248,1,70,2|0,0:0|0:0,0:0:0:0:
408,320,84000,1,8,0:0:0:0:
236,200,84160,1,2,0:0:0:0:
476,124,84321,37,2,0:0:0:0:
312,92,84481,1,2,0:0:0:0:
388,128,84642,5,8,0:0:0:0:
236,200,84802,1,0,0:0:0:0:
400,224,84962,37,2,0:0:0:0:
184,92,85123,1,0,0:0:0:0:
292,320,85283,1,8,0:0:0:0:
152,228,85444,1,2,0:0:0:0:
152,228,85524,1,2,0:0:0:0:
152,228,85604,1,2,0:0:0:0:
320,232,85765,1,2,0:0:0:0:
176,316,85925,2,0,P|120:312|64:232,1,140,8|2,0:0|0:0,0:0:0:0:
100,88,86246,5,2,0:0:0:0:
152,228,86406,2,0,L|216:184,1,70,2|2,0:0|0:0,0:0:0:0:
336,76,86567,1,8,0:0:0:0:
172,44,86727,1,2,0:0:0:0:
304,148,86888,1,0,0:0:0:0:
472,140,87048,2,0,L|396:132,1,70,2|2,0:0|0:0,0:0:0:0:
100,88,87208,1,0,0:0:0:0:
260,40,87369,1,2,0:0:0:0:
100,88,87529,38,0,P|88:148|136:308,1,210,2|0,0:0|0:0,0:0:0:0:
56,340,87850,2,0,P|148:324|204:328,1,140,8|0,0:0|0:0,0:0:0:0:
232,348,88091,1,2,0:0:0:0:
276,232,88251,1,0,0:0:0:0:
288,272,88331,1,2,0:0:0:0:
376,332,88492,2,0,P|416:336|396:256,1,140,8|0,0:0|0:0,0:0:0:0:
176,180,88813,5,2,0:0:0:0:
308,284,88973,2,0,L|304:212,1,70,2|2,0:0|0:0,0:0:0:0:
288,48,89134,1,8,0:0:0:0:
388,184,89294,1,2,0:0:0:0:
236,116,89454,1,0,0:0:0:0:
404,104,89615,1,0,0:0:0:0:
404,104,89695,1,0,0:0:0:0:
404,104,89775,2,0,P|460:132|464:216,1,140
68,68,90096,37,2,0:0:0:0:
172,200,90256,1,0,0:0:0:0:
148,32,90417,1,8,0:0:0:0:
84,188,90577,1,2,0:0:0:0:
172,332,90738,5,0,0:0:0:0:
272,196,90898,1,2,0:0:0:0:
120,264,91059,1,8,0:0:0:0:
284,280,91219,1,0,0:0:0:0:
220,136,91379,38,0,P|268:120|344:168,1,140,4|0,0:0|0:0,0:0:0:0:
356,204,91620,1,0,0:0:0:0:
373,234,91700,1,4,0:0:0:0:
400,256,91781,1,0,0:0:0:0:
434,259,91861,1,0,0:0:0:0:
464,242,91941,1,0,0:0:0:0:
480,212,92021,1,4,0:0:0:0:
474,180,92101,1,0,0:0:0:0:
448,156,92182,1,0,0:0:0:0:
430,126,92262,1,0,0:0:0:0:
424,92,92342,37,4,0:0:0:0:
456,12,92502,1,0,0:0:0:0:
392,64,92663,2,0,P|348:80|316:76,1,70
244,60,92984,2,0,P|200:52|144:92,1,105
108,80,93305,2,0,L|124:160,1,70
48,192,93625,2,0,L|80:264,1,70,4|0,0:0|0:0,0:0:0:0:
40,340,93946,6,0,P|112:340|160:284,1,140,2|0,0:0|0:0,0:0:0:0:
232,332,94187,1,0,0:0:0:0:
232,332,94267,2,0,P|260:292|320:340,1,140,8|0,0:0|0:0,0:0:0:0:
320,335,94508,1,2,0:0:0:0:
320,335,94588,1,0,0:0:0:0:
416,200,94748,2,0,P|397:266|409:335,1,140,2|8,0:0|0:0,0:0:0:0:
316,56,95069,1,2,0:0:0:0:
200,180,95230,6,0,P|172:212|136:136,1,140,2|0,0:0|0:0,0:0:0:0:
288,148,95551,2,0,P|272:224|224:280,1,140,8|0,0:0|0:0,0:0:0:0:
234,271,95791,1,2,0:0:0:0:
234,271,95871,1,0,0:0:0:0:
212,76,96032,1,0,0:0:0:0:
480,36,96192,2,0,B|496:84|488:136|488:136|460:120|424:132,1,140,2|0,0:0|0:0,0:0:0:0:
312,56,96513,37,2,0:0:0:0:
432,276,96674,2,0,L|444:196,1,70,2|0,0:0|0:0,0:0:0:0:
480,36,96834,1,8,0:0:0:0:
312,56,96994,1,2,0:0:0:0:
464,132,97155,5,0,0:0:0:0:
136,196,97315,2,0,L|208:208,1,70,2|0,0:0|0:0,0:0:0:0:
448,256,97476,1,8,0:0:0:0:
312,164,97636,1,2,0:0:0:0:
192,280,97797,38,0,P|224:320|324:344,1,140,2|0,0:0|0:0,0:0:0:0:
104,76,98117,2,0,P|64:120|44:204,1,140,8|0,0:0|0:0,0:0:0:0:
43,196,98358,1,2,0:0:0:0:
196,124,98519,1,0,0:0:0:0:
196,124,98599,2,0,P|208:72|176:-8,2,140,2|8|0,0:0|0:0|0:0,0:0:0:0:
112,272,99080,6,0,P|120:324|208:356,1,140,2|0,0:0|0:0,0:0:0:0:
268,320,99321,1,0,0:0:0:0:
268,320,99401,2,0,B|328:332|328:332|408:308,1,140,8|0,0:0|0:0,0:0:0:0:
480,348,99722,2,0,P|484:284|472:260,1,70
424,220,99882,2,0,P|376:208|328:224,1,70,2|0,0:0|0:0,0:0:0:0:
272,232,100043,37,8,0:0:0:0:
400,124,100203,1,8,0:0:0:0:
236,160,100363,6,0,B|180:180|180:180|140:180|96:164,1,140,2|0,0:0|0:0,0:0:0:0:
40,60,100604,1,0,0:0:0:0:
40,60,100684,2,0,B|88:84|88:84|128:60|128:60|188:60,1,140,8|0,0:0|0:0,0:0:0:0:
167,60,100925,1,2,0:0:0:0:
167,60,101005,1,0,0:0:0:0:
296,48,101166,1,0,0:0:0:0:
432,96,101326,2,0,B|508:80|508:80|448:76|392:8,1,210,12|0,0:0|0:0,0:0:0:0:
396,168,101647,38,0,P|416:216|412:308,1,140,4|0,0:0|0:0,0:0:0:0:
320,316,101888,1,0,0:0:0:0:
320,316,101968,2,0,B|272:304|272:304|224:312|224:312|176:296,1,140,4|0,0:0|0:0,0:0:0:0:
116,344,102208,1,2,0:0:0:0:
116,344,102289,6,0,L|96:272,1,70,4|0,0:0|0:0,0:0:0:0:
20,244,102449,2,0,L|56:168,1,70,2|0,0:0|0:0,0:0:0:0:
20,104,102609,2,0,P|64:96|132:180,1,140,12|0,0:0|0:0,0:0:0:0:
184,284,102930,5,0,0:0:0:0:
240,124,103091,1,0,0:0:0:0:
300,280,103251,1,0,0:0:0:0:
352,212,103412,5,0,0:0:0:0:
296,372,103573,1,0,0:0:0:0:
236,216,103733,1,0,0:0:0:0:
340,97,103893,6,0,B|368:129|408:140|408:140|452:121|452:121|479:180|460:252|404:249,1,280,8|2,0:0|0:0,0:0:0:0:
100,116,104374,2,0,P|76:160|84:196,1,70
256,308,104535,5,8,0:0:0:0:
160,172,104695,1,2,0:0:0:0:
168,320,104855,1,0,0:0:0:0:
180,68,105016,1,2,0:0:0:0:
252,176,105176,1,8,0:0:0:0:
100,248,105337,1,2,0:0:0:0:
348,228,105497,38,0,P|356:176|312:92,1,140,2|0,0:0|0:0,0:0:0:0:
72,152,105818,2,0,P|80:220|200:260,1,210,8|2,0:0|0:0,0:0:0:0:
236,336,106139,2,0,P|292:324|380:348,1,140,0|2,0:0|0:0,0:0:0:0:
472,208,106460,1,8,0:0:0:0:
400,56,106620,1,2,0:0:0:0:
400,56,106700,1,0,0:0:0:0:
400,56,106781,1,2,0:0:0:0:
256,140,106941,1,0,0:0:0:0:
424,136,107101,5,8,0:0:0:0:
276,56,107262,1,2,0:0:0:0:
116,100,107422,1,2,0:0:0:0:
272,164,107583,2,0,L|192:188,1,70,2|0,0:0|0:0,0:0:0:0:
44,236,107743,37,8,0:0:0:0:
376,296,107904,1,8,0:0:0:0:
212,272,108064,6,0,P|160:280|96:344,1,140,2|0,0:0|0:0,0:0:0:0:
268,348,108385,2,0,P|296:304|280:208,1,140,8|2,0:0|0:0,0:0:0:0:
180,92,108706,2,0,L|324:116,1,140,0|2,0:0|0:0,0:0:0:0:
68,156,109027,37,8,0:0:0:0:
212,272,109187,1,0,0:0:0:0:
364,192,109347,1,2,0:0:0:0:
116,236,109508,2,0,L|168:180,1,70,2|0,0:0|0:0,0:0:0:0:
280,64,109668,1,8,0:0:0:0:
292,232,109829,1,2,0:0:0:0:
184,104,109989,1,0,0:0:0:0:
432,148,110150,1,2,0:0:0:0:
432,148,110230,1,0,0:0:0:0:
432,148,110310,1,8,0:0:0:0:
116,236,110470,1,0,0:0:0:0:
264,164,110631,6,0,L|288:336,1,140,2|0,0:0|0:0,0:0:0:0:
116,332,110952,1,0,0:0:0:0:
84,168,111112,2,0,L|172:180,1,70
364,192,111273,1,0,0:0:0:0:
128,252,111433,1,0,0:0:0:0:
248,324,111593,2,0,P|304:336|392:312,1,140
432,248,111834,1,0,0:0:0:0:
432,248,111914,38,0,P|416:192|424:96,1,140,4|0,0:0|0:0,0:0:0:0:
340,84,112155,1,0,0:0:0:0:
340,84,112235,6,0,P|368:48|424:24,1,105.000004005432,4|0,0:0|0:0,0:0:0:0:
304,172,112476,1,0,0:0:0:0:
304,172,112556,6,0,P|256:168|232:152,1,70,4|0,0:0|0:0,0:0:0:0:
128,220,112797,1,0,0:0:0:0:
128,220,112877,2,0,P|81:211|44:252,1,105.000004005432,4|0,0:0|0:0,0:0:0:0:
256,192,113278,12,0,114321,0:0:0:0:
352,256,114481,6,0,P|311:257|252:216,1,112,2|0,0:0|0:0,0:0:0:0:
176,252,114962,2,0,P|168:216|200:148,1,112,2|0,0:0|0:0,0:0:0:0:
276,120,115444,2,0,L|336:136,1,56,2|0,0:0|0:0,0:0:0:0:
404,172,115765,1,2,0:0:0:0:
464,112,115925,1,0,0:0:0:0:
388,76,116085,37,2,0:0:0:0:
332,216,116246,2,0,P|344:248|348:272,1,56,2|0,0:0|0:0,0:0:0:0:
436,248,116567,2,0,L|420:312,2,56,2|0|2,0:0|0:0|0:0,0:0:0:0:
464,112,117048,2,0,L|496:104,2,28,2|2|2,0:0|0:0|0:0,0:0:0:0:
268,168,117369,1,2,0:0:0:0:
192,128,117529,1,2,0:0:0:0:
256,76,117690,5,2,0:0:0:0:
256,76,118011,1,2,0:0:0:0:
292,204,118331,37,0,0:0:0:0:
164,244,118492,1,0,0:0:0:0:
40,188,118652,1,2,0:0:0:0:
40,188,118973,5,2,0:0:0:0:
164,244,119294,1,0,0:0:0:0:
292,204,119615,37,2,0:0:0:0:
356,324,120096,1,2,0:0:0:0:
384,124,120577,1,2,0:0:0:0:
300,228,120898,6,0,L|364:220,1,56,2|0,0:0|0:0,0:0:0:0:
252,308,121219,1,2,0:0:0:0:
252,308,121379,2,0,B|192:328|192:328|136:320,1,112,2|0,0:0|0:0,0:0:0:0:
64,344,121861,2,0,P|68:304|68:276,1,56,2|0,0:0|0:0,0:0:0:0:
64,204,122182,2,0,P|100:216|224:164,1,168,2|0,0:0|0:0,0:0:0:0:
212,88,122823,22,0,L|192:24,1,56,8|0,0:0|0:0,0:0:0:0:
320,80,123144,2,0,L|300:144,1,56,8|0,0:0|0:0,0:0:0:0:
256,204,123465,1,2,0:0:0:0:
256,204,123545,1,0,0:0:0:0:
256,204,123625,1,0,0:0:0:0:
256,192,123706,12,0,128599,0:0:0:0:
