osu file format v14

[General]
AudioFilename: 2.mp3
AudioLeadIn: 0
PreviewTime: 71635
Countdown: 0
SampleSet: Soft
StackLeniency: 0.7
Mode: 0
LetterboxInBreaks: 0
EpilepsyWarning: 1
WidescreenStoryboard: 0

[Editor]
Bookmarks: 20779,30405
DistanceSpacing: 1
BeatDivisor: 4
GridSize: 4
TimelineZoom: 1

[Metadata]
Title:Movements Feat. MaHi (Original Mix) (Speed Up Ver.)
TitleUnicode:Movements Feat. MaHi (Original Mix) (Speed Up Ver.)
Artist:MitiS
ArtistUnicode:MitiS
Creator:-[ Asuna ]-
Version:Easy
Source:
Tags:FlandreScarlet- Serena- AnreFM Path to the Horizon Valentina Remenar CLSW Fort [ Joey ] Game Kin
BeatmapID:444371
BeatmapSetID:183132

[Difficulty]
HPDrainRate:2
CircleSize:3
OverallDifficulty:2
ApproachRate:3
SliderMultiplier:1
SliderTickRate:1

[Events]
//Background and Video events
0,0,"Background.jpg",0,0
//Break Periods
2,41526,46291
//Storyboard Layer 0 (Background)
//Storyboard Layer 1 (Fail)
//Storyboard Layer 2 (Pass)
//Storyboard Layer 3 (Foreground)
Sprite,Foreground,Centre,"SB/OpticalFlare.png",320,240 M,0,41326,,320,157 F,0,41326,41406,0,1 V,0,41326,41406,0.1,0.1,0.9340653,1.049677 F,0,41406,51273,1 V,0,41406,51273,0.9340653,1.049677,0.9423233,1.066193 V,0,51273,51433,0.9423233,1.066193,1.024904,1.24787 F,0,51273,51593,1,0 V,0,51433,51593,1.024904,1.24787,0.1,0.1
Sprite,Foreground,Centre,"SB/Flare2.png",320,240 M,0,41326,,319,159 F,0,41326,41406,0,1 S,0,41326,41406,0.1,1.181807 R,0,41326,51593,-1.932387,-1.816774 P,0,41406,,A F,0,41406,50952,1 S,0,41406,51593,1.181807 F,0,50952,51593,1,0
Sprite,Foreground,Centre,"SB/Mapped.png",320,240 P,0,42289,,A F,0,42289,42609,0,0.9 V,1,42289,42609,0.01,0.7687742,0.8432258,0.7687742 M,0,42289,51593,231,109,203,109 V,0,42609,51273,0.8432258,0.7687742 F,0,51273,51593,0.9,0
Sprite,Foreground,Centre,"SB/Asuna.png",320,240 P,0,43572,,A F,0,43572,43893,0,0.9 V,1,43572,43893,0.01,0.7687742,0.8432258,0.7687742 M,0,43572,51593,361,202,405,202 V,0,43893,51593,0.8432258,0.7687742 F,0,51273,51593,0.9,0
Sprite,Foreground,Centre,"SB/highlight.png",320,240 S,0,51593,,0.9028968 P,0,51593,,A M,0,51593,52075,270,294,129,247 F,0,51593,52556,1,0 M,0,52075,52556,129,247,262,293
Sprite,Foreground,Centre,"SB/highlight.png",320,240 S,0,54160,,0.9028968 P,0,54160,,A M,0,54160,54642,398,307,472,183 F,0,54160,55123,1,0 M,0,54642,55123,472,183,396,304
Sprite,Foreground,Centre,"SB/highlight.png",320,240 S,0,56727,,0.9028968 P,0,56727,,A M,0,56727,57048,420,346,501,295 F,0,56727,57690,1,0 M,0,57048,57369,501,295,506,211 M,0,57369,57690,506,211,438,143
Sprite,Foreground,Centre,"SB/highlight.png",320,240 S,0,59294,,0.9028968 P,0,59294,,A M,0,59294,59615,423,377,521,384 F,0,59294,60256,1,0 M,0,59615,59775,521,384,556,352 M,0,59775,59936,556,352,523,382 M,0,59936,60256,523,382,435,375
Sprite,Foreground,Centre,"SB/highlight.png",320,240 S,0,61861,,0.9028968 P,0,61861,,A M,0,61861,62342,385,312,245,263 F,0,61861,62823,1,0 M,0,62342,62502,245,263,277,235 M,0,62502,62823,277,235,315,144
Sprite,Foreground,Centre,"SB/highlight.png",320,240 S,0,64428,,0.9028968 P,0,64428,,A M,0,64428,64748,247,380,324,423 F,0,64428,65390,1,0 M,0,64748,64909,324,423,371,401 M,0,64909,65069,371,401,334,419 M,0,65069,65390,334,419,247,386
Sprite,Foreground,Centre,"SB/highlight.png",320,240 M,0,66994,,183,232 S,0,66994,,0.9028968 P,0,66994,,A F,0,66994,67636,1,0
Sprite,Foreground,Centre,"SB/highlight.png",320,240 M,0,68278,,272,67 S,0,68278,,0.9028968 P,0,68278,,A F,0,68278,68920,1,0
Sprite,Foreground,Centre,"SB/highlight.png",320,240 S,0,69561,,0.9028968 P,0,69561,,A M,0,69561,69882,482,264,391,303 F,0,69561,70203,1,0 M,0,69882,70203,391,303,339,378
//Storyboard Sound Samples

[TimingPoints]
257,320.855614973262,4,2,4,40,1,0
20791,-100,4,2,2,40,0,0
20871,-100,4,2,5,40,0,0
22075,-100,4,2,2,40,0,0
22155,-100,4,2,5,40,0,0
23358,-100,4,2,2,40,0,0
23438,-100,4,2,5,40,0,0
24642,-100,4,2,2,40,0,0
24722,-100,4,2,5,40,0,0
25925,-100,4,2,2,40,0,0
26005,-100,4,2,5,40,0,0
26888,-100,4,2,5,40,0,0
26969,-100,4,2,2,40,0,0
27208,-100,4,2,2,55,0,0
27289,-100,4,2,5,60,0,0
28171,-100,4,2,5,60,0,0
28172,-100,4,2,2,60,0,0
28251,-100,4,2,5,60,0,0
28492,-100,4,2,5,60,0,0
31059,-100,4,2,2,60,0,0
40444,-100,4,2,2,40,0,0
40604,-100,4,2,2,60,0,0
41326,-100,4,2,2,80,0,0
47743,-100,4,2,2,5,0,0
48385,-100,4,2,2,10,0,0
49027,-100,4,2,2,15,0,0
49668,-100,4,2,2,20,0,0
50310,-100,4,2,2,25,0,0
51593,-100,4,2,2,50,0,0
51674,-100,4,2,5,50,0,0
52877,-100,4,2,2,40,0,0
52957,-100,4,2,5,40,0,0
54160,-100,4,2,2,45,0,0
54240,-100,4,2,5,45,0,0
55444,-100,4,2,2,50,0,0
55524,-100,4,2,5,50,0,0
56727,-100,4,2,2,55,0,0
56807,-100,4,2,5,55,0,0
58011,-100,4,2,2,60,0,0
58091,-100,4,2,5,60,0,0
59294,-100,4,2,2,65,0,0
59374,-100,4,2,5,65,0,0
60577,-100,4,2,2,70,0,0
60658,-100,4,2,5,70,0,0
61861,-100,4,2,2,75,0,0
61941,-100,4,2,5,75,0,0
63144,-100,4,2,2,80,0,0
63224,-100,4,2,5,80,0,0
64428,-100,4,2,2,95,0,0
64508,-100,4,2,3,95,0,0
65711,-100,4,2,2,80,0,0
65791,-100,4,2,3,80,0,0
66994,-100,4,2,3,90,0,0
70845,-100,4,2,2,95,0,0
72128,-100,4,2,3,100,0,1
92663,-100,4,2,4,55,0,0
93946,-100,4,2,3,100,0,1
113198,-100,4,2,3,60,0,0
114481,-100,4,2,2,20,0,0
124428,-100,4,2,0,30,0,0
126032,-100,4,2,0,20,0,0
126994,-100,4,2,0,5,0,0

[Colours]
Combo1 : 248,97,160
Combo2 : 27,166,241
Combo3 : 236,167,245
Combo4 : 105,82,199

[HitObjects]
344,336,20791,6,0,B|312:232|364:144|364:144|312:168|248:132,1,300,8|0,0:0|0:0,0:0:0:0:
220,56,22075,2,0,P|168:136|184:192,2,150,8|2|0,0:0|0:0|0:0,0:0:0:0:
316,24,23358,6,0,P|410:39|474:127,1,200,8|0,0:0|0:0,0:3:0:0:
416,200,24321,1,0,0:0:0:0:
500,256,24642,2,0,P|460:292|404:300,1,100,8|0,0:0|0:0,0:0:0:0:
324,344,25283,2,0,L|224:344,1,100,2|0,0:0|0:0,0:0:0:0:
124,332,25925,6,0,P|100:208|224:236,1,300,8|0,0:0|0:0,0:0:0:0:
324,244,27208,2,0,L|324:88,2,150,8|2|0,0:0|0:0|0:0,0:0:0:0:
280,332,28492,6,0,P|180:332|112:260,1,200,8|2,0:0|0:0,0:0:0:0:
140,168,29454,1,0,0:0:0:0:
230,216,29775,2,0,L|342:216,2,100,8|0|2,0:0|0:0|0:0,0:0:0:0:
348,60,31059,6,0,L|184:60,2,150,8|2|0,0:0|0:0|0:0,0:0:0:0:
448,56,32342,2,0,P|488:188|440:340,1,300,8|0,0:0|0:0,0:0:0:0:
340,336,33625,6,0,L|188:332,2,150,8|2|0,0:0|0:0|0:0,0:0:0:0:
404,256,34909,2,0,B|340:200|348:124|348:124|292:52|208:100,1,300,8|0,0:0|0:0,0:0:0:0:
268,180,36192,6,0,P|168:188|132:152,2,150,8|2|0,0:0|0:0|0:0,0:0:0:0:
214,96,37476,2,0,P|88:68|48:208,1,300,8|0,0:0|0:0,0:0:0:0:
96,292,38759,2,0,B|192:328|256:288|280:208|280:208|304:236|340:236,1,300,8|0,0:0|0:0,0:0:0:0:
392,152,40043,2,0,P|440:220|428:284,2,150,8|8|0,0:0|0:0|0:0,0:0:0:0:
296,124,41326,5,2,0:0:0:0:
256,192,47743,12,4,50310,0:0:0:0:
204,240,51593,6,0,L|56:192,2,150,8|2|0,0:0|0:0|0:0,0:0:0:0:
264,320,52877,2,0,P|332:348|408:320,2,150,8|2|0,0:0|0:0|0:0,0:0:0:0:
336,248,54160,6,0,B|416:120,2,150,8|2|0,0:0|0:0|0:0,0:0:0:0:
264,320,55444,2,0,P|192:332|111:305,2,150,8|2|0,0:0|0:0|0:0,0:0:0:0:
363,292,56727,6,0,P|454:187|368:80,1,300,8|0,0:0|0:0,0:0:0:0:
268,80,58011,2,0,P|181:188|272:294,1,300,8|0,0:0|0:0,0:0:0:0:
364,324,59294,6,0,P|468:324|500:292,2,150,8|2|0,0:0|0:0|0:0,0:0:0:0:
416,242,60577,2,0,L|416:92,2,150,8|2|0,0:0|0:0|0:0,0:0:0:0:
316,252,61861,6,0,B|224:248|176:204|176:204|248:176|256:88,1,300,8|0,0:0|0:0,0:0:0:0:
156,108,63144,2,0,B|64:112|16:156|16:156|88:184|96:272,1,300,8|0,0:0|0:0,0:0:0:0:
180,328,64428,6,0,B|236:328|268:368|268:368|300:344|336:344,2,150,8|2|0,0:0|0:0|0:0,0:0:0:0:
96,272,65711,2,0,P|36:228|24:148,2,150,8|2|0,0:0|0:0|0:0,0:0:0:0:
116,176,66994,5,8,0:0:0:0:
316,180,67636,1,8,0:0:0:0:
216,8,68278,1,8,0:0:0:0:
216,208,68920,1,8,0:0:0:0:
416,212,69561,2,0,B|324:252|324:252|264:332|264:332|164:344|164:344|112:256,1,400
113,258,72128,6,0,P|105:210|113:154,1,100,12|0,0:0|0:0,0:0:0:0:
184,91,72770,2,0,P|232:83|284:91,1,100,8|0,0:0|0:0,0:0:0:0:
369,38,73412,2,0,P|382:110|343:172,1,150,2|8,0:0|0:0,0:0:0:0:
480,232,74374,2,0,L|444:276,1,50,2|0,0:0|0:0,0:0:0:0:
340,372,75016,6,0,L|243:334,1,100,8|0,0:0|0:0,0:0:0:0:
156,292,75658,1,0,0:0:0:0:
76,236,75978,2,0,P|40:168|68:104,2,150,8|0|0,0:0|0:0|0:0,0:0:0:0:
220,96,77583,6,0,P|268:80|320:84,1,100,8|0,0:0|0:0,0:0:0:0:
280,176,78224,1,0,0:0:0:0:
200,236,78545,2,0,P|268:276|348:248,1,150,8|2,0:0|0:0,0:0:0:0:
440,152,79508,2,0,L|388:136,1,50,2|0,0:0|0:0,0:0:0:0:
256,72,80150,6,0,P|212:104|200:148,1,100,8|0,0:0|0:0,0:0:0:0:
236,240,80791,1,0,0:0:0:0:
168,316,81112,2,0,P|96:348|28:320,2,150,8|2|0,0:0|0:0|0:0,0:0:0:0:
256,136,82716,6,0,L|156:124,1,100,8|0,0:0|0:0,0:0:0:0:
94,202,83358,1,0,0:0:0:0:
192,220,83679,2,0,P|308:228|336:204,1,150,2|0,0:0|0:0,0:0:0:0:
348,64,84642,2,0,L|292:64,1,50,2|0,0:0|0:0,0:0:0:0:
148,76,85283,6,0,P|135:123|153:169,1,100,8|0,0:0|0:0,0:0:0:0:
224,244,85925,2,0,P|276:268|320:264,1,100,8|0,0:0|0:0,0:0:0:0:
416,252,86567,2,0,P|492:212|512:104,1,200,2|0,0:0|0:0,0:0:0:0:
316,72,87850,6,0,P|266:85|238:124,1,100,8|0,0:0|0:0,0:0:0:0:
200,216,88492,1,0,0:0:0:0:
128,284,88813,2,0,P|49:257|19:200,2,150,8|2|0,0:0|0:0|0:0,0:0:0:0:
224,308,90096,5,0,0:0:0:0:
320,276,90417,2,0,L|416:240,1,100,8|0,0:0|0:0,0:0:0:0:
464,152,91059,1,8,0:0:0:0:
396,80,91379,2,0,P|333:42|260:54,2,150,2|2|0,0:0|0:0|0:0,0:0:0:0:
316,140,92663,6,0,P|304:192|312:240,2,100,0|0|0,0:0|0:0|0:0,0:0:0:0:
216,144,93625,1,4,0:0:0:0:
120,124,93946,5,6,0:0:0:0:
96,220,94267,2,0,P|112:272|100:320,2,100,8|0|0,0:0|0:0|0:0,0:0:0:0:
24,148,95230,5,2,0:0:0:0:
72,60,95551,2,0,P|119:44|166:57,1,100,8|0,0:0|0:0,0:0:0:0:
212,148,96192,2,0,P|260:168|308:156,1,100,8|0,0:0|0:0,0:0:0:0:
400,120,96834,2,0,P|452:208|404:288,1,200,2|2,0:0|0:0,0:0:0:0:
228,200,98117,6,0,P|192:232|173:288,1,100,8|0,0:0|0:0,0:0:0:0:
273,292,98759,1,0,0:0:0:0:
324,204,99080,2,0,P|292:132|220:104,1,150,8|2,0:0|0:0,0:0:0:0:
80,108,100043,2,0,L|82:58,1,50,2|0,0:0|0:0,0:0:0:0:
128,200,100684,6,0,L|228:200,1,100,8|0,0:0|0:0,0:0:0:0:
324,204,101326,1,0,0:0:0:0:
280,296,101647,2,0,P|372:292|416:244,2,150,8|2|0,0:0|0:0|0:0,0:0:0:0:
104,204,103251,6,0,L|68:160,2,50,8|0|0,0:0|0:0|0:0,0:0:0:0:
188,258,103893,1,2,0:0:0:0:
284,292,104214,2,0,P|340:272|376:188,1,150
256,104,105176,2,0,L|312:104,1,50,2|0,0:0|0:0,0:0:0:0:
455,87,105818,5,0,0:0:0:0:
388,160,106139,2,0,P|375:213|392:253,1,100,8|0,0:0|0:0,0:0:0:0:
486,287,106781,2,0,P|426:342|355:346,2,150,8|2|0,0:0|0:0|0:0,0:0:0:0:
288,256,108385,6,0,L|184:256,1,100,8|0,0:0|0:0,0:0:0:0:
148,164,109027,2,0,L|248:164,1,100,8|0,0:0|0:0,0:0:0:0:
348,184,109668,2,0,P|376:284|308:348,1,200,2|0,0:0|0:0,0:0:0:0:
116,328,110952,6,0,L|64:240,1,100,8|0,0:0|0:0,0:0:0:0:
24,152,111593,1,0,0:0:0:0:
76,64,111914,2,0,L|168:16,1,100,8|0,0:0|0:0,0:0:0:0:
260,48,112556,1,2,0:0:0:0:
340,112,112877,2,0,L|440:112,1,100,8|6,0:0|0:0,0:0:0:0:
52,184,114481,6,0,L|172:72,2,150,2|2|0,0:1|0:0|0:1,0:0:0:0:
112,264,115765,2,0,P|176:304|252:296,2,150,0|0|0,0:0|0:0|0:0,0:0:0:0:
136,168,117048,5,2,0:0:0:0:
216,108,117369,2,0,L|320:108,1,100,2|0,0:0|0:0,0:0:0:0:
416,112,118010,1,0,0:0:0:0:
488,180,118331,6,0,L|488:332,2,150,8|0|2,0:0|0:0|0:0,0:0:0:0:
400,228,119615,6,0,L|232:228,2,150,8|0|2,0:0|0:0|0:0,0:0:0:0:
360,136,120898,2,0,P|440:136|492:192,2,150,8|0|2,0:0|0:0|0:0,0:0:0:0:
316,228,122181,6,0,L|244:156,1,100,8|0,0:0|0:0,0:0:0:0:
156,112,122823,2,0,P|72:168|72:260,1,200,2|8,0:0|0:0,0:0:0:0:
256,192,123625,12,0,128599,0:0:0:0:
