osu file format v14

[General]
AudioFilename: Produce.mp3
AudioLeadIn: 0
PreviewTime: 51715
Countdown: 0
SampleSet: Normal
StackLeniency: 0.7
Mode: 0
LetterboxInBreaks: 1
WidescreenStoryboard: 1

[Editor]
DistanceSpacing: 1
BeatDivisor: 2
GridSize: 8
TimelineZoom: 1.6

[Metadata]
Title:Burenai ai de
TitleUnicode:ぶれないアイで
Artist:Mitchie M feat.Hatsune Miku
ArtistUnicode:Mitchie M feat.初音ミク
Creator:ChenYa0Ayase
Version:Normal
Source:ロート デジアイ
Tags:初音ミク hatsune miku vocaloid ロート デジアイ digieye Nerova Riuz GX
BeatmapID:569798
BeatmapSetID:247540

[Difficulty]
HPDrainRate:4
CircleSize:3
OverallDifficulty:3.4
ApproachRate:4.5
SliderMultiplier:1.00000000596046
SliderTickRate:2

[Events]
//Background and Video events
0,0,"Produce.png",0,0
//Break Periods
//Storyboard Layer 0 (Background)
//Storyboard Layer 1 (Fail)
//Storyboard Layer 2 (Pass)
//Storyboard Layer 3 (Foreground)
//Storyboard Sound Samples

[TimingPoints]
410,434.782608695652,4,1,0,100,1,0
9105,-100,4,2,0,60,0,0
23027,-100,4,3,0,80,0,0
36931,-100,4,1,0,100,0,0
51931,-100,4,1,0,100,0,1
53453,-66.6666666666667,4,1,0,100,0,1
55192,-100,4,1,0,100,0,1
58670,-100,4,1,0,100,0,1
63670,-100,4,1,0,100,0,1
65844,-100,4,3,0,80,0,1
66496,-66.6666666666667,4,1,0,100,0,1
68236,-100,4,3,0,80,0,1
69975,-66.6666666666667,4,1,0,100,0,1
71714,-100,4,1,0,100,0,1
80409,-100,4,2,0,60,0,1
83888,-66.6666666666667,4,1,0,100,0,0

[Colours]
Combo1 : 51,204,153
Combo2 : 0,51,102
Combo3 : 0,72,221
Combo4 : 153,204,204

[HitObjects]
69,219,9105,6,0,L|172:166,1,100.000000596046
248,130,9975,1,0,0:0:0:0:
338,171,10409,1,0,0:0:0:0:
429,130,10844,1,0,0:0:0:0:
338,171,11279,6,0,L|398:241,2,50.000000298023
248,130,12149,1,0,0:0:0:0:
338,171,12583,6,0,P|349:125|390:87,1,100.000000596046
293,50,13453,2,0,P|242:42|170:71,1,100.000000596046
195,154,14323,2,0,L|238:129,2,50.000000298023
94,154,15192,6,0,L|30:106,2,50.000000298023
94,254,16062,6,0,P|128:289|177:293,1,100.000000596046
177,193,16931,2,0,P|225:201|241:281,1,100.000000596046
250,342,17801,2,0,P|301:339|336:306,1,100.000000596046
255,246,18670,2,0,P|247:182|311:150,1,100.000000596046
323,75,19540,6,0,L|363:114,2,50.000000298023
223,70,20409,1,0,0:0:0:0:
159,142,20844,6,0,B|159:246|159:246|279:246,1,200.000001192092
325,175,22149,2,0,L|283:132,2,50.000000298023
401,110,23018,6,0,P|417:62|481:38,1,100.000000596046
490,133,23888,2,0,P|474:181|410:205,1,100.000000596046
334,189,24757,2,0,P|286:205|262:269,1,100.000000596046
327,322,25627,2,0,P|290:352|234:345,1,100.000000596046
142,327,26496,5,0,0:0:0:0:
89,241,26931,1,0,0:0:0:0:
65,143,27366,1,0,0:0:0:0:
68,43,27801,1,0,0:0:0:0:
168,43,28236,6,0,L|168:112,2,50.000000298023
261,78,29105,1,0,0:0:0:0:
353,116,29540,1,0,0:0:0:0:
385,210,29975,6,0,P|457:170|505:194,1,100.000000596046
462,271,30844,2,0,P|462:327|406:375,1,100.000000596046
356,300,31714,2,0,P|300:300|252:244,1,100.000000596046
280,175,32583,2,0,P|239:147|190:149,1,100.000000596046
119,220,33453,6,0,L|74:265,2,50.000000298023
190,149,34323,1,0,0:0:0:0:
256,192,34757,12,0,36062,0:0:0:0:
148,82,36931,5,0,0:0:0:0:
77,152,37366,1,0,0:0:0:0:
147,222,37801,1,0,0:0:0:0:
217,151,38236,1,0,0:0:0:0:
287,80,38670,1,0,0:0:0:0:
357,150,39105,1,0,0:0:0:0:
427,220,39540,1,0,0:0:0:0:
356,290,39975,1,0,0:0:0:0:
285,219,40409,6,0,L|232:166,2,50.000000298023
356,290,41279,1,0,0:0:0:0:
427,220,41714,6,0,L|344:138,1,100.000000596046
285,78,42583,2,0,L|333:22,2,50.000000298023
285,178,43453,1,0,0:0:0:0:
184,178,43888,6,0,L|80:178,2,100.000000596046
285,178,45192,1,0,0:0:0:0:
385,177,45627,2,0,L|385:57,2,100.000000596046
385,278,46931,5,0,0:0:0:0:
235,278,47583,2,0,L|178:309,2,50.000000298023
270,242,48236,2,0,L|314:219,2,50.000000298023
256,192,49105,12,0,51714,0:0:0:0:
288,80,52583,6,0,L|168:80,1,100.000000596046
79,277,53670,6,0,L|162:311,2,75.0000033080576
218,221,54540,2,0,L|301:187,2,75.0000033080576
218,271,55192,2,0,P|284:307|350:293,1,100.000000596046
400,269,56062,5,0,0:0:0:0:
454,185,56496,1,0,0:0:0:0:
318,120,57149,2,0,L|374:152,2,50.000000298023
252,195,58018,2,0,L|284:259,2,50.000000298023
252,144,58670,2,0,P|186:108|120:122,1,100.000000596046
66,136,59540,5,0,0:0:0:0:
133,209,59975,1,0,0:0:0:0:
282,209,60627,2,0,B|234:265|234:265,2,50.000000298023
340,290,61496,2,0,L|260:330,2,50.000000298023
440,290,62366,2,0,L|488:330,2,50.000000298023
440,239,63018,2,0,P|374:203|308:217,1,100.000000596046
280,273,63888,6,0,B|272:297|264:273|256:297|248:273|240:297|232:273|224:297|216:273|208:297|200:273|192:297,1,100.000000596046
108,351,64757,5,0,0:0:0:0:
68,259,65192,2,0,B|10:259|10:259,1,50.000000298023
68,172,65844,1,0,0:0:0:0:
68,172,66062,1,0,0:0:0:0:
68,172,66279,1,0,0:0:0:0:
128,216,66496,6,0,B|192:73|192:73|265:193|265:193|343:74|343:74|417:253,1,600.000026464461
333,293,68670,6,0,L|296:331,1,50.000000298023
197,328,69323,1,0,0:0:0:0:
197,328,69540,1,0,0:0:0:0:
197,328,69757,1,0,0:0:0:0:
144,274,69975,2,0,P|268:68|335:300,1,600.000026464461
242,293,72149,2,0,L|255:226,1,50.000000298023
272,146,72801,6,0,L|285:79,2,50.000000298023
307,181,73453,2,0,L|395:253,1,100.000000596046
245,186,74540,2,0,L|197:228,2,50.000000298023
197,97,75409,2,0,L|131:97,2,50.000000298023
297,97,76279,6,0,L|349:46,2,50.000000298023
332,132,76931,1,0,0:0:0:0:
402,202,77366,1,0,0:0:0:0:
256,192,77801,12,0,79540,0:0:0:0:
256,192,80409,5,0,0:0:0:0:
326,121,80844,1,0,0:0:0:0:
255,50,81279,1,0,0:0:0:0:
184,120,81714,1,0,0:0:0:0:
113,190,82149,1,0,0:0:0:0:
183,260,82583,1,0,0:0:0:0:
253,330,83018,1,0,0:0:0:0:
323,259,83453,1,0,0:0:0:0:
256,124,83888,5,4,0:0:0:0:
