osu file format v14

[General]
AudioFilename: Produce.mp3
AudioLeadIn: 0
PreviewTime: 51715
Countdown: 0
SampleSet: Normal
StackLeniency: 0.7
Mode: 0
LetterboxInBreaks: 1
WidescreenStoryboard: 1

[Editor]
DistanceSpacing: 1.5
BeatDivisor: 4
GridSize: 8
TimelineZoom: 2

[Metadata]
Title:Burenai ai de
TitleUnicode:ぶれないアイで
Artist:Mitchie M feat.Hatsune Miku
ArtistUnicode:Mitchie M feat.初音ミク
Creator:ChenYa0Ayase
Version:Hard
Source:ロート デジアイ
Tags:初音ミク hatsune miku vocaloid ロート デジアイ digieye Nerova Riuz GX
BeatmapID:642263
BeatmapSetID:247540

[Difficulty]
HPDrainRate:5
CircleSize:4.5
OverallDifficulty:6
ApproachRate:7
SliderMultiplier:1.40000000596046
SliderTickRate:2

[Events]
//Background and Video events
0,0,"Produce.png",0,0
//Break Periods
//Storyboard Layer 0 (Background)
//Storyboard Layer 1 (Fail)
//Storyboard Layer 2 (Pass)
//Storyboard Layer 3 (Foreground)
//Storyboard Sound Samples

[TimingPoints]
410,434.782608695652,4,1,0,100,1,0
9105,-133.333333333333,4,1,0,60,0,0
22801,-133.333333333333,4,2,0,80,0,0
36714,-100,4,1,0,80,0,0
43453,-100,4,3,0,80,0,0
47366,-133.333333333333,4,3,0,80,0,0
51931,-100,4,1,0,60,0,1
52583,-100,4,1,0,80,0,1
63888,-66.6666666666667,4,3,0,35,0,1
64323,-100,4,2,0,10,0,1
64757,-100,4,1,0,80,0,1
65844,-100,4,3,0,80,0,1
66496,-100,4,1,0,80,0,1
78670,-100,4,1,0,50,0,1
79105,-100,4,1,0,30,0,1
80409,-100,4,2,0,80,0,1
83888,-100,4,1,0,100,0,0

[Colours]
Combo1 : 130,223,192
Combo2 : 0,91,183
Combo3 : 91,145,255
Combo4 : 200,227,227

[HitObjects]
256,192,9106,6,0,P|288:176|312:144,1,52.5000022262334
256,96,9541,1,0,0:0:0:0:
406,50,10193,2,0,P|438:66|462:98,1,52.5000022262334
404,141,10627,1,0,0:0:0:0:
134,305,11497,6,0,P|114:322|78:322,2,52.5000022262334
78,249,12149,2,0,P|98:232|134:232,1,52.5000022262334
123,150,12583,2,0,B|94:117|94:117|139:55,1,105.000004452467
366,67,13670,2,0,B|374:102|374:102|409:120,1,52.5000022262334
444,165,14105,2,0,B|446:218|446:218|393:271,1,105.000004452467
338,289,14757,1,0,0:0:0:0:
213,191,15193,2,2,L|258:148,2,52.5000022262334
213,348,16063,5,0,0:0:0:0:
262,286,16280,1,0,0:0:0:0:
319,352,16497,2,0,P|350:310|352:259,1,105.000004452467
385,187,17149,5,0,0:0:0:0:
351,258,17367,1,0,0:0:0:0:
428,257,17583,2,0,P|459:215|461:164,1,105.000004452467
389,189,18236,37,0,0:0:0:0:
333,133,18454,1,0,0:0:0:0:
286,70,18670,2,0,L|224:96,1,52.5000022262334
192,159,19105,2,0,L|130:133,1,52.5000022262334
100,72,19540,6,0,L|38:98,2,52.5000022262334
37,300,20628,2,0,P|54:280|80:275,1,52.5000022262334
134,330,21062,2,0,P|186:330|215:267,1,105.000004452467
159,234,21714,2,0,P|159:182|222:153,1,105.000004452467
345,95,22584,1,0,0:0:0:0:
466,191,23019,6,0,L|416:246,1,52.5000022262334,2|0,0:0|0:0,0:0:0:0:
337,277,23454,2,0,L|313:349,1,52.5000022262334,2|0,0:0|0:0,0:0:0:0:
215,336,23889,6,0,L|175:272,1,52.5000022262334,2|0,0:0|0:0,0:0:0:0:
83,307,24323,2,0,L|113:253,1,52.5000022262334,2|0,0:0|0:0,0:0:0:0:
52,171,24758,6,0,L|124:181,1,52.5000022262334,2|0,0:0|0:0,0:0:0:0:
95,85,25193,2,0,L|152:55,1,52.5000022262334,2|0,0:0|0:0,0:0:0:0:
246,63,25628,6,0,L|227:134,1,52.5000022262334,2|0,0:0|0:0,0:0:0:0:
337,104,26063,2,0,L|341:166,1,52.5000022262334,2|0,0:0|0:0,0:0:0:0:
298,222,26497,1,2,0:0:0:0:
219,223,26715,6,0,L|194:258,2,26.2500011131167,0|0|2,0:0|0:0|0:0,0:0:0:0:
257,154,27149,1,0,0:0:0:0:
196,102,27367,2,0,L|158:64,1,52.5000022262334,2|0,0:0|0:0,0:0:0:0:
79,67,27802,1,2,0:0:0:0:
25,124,28019,1,0,0:0:0:0:
135,235,28454,6,0,L|164:261,2,26.2500011131167,0|0|2,0:0|0:0|0:0,0:0:0:0:
227,107,29106,1,8,0:0:0:0:
135,235,29541,1,8,0:0:0:0:
256,334,29975,5,0,0:0:0:0:
288,262,30192,2,0,L|359:262,1,52.5000022262334
458,57,31062,1,0,0:0:0:0:
426,128,31279,2,0,L|374:128,1,52.5000022262334
66,56,32366,5,0,0:0:0:0:
66,134,32583,2,0,P|98:150|122:182,1,52.5000022262334
165,217,33018,2,0,P|197:201|221:169,1,52.5000022262334
264,133,33453,2,0,P|296:149|320:181,2,52.5000022262334
256,192,34540,12,0,36279,0:0:0:0:
255,250,36715,5,0,0:0:0:0:
257,145,36932,2,2,B|205:129|205:129|176:144,1,70.000000298023
100,81,37367,1,0,0:0:0:0:
100,186,37584,1,0,0:0:0:0:
191,134,37802,2,2,B|177:188|177:188|187:211,1,70.000000298023
191,134,38236,5,0,0:0:0:0:
254,50,38454,1,0,0:0:0:0:
310,138,38671,2,2,P|290:188|262:203,1,70.000000298023
193,134,39106,1,0,0:0:0:0:
146,238,39323,2,2,B|221:238|221:238|273:198,1,140.000000596046
193,134,39976,1,0,0:0:0:0:
46,284,40410,6,0,P|74:319|111:326,2,70.000000298023
145,248,41063,2,2,B|176:214|176:214|228:246|218:320,1,140.000000596046
145,248,41715,1,0,0:0:0:0:
45,280,41932,2,2,B|11:249|11:249|43:197|117:207,1,140.000000596046
29,118,42584,2,0,B|61:101|19:72|79:44,1,70.000000298023
141,121,43019,2,2,B|154:89|154:89|219:91|219:91|241:52,1,140.000000596046
307,147,43671,5,0,0:0:0:0:
368,61,43889,2,0,P|410:72|422:121,2,70.000000298023
307,147,44541,2,2,B|323:164|323:164|367:165|367:165|340:230|340:230|392:241|392:241|408:260,1,210.000000894069
480,327,45410,1,0,0:0:0:0:
380,362,45628,2,0,B|330:362|330:362|314:337,1,70.000000298023
226,295,46063,1,0,0:0:0:0:
181,199,46280,2,2,B|151:177|151:177|128:158|135:116|99:101|99:101|24:174,1,210.000000894069
256,55,47584,6,0,B|291:64|291:64|304:94,2,52.5000022262334
215,122,48236,1,0,0:0:0:0:
261,185,48454,1,0,0:0:0:0:
261,185,48671,1,0,0:0:0:0:
256,192,48997,12,0,50845,0:0:0:0:
256,192,51932,5,0,0:0:0:0:
152,192,52149,1,0,0:0:0:0:
256,192,52367,1,0,0:0:0:0:
257,87,52584,2,0,P|337:103|377:159,1,140.000000596046,0|8,0:0|0:0,0:0:0:0:
78,267,53671,5,0,0:0:0:0:
152,192,53888,1,0,0:0:0:0:
226,117,54106,1,0,0:0:0:0:
226,326,54540,5,0,0:0:0:0:
300,251,54757,1,0,0:0:0:0:
374,176,54975,1,0,0:0:0:0:
203,53,55410,5,0,0:0:0:0:
110,103,55628,1,0,0:0:0:0:
205,145,55845,1,0,0:0:0:0:
111,193,56063,2,0,P|111:251|180:298,1,140.000000596046,0|8,0:0|0:0,0:0:0:0:
382,297,56932,1,0,0:0:0:0:
366,193,57149,6,0,L|450:226,2,70.000000298023
155,193,58019,2,0,L|91:225,2,70.000000298023
366,193,58889,5,0,0:0:0:0:
366,89,59106,1,0,0:0:0:0:
366,193,59324,1,0,0:0:0:0:
470,194,59541,2,0,P|462:263|412:310,1,140.000000596046,0|8,0:0|0:0,0:0:0:0:
97,309,60628,6,0,P|65:301|30:319,1,70.000000298023
169,309,61063,1,0,0:0:0:0:
176,96,61497,6,0,P|206:80|240:88,1,70.000000298023
105,99,61932,1,0,0:0:0:0:
315,99,62367,2,0,L|279:182,2,70.000000298023
420,99,63019,2,0,B|436:163|412:235|372:243,1,140.000000596046,0|8,0:0|0:0,0:0:0:0:
87,302,63888,2,0,P|190:333|311:312,1,210.000008904934
290,214,64541,6,0,L|261:176,1,35.0000001490115
231,148,64758,2,0,B|210:125|210:125|232:100|232:100|208:68,2,105.000000447034
87,302,65845,1,0,0:0:0:0:
192,302,66063,1,0,0:0:0:0:
87,302,66280,1,0,0:0:0:0:
87,197,66497,6,2,P|157:185|225:218,3,140.000000596046
316,173,68019,1,0,0:0:0:0:
413,134,68236,2,0,B|477:142|477:142|506:100,2,105.000000447034,2|2|2,0:0|0:0|0:0,0:0:0:0:
495,327,69323,5,0,0:0:0:0:
420,252,69541,1,0,0:0:0:0:
345,326,69758,1,0,0:0:0:0:
270,251,69976,2,2,P|238:195|158:195,2,140.000000596046
270,251,71063,5,0,0:0:0:0:
345,178,71280,2,2,P|353:146|321:106,1,70.000000298023,0|0,0:0|0:0,0:0:0:0:
256,45,71715,1,0,0:0:0:0:
170,177,72041,1,0,0:0:0:0:
170,177,72149,2,8,L|122:241,1,70.000000298023
37,42,72802,5,0,0:0:0:0:
127,94,73019,1,0,0:0:0:0:
219,43,73236,1,0,0:0:0:0:
310,95,73454,1,0,0:0:0:0:
210,280,73889,1,0,0:0:0:0:
440,65,74541,6,0,L|439:160,2,70.000000298023
257,168,75410,2,0,L|321:232,2,70.000000298023
445,73,76280,5,0,0:0:0:0:
459,176,76497,1,0,0:0:0:0:
391,257,76715,1,0,0:0:0:0:
291,224,76932,6,0,B|265:179|265:179|233:157|172:218,1,140.000000596046,2|2,0:0|0:0,0:0:0:0:
397,203,77802,2,0,B|461:186|461:186|410:114,1,140.000000596046
208,125,78671,2,0,L|208:277,1,140.000000596046
356,116,79541,2,0,B|408:51|408:51|343:24,1,140.000000596046
207,177,80410,5,4,0:0:0:0:
355,29,80845,6,0,P|344:87|353:126,1,70.000000298023
408,181,81280,2,0,P|439:156|437:106,1,70.000000298023
345,97,81715,2,0,P|299:111|276:156,1,70.000000298023
318,225,82149,6,0,L|318:313,1,70.000000298023
249,215,82584,2,0,B|216:266|216:266|232:302,1,70.000000298023
318,295,83019,2,0,P|274:328|245:319,1,70.000000298023
249,219,83454,2,0,B|208:236|208:236|174:277,1,70.000000298023
263,327,83889,5,0,0:0:0:0:
