osu file format v14

[General]
AudioFilename: Produce.mp3
AudioLeadIn: 0
PreviewTime: 51715
Countdown: 0
SampleSet: Normal
StackLeniency: 0.7
Mode: 0
LetterboxInBreaks: 1
WidescreenStoryboard: 1

[Editor]
DistanceSpacing: 1
BeatDivisor: 1
GridSize: 16
TimelineZoom: 1.2

[Metadata]
Title:Burenai ai de
TitleUnicode:ぶれないアイで
Artist:Mitchie M feat.Hatsune Miku
ArtistUnicode:Mitchie M feat.初音ミク
Creator:ChenYa0Ayase
Version:Easy
Source:ロート デジアイ
Tags:初音ミク hatsune miku vocaloid ロート デジアイ digieye Nerova Riuz GX
BeatmapID:646376
BeatmapSetID:247540

[Difficulty]
HPDrainRate:2
CircleSize:3
OverallDifficulty:2.5
ApproachRate:2.5
SliderMultiplier:1.00000000596046
SliderTickRate:1

[Events]
//Background and Video events
0,0,"Produce.png",0,0
//Break Periods
//Storyboard Layer 0 (Background)
//Storyboard Layer 1 (Fail)
//Storyboard Layer 2 (Pass)
//Storyboard Layer 3 (Foreground)
//Storyboard Sound Samples

[TimingPoints]
410,434.782608695652,4,1,0,100,1,0
9105,-100,4,2,0,60,0,0
22583,-100,4,3,0,100,0,0
36496,-100,4,2,0,80,0,0
52149,-100,4,1,0,100,0,1
83888,-100,4,1,0,100,0,0

[Colours]
Combo1 : 51,204,153
Combo2 : 0,51,102
Combo3 : 0,72,221
Combo4 : 153,204,204

[HitObjects]
112,256,9105,6,0,B|176:176|176:176|200:224|200:224|223:271|223:271|249:224|249:224|272:176|272:176|357:176|357:176,1,400.000002384184
465,343,11714,1,0,0:0:0:0:
356,176,12583,6,0,B|271:176|271:176|248:224|248:224|222:271|222:271|199:224|199:224|175:176|175:176|111:256,1,400.000002384184
55,63,15192,1,0,0:0:0:0:
56,263,16062,6,0,P|149:235|201:152,2,200.000001192092
255,263,18670,1,0,0:0:0:0:
449,310,19540,6,0,P|421:264|449:213,2,100.000000596046
470,111,21279,1,0,0:0:0:0:
282,41,22149,1,0,0:0:0:0:
470,111,23018,5,0,0:0:0:0:
387,167,23453,1,0,0:0:0:0:
307,227,23888,2,0,P|344:263|405:268,1,100.000000596046
476,219,24757,1,0,0:0:0:0:
387,167,25192,1,0,0:0:0:0:
307,105,25627,1,0,0:0:0:0:
231,170,26062,1,0,0:0:0:0:
164,244,26496,6,0,B|209:256|209:256|228:305,1,100.000000596046
131,332,27366,2,0,B|85:319|85:319|66:270,1,100.000000596046
68,170,28236,2,0,L|68:58,2,100.000000596046
168,170,29540,1,0,0:0:0:0:
268,170,29975,6,0,B|321:149|321:149|352:182|352:182|384:150|384:150|440:176,2,200.000001192092
126,311,32583,1,0,0:0:0:0:
196,240,33018,1,0,0:0:0:0:
268,170,33453,6,0,B|321:191|321:191|352:158|352:158|384:190|384:190|431:167,2,200.000001192092
268,170,36496,5,0,0:0:0:0:
338,99,36931,1,0,0:0:0:0:
408,169,37366,1,0,0:0:0:0:
337,239,37801,1,4,0:0:0:0:
266,309,38236,1,0,0:0:0:0:
195,238,38670,6,0,P|179:288|134:318,1,100.000000596046
110,220,39540,2,0,P|76:188|19:191,1,100.000000596046,0|4,0:0|0:0,0:0:0:0:
53,283,40409,2,0,P|40:337|80:399,1,100.000000596046
151,348,41279,5,0,0:0:0:0:
221,277,41714,1,0,0:0:0:0:
291,347,42149,2,0,P|324:362|387:346,1,100.000000596046,0|4,0:0|0:0,0:0:0:0:
384,247,43018,2,0,P|417:232|480:248,1,100.000000596046,0|4,0:0|0:0,0:0:0:0:
477,145,43888,5,0,0:0:0:0:
406,74,44323,1,0,0:0:0:0:
305,74,44757,1,0,0:0:0:0:
234,144,45192,1,4,0:0:0:0:
163,73,45627,2,0,P|111:83|72:127,1,100.000000596046
148,185,46496,2,0,B|182:224|182:224|182:272,1,100.000000596046,0|4,0:0|0:0,0:0:0:0:
282,272,47366,1,0,0:0:0:0:
256,192,48236,12,0,50409,0:0:0:0:
112,80,52583,5,0,0:0:0:0:
199,128,53018,1,0,0:0:0:0:
114,181,53453,2,0,P|271:196|285:173,2,200.000001192092
260,317,56062,5,0,0:0:0:0:
204,234,56496,1,0,0:0:0:0:
304,233,56931,2,0,P|461:218|475:241,2,200.000001192092
209,56,59540,5,0,0:0:0:0:
137,125,59975,1,0,0:0:0:0:
70,199,60409,2,0,P|227:214|241:191,2,200.000001192092
245,103,63018,5,0,0:0:0:0:
245,103,63453,1,0,0:0:0:0:
144,100,63888,2,0,B|80:100|80:100|80:180,1,100.000000596046
145,211,64757,2,0,P|145:301|49:253,1,200.000001192092
259,282,66496,6,0,P|403:218|348:109,1,300.000001788138
302,197,68236,2,0,L|201:168,2,100.000000596046
259,282,69540,1,0,0:0:0:0:
158,282,69975,6,0,B|106:129|106:129|275:53,1,300.000001788138
302,142,71714,2,0,L|196:188,2,100.000000596046
111,80,73453,5,0,0:0:0:0:
140,175,73888,1,0,0:0:0:0:
164,271,74323,2,0,B|36:287|36:159,2,200.000001192092
362,240,76931,5,0,0:0:0:0:
281,181,77366,1,0,0:0:0:0:
363,124,77801,2,0,P|282:71|194:108,1,200.000001192092
256,192,80409,12,0,83888,0:0:0:0:
