osu file format v14

[General]
AudioFilename: popu.mp3
AudioLeadIn: 0
PreviewTime: 5429
Countdown: 0
SampleSet: Soft
StackLeniency: 0.7
Mode: 3
LetterboxInBreaks: 0
SpecialStyle: 0
WidescreenStoryboard: 0

[Editor]
Bookmarks: 17286,30220,41717,53214,58962,81956,87705,93453,99202,110699,116447,150938,162435,168184,194052
DistanceSpacing: 1.5
BeatDivisor: 1
GridSize: 4
TimelineZoom: 2.1

[Metadata]
Title:Suki! Yuki! Maji Magic
TitleUnicode:好き!雪!本気マジック
Artist:Mitchie M feat. Hatsune Miku
ArtistUnicode:Mitchie M feat.初音ミク
Creator:Sinnoh
Version:HD
Source:
Tags:christmas snow english vocaloid suki yuki
BeatmapID:1443657
BeatmapSetID:682665

[Difficulty]
HPDrainRate:8
CircleSize:4
OverallDifficulty:8
ApproachRate:5
SliderMultiplier:1.4
SliderTickRate:1

[Events]
//Background and Video events
0,0,"waifu.jpg",0,0
//Break Periods
//Storyboard Layer 0 (Background)
//Storyboard Layer 1 (Fail)
//Storyboard Layer 2 (Pass)
//Storyboard Layer 3 (Foreground)
//Storyboard Sound Samples
Sample,13946,0,"soft-hitwhistle.wav",80
Sample,14306,0,"soft-hitclap.wav",80
Sample,25443,0,"soft-hitwhistle.wav",70
Sample,67120,0,"soft-hitwhistle.wav",80
Sample,67479,0,"soft-hitclap.wav",80
Sample,124605,0,"soft-hitwhistle.wav",80
Sample,124964,0,"soft-hitclap.wav",80

[TimingPoints]
2929,359.281437125748,4,2,1,60,1,0
5803,-100,4,2,1,80,0,1
17300,-100,4,2,1,70,0,0
27360,-100,4,2,1,60,0,0
41731,-100,4,2,1,70,0,0
57899,-100,4,2,1,80,0,0
58976,-100,4,2,1,80,0,1
69755,-100,4,2,1,80,0,0
70473,-100,4,2,1,80,0,1
79096,-100,4,2,1,80,0,0
81491,-100,4,2,1,50,0,0
81611,-117.647058823529,4,2,1,50,0,0
86282,-100,4,2,1,70,0,0
93467,-100,4,2,1,70,0,0
115384,-100,4,2,1,80,0,0
116461,-100,4,2,1,70,0,0
119336,-100,4,2,1,80,0,1
127240,-100,4,2,1,80,0,0
127958,-100,4,2,1,80,0,1
129635,-100,4,2,1,70,0,1
129994,-100,4,2,1,60,0,1
130354,-100,4,2,1,50,0,1
130833,-100,4,2,1,70,0,0
131192,-100,4,2,1,80,0,1
136581,-100,4,2,1,80,0,0
139455,-100,4,2,1,70,0,0
160174,-100,4,2,1,75,0,0
160893,-100,4,2,1,80,0,0
162090,-100,4,2,1,70,0,0
167120,-100,4,2,1,80,0,0
167839,-100,4,2,1,70,0,0
176821,-100,4,2,1,80,0,1
178976,-100,4,2,1,80,0,0
179695,-100,4,2,1,60,0,0
180773,-100,4,2,1,80,0,1
183647,-100,4,2,1,50,0,0
185084,-100,4,2,1,80,0,1
188318,-100,4,2,1,80,0,0
191911,-100,4,2,1,70,0,0
192629,-100,4,2,1,60,0,0
193348,-100,4,2,1,50,0,0
194066,-100,4,2,1,70,0,0
194785,-100,4,2,1,60,0,0
196581,-100,4,2,1,70,0,0

[HitObjects]
320,192,2569,128,0,2629:0:0:0:0:
192,192,2689,128,0,2749:0:0:0:0:
320,192,2809,128,0,2869:0:0:0:0:
64,192,2929,128,2,3288:0:0:0:0:
448,192,2929,1,0,0:0:0:0:
320,192,3288,1,8,0:0:0:0:
192,192,3288,1,0,0:0:0:0:
448,192,3527,128,0,4006:0:0:0:0:
320,192,3527,1,2,0:0:0:0:
192,192,3887,1,0,0:0:0:0:
320,192,4006,128,0,4066:0:0:0:0:
64,192,4006,1,0,0:0:0:0:
192,192,4126,128,0,4186:0:0:0:0:
448,192,4126,1,0,0:0:0:0:
320,192,4246,128,0,4306:0:0:0:0:
64,192,4246,1,0,0:0:0:0:
192,192,4366,128,0,4725:0:0:0:0:
448,192,4366,1,2,0:0:0:0:
64,192,4725,1,0,0:0:0:0:
320,192,4725,1,8,0:0:0:0:
448,192,4964,128,0,5443:0:0:0:0:
192,192,4964,1,2,0:0:0:0:
192,192,5443,1,0,0:0:0:0:
192,192,5803,1,2,0:0:0:0:
320,192,5803,1,0,0:0:0:0:
64,192,5803,1,4,0:0:0:0:
448,192,6042,1,0,0:0:0:0:
320,192,6162,1,8,0:0:0:0:
64,192,6162,1,0,0:0:0:0:
192,192,6402,1,0,0:0:0:0:
320,192,6521,1,0,0:0:0:0:
448,192,6521,1,2,0:0:0:0:
64,192,6761,1,0,0:0:0:0:
448,192,6761,1,2,0:0:0:0:
192,192,6881,1,8,0:0:0:0:
320,192,6881,1,0,0:0:0:0:
192,192,7120,1,0,0:0:0:0:
320,192,7240,1,2,0:0:0:0:
448,192,7240,1,0,0:0:0:0:
64,192,7240,1,0,0:0:0:0:
448,192,7479,1,0,0:0:0:0:
192,192,7599,1,8,0:0:0:0:
64,192,7599,1,0,0:0:0:0:
320,192,7839,1,0,0:0:0:0:
448,192,7958,1,2,0:0:0:0:
192,192,7958,1,0,0:0:0:0:
64,192,8198,1,2,0:0:0:0:
320,192,8198,1,0,0:0:0:0:
192,192,8318,1,0,0:0:0:0:
448,192,8318,1,8,0:0:0:0:
64,192,8557,1,0,0:0:0:0:
448,192,8677,1,0,0:0:0:0:
320,192,8677,1,2,0:0:0:0:
192,192,8767,1,0,0:0:0:0:
64,192,8857,1,0,0:0:0:0:
320,192,8946,1,0,0:0:0:0:
448,192,9036,1,0,0:0:0:0:
64,192,9036,1,8,0:0:0:0:
192,192,9276,1,0,0:0:0:0:
64,192,9396,1,0,0:0:0:0:
320,192,9396,1,2,0:0:0:0:
320,192,9635,1,0,0:0:0:0:
192,192,9635,1,2,0:0:0:0:
64,192,9755,1,8,0:0:0:0:
448,192,9755,1,0,0:0:0:0:
192,192,9994,1,0,0:0:0:0:
320,192,9994,128,2,10354:0:0:0:0:
64,192,10114,1,0,0:0:0:0:
64,192,10354,1,2,0:0:0:0:
192,192,10473,1,0,0:0:0:0:
448,192,10473,128,8,10833:0:0:0:0:
192,192,10713,1,0,0:0:0:0:
320,192,10833,1,0,0:0:0:0:
64,192,10833,1,0,0:0:0:0:
192,192,10952,1,0,0:0:0:0:
448,192,11072,1,0,0:0:0:0:
320,192,11072,1,2,0:0:0:0:
64,192,11192,1,8,0:0:0:0:
192,192,11192,1,0,0:0:0:0:
320,192,11312,1,0,0:0:0:0:
192,192,11431,1,0,0:0:0:0:
64,192,11551,1,0,0:0:0:0:
320,192,11551,1,4,0:0:0:0:
448,192,11551,1,2,0:0:0:0:
320,192,11791,1,0,0:0:0:0:
192,192,11911,1,8,0:0:0:0:
448,192,11911,1,0,0:0:0:0:
448,192,12150,1,0,0:0:0:0:
192,192,12270,1,0,0:0:0:0:
64,192,12270,1,2,0:0:0:0:
192,192,12509,1,0,0:0:0:0:
320,192,12509,1,2,0:0:0:0:
448,192,12629,1,8,0:0:0:0:
64,192,12629,1,0,0:0:0:0:
320,192,12869,1,0,0:0:0:0:
64,192,12988,1,2,0:0:0:0:
192,192,12988,1,0,0:0:0:0:
448,192,12988,1,0,0:0:0:0:
448,192,13228,1,0,0:0:0:0:
320,192,13348,1,8,0:0:0:0:
64,192,13348,1,0,0:0:0:0:
192,192,13587,1,0,0:0:0:0:
320,192,13707,1,2,0:0:0:0:
448,192,13707,1,0,0:0:0:0:
64,192,13797,1,0,0:0:0:0:
192,192,13887,1,0,0:0:0:0:
320,192,13976,1,0,0:0:0:0:
64,192,14066,1,0,0:0:0:0:
448,192,14066,1,8,0:0:0:0:
320,192,14156,1,0,0:0:0:0:
192,192,14246,1,0,0:0:0:0:
64,192,14336,1,0,0:0:0:0:
448,192,14336,1,0,0:0:0:0:
320,192,14426,1,0,0:0:0:0:
192,192,14426,1,2,0:0:0:0:
320,192,14665,1,0,0:0:0:0:
64,192,14785,1,8,0:0:0:0:
192,192,14785,1,0,0:0:0:0:
448,192,15024,1,0,0:0:0:0:
320,192,15144,1,2,0:0:0:0:
192,192,15144,1,0,0:0:0:0:
64,192,15144,1,0,0:0:0:0:
448,192,15264,1,0,0:0:0:0:
192,192,15384,1,2,0:0:0:0:
64,192,15384,1,0,0:0:0:0:
320,192,15503,1,0,0:0:0:0:
448,192,15503,1,8,0:0:0:0:
192,192,15743,1,0,0:0:0:0:
320,192,15863,1,0,0:0:0:0:
448,192,15863,1,2,0:0:0:0:
64,192,15863,1,0,0:0:0:0:
64,192,16102,1,0,0:0:0:0:
192,192,16222,1,8,0:0:0:0:
448,192,16222,1,0,0:0:0:0:
320,192,16461,1,0,0:0:0:0:
192,192,16581,1,8,0:0:0:0:
64,192,16581,1,0,0:0:0:0:
320,192,16701,1,8,0:0:0:0:
448,192,16701,1,0,0:0:0:0:
192,192,16821,1,8,0:0:0:0:
64,192,16821,1,0,0:0:0:0:
320,192,16940,1,8,0:0:0:0:
448,192,16940,1,0,0:0:0:0:
192,192,17060,1,8,0:0:0:0:
64,192,17060,1,0,0:0:0:0:
320,192,17180,1,8,0:0:0:0:
448,192,17180,1,0,0:0:0:0:
192,192,17300,1,4,0:0:0:0:
64,192,17300,1,2,0:0:0:0:
448,192,17300,1,0,0:0:0:0:
192,192,17539,1,0,0:0:0:0:
448,192,17659,1,8,0:0:0:0:
64,192,17659,1,0,0:0:0:0:
320,192,17899,1,0,0:0:0:0:
192,192,18018,1,2,0:0:0:0:
64,192,18018,1,0,0:0:0:0:
192,192,18258,1,0,0:0:0:0:
320,192,18258,1,2,0:0:0:0:
448,192,18378,1,0,0:0:0:0:
64,192,18378,1,8,0:0:0:0:
320,192,18617,1,0,0:0:0:0:
448,192,18737,1,0,0:0:0:0:
192,192,18737,1,2,0:0:0:0:
64,192,18737,1,0,0:0:0:0:
64,192,18976,1,0,0:0:0:0:
320,192,19096,1,8,0:0:0:0:
448,192,19096,1,0,0:0:0:0:
192,192,19336,1,0,0:0:0:0:
64,192,19455,1,2,0:0:0:0:
448,192,19455,1,0,0:0:0:0:
320,192,19695,128,0,19934:0:0:0:0:
448,192,19695,1,2,0:0:0:0:
192,192,19815,1,0,0:0:0:0:
64,192,19815,1,8,0:0:0:0:
448,192,20054,1,0,0:0:0:0:
320,192,20174,1,2,0:0:0:0:
64,192,20174,1,0,0:0:0:0:
192,192,20174,1,0,0:0:0:0:
192,192,20414,1,0,0:0:0:0:
320,192,20533,1,0,0:0:0:0:
448,192,20533,1,8,0:0:0:0:
64,192,20773,1,0,0:0:0:0:
448,192,20893,1,0,0:0:0:0:
192,192,20893,1,2,0:0:0:0:
320,192,21132,1,2,0:0:0:0:
448,192,21132,1,0,0:0:0:0:
192,192,21252,1,0,0:0:0:0:
64,192,21252,1,8,0:0:0:0:
192,192,21491,128,0,21851:0:0:0:0:
448,192,21491,1,2,0:0:0:0:
320,192,21611,1,2,0:0:0:0:
64,192,21851,1,2,0:0:0:0:
448,192,21970,128,8,22330:0:0:0:0:
320,192,21970,1,0,0:0:0:0:
192,192,22210,1,0,0:0:0:0:
320,192,22330,128,0,22569:0:0:0:0:
64,192,22449,1,0,0:0:0:0:
448,192,22569,1,2,0:0:0:0:
320,192,22689,1,8,0:0:0:0:
192,192,22689,1,4,0:0:0:0:
448,192,22809,1,0,0:0:0:0:
64,192,22809,1,8,0:0:0:0:
320,192,22928,1,0,0:0:0:0:
192,192,22928,1,8,0:0:0:0:
448,192,23048,1,4,0:0:0:0:
64,192,23048,1,0,0:0:0:0:
192,192,23048,1,2,0:0:0:0:
320,192,23288,1,0,0:0:0:0:
192,192,23408,1,8,0:0:0:0:
64,192,23408,1,0,0:0:0:0:
192,192,23647,1,0,0:0:0:0:
448,192,23767,1,2,0:0:0:0:
64,192,23767,1,0,0:0:0:0:
448,192,24006,128,0,24246:0:0:0:0:
192,192,24006,1,2,0:0:0:0:
320,192,24126,1,8,0:0:0:0:
64,192,24126,1,0,0:0:0:0:
192,192,24366,1,0,0:0:0:0:
320,192,24485,1,0,0:0:0:0:
448,192,24485,1,2,0:0:0:0:
64,192,24485,1,0,0:0:0:0:
320,192,24725,1,0,0:0:0:0:
192,192,24845,1,8,0:0:0:0:
448,192,24845,1,0,0:0:0:0:
64,192,25084,1,0,0:0:0:0:
448,192,25084,1,0,0:0:0:0:
320,192,25204,1,2,0:0:0:0:
64,192,25294,1,0,0:0:0:0:
192,192,25384,1,0,0:0:0:0:
448,192,25473,1,0,0:0:0:0:
320,192,25563,1,8,0:0:0:0:
64,192,25653,1,0,0:0:0:0:
192,192,25743,1,0,0:0:0:0:
448,192,25833,1,0,0:0:0:0:
320,192,25923,1,2,0:0:0:0:
192,192,25923,1,0,0:0:0:0:
64,192,25923,1,0,0:0:0:0:
448,192,26042,1,0,0:0:0:0:
64,192,26162,1,0,0:0:0:0:
320,192,26282,128,8,26521:0:0:0:0:
192,192,26282,1,0,0:0:0:0:
64,192,26521,1,0,0:0:0:0:
192,192,26641,1,0,0:0:0:0:
448,192,26641,1,2,0:0:0:0:
320,192,26761,1,0,0:0:0:0:
64,192,26881,1,2,0:0:0:0:
192,192,26881,1,0,0:0:0:0:
320,192,27000,128,0,27240:0:0:0:0:
448,192,27000,1,8,0:0:0:0:
192,192,27240,1,0,0:0:0:0:
64,192,27360,1,2,0:0:0:0:
448,192,27360,1,0,0:0:0:0:
448,192,27719,1,2,0:0:0:0:
64,192,27719,1,0,0:0:0:0:
64,192,28078,1,2,0:0:0:0:
448,192,28078,1,0,0:0:0:0:
448,192,28437,1,2,0:0:0:0:
64,192,28437,1,0,0:0:0:0:
192,192,28797,1,2,0:0:0:0:
320,192,28797,1,0,0:0:0:0:
320,192,29156,1,2,0:0:0:0:
192,192,29156,1,0,0:0:0:0:
320,192,29515,1,0,0:0:0:0:
192,192,29515,1,2,0:0:0:0:
64,192,29875,1,0,0:0:0:0:
448,192,29875,1,8,0:0:0:0:
192,192,29994,1,8,0:0:0:0:
64,192,30114,1,8,0:0:0:0:
192,192,30234,1,0,0:0:0:0:
320,192,30234,1,2,0:0:0:0:
448,192,30234,1,4,0:0:0:0:
448,192,30593,1,0,0:0:0:0:
64,192,30593,1,8,0:0:0:0:
192,192,30833,1,0,0:0:0:0:
320,192,30952,1,0,0:0:0:0:
448,192,30952,1,2,0:0:0:0:
448,192,31192,1,2,0:0:0:0:
320,192,31312,1,0,0:0:0:0:
64,192,31312,1,8,0:0:0:0:
192,192,31551,1,2,0:0:0:0:
320,192,31551,1,0,0:0:0:0:
64,192,31671,1,0,0:0:0:0:
448,192,31911,128,2,32150:0:0:0:0:
320,192,31911,1,0,0:0:0:0:
192,192,32030,1,0,0:0:0:0:
64,192,32030,1,8,0:0:0:0:
320,192,32270,1,2,0:0:0:0:
448,192,32390,128,0,32749:0:0:0:0:
64,192,32390,1,2,0:0:0:0:
192,192,32629,1,0,0:0:0:0:
320,192,32749,1,8,0:0:0:0:
64,192,32749,1,0,0:0:0:0:
448,192,32988,1,0,0:0:0:0:
192,192,33108,1,2,0:0:0:0:
64,192,33108,1,0,0:0:0:0:
320,192,33348,1,0,0:0:0:0:
448,192,33467,1,8,0:0:0:0:
192,192,33467,1,0,0:0:0:0:
64,192,33707,1,0,0:0:0:0:
320,192,33827,1,0,0:0:0:0:
448,192,33827,1,2,0:0:0:0:
192,192,34066,1,0,0:0:0:0:
64,192,34186,1,8,0:0:0:0:
448,192,34186,1,0,0:0:0:0:
320,192,34426,1,2,0:0:0:0:
448,192,34426,1,0,0:0:0:0:
64,192,34545,128,0,34785:0:0:0:0:
192,192,34545,128,0,34785:0:0:0:0:
192,192,34905,128,0,35144:0:0:0:0:
320,192,34905,128,8,35144:0:0:0:0:
448,192,35264,128,0,35503:0:0:0:0:
320,192,35264,128,0,35503:0:0:0:0:
64,192,35503,1,0,0:0:0:0:
192,192,35503,1,8,0:0:0:0:
320,192,35623,1,8,0:0:0:0:
448,192,35623,1,0,0:0:0:0:
192,192,35743,1,8,0:0:0:0:
64,192,35863,1,8,0:0:0:0:
448,192,35982,1,2,0:0:0:0:
192,192,35982,1,0,0:0:0:0:
320,192,35982,1,4,0:0:0:0:
64,192,36342,1,8,0:0:0:0:
192,192,36342,1,0,0:0:0:0:
448,192,36581,1,0,0:0:0:0:
320,192,36701,1,2,0:0:0:0:
64,192,36701,1,0,0:0:0:0:
192,192,36940,1,0,0:0:0:0:
320,192,37060,1,8,0:0:0:0:
448,192,37060,1,0,0:0:0:0:
64,192,37300,1,0,0:0:0:0:
192,192,37300,1,2,0:0:0:0:
320,192,37420,1,0,0:0:0:0:
64,192,37659,128,0,37899:0:0:0:0:
448,192,37659,1,2,0:0:0:0:
320,192,37779,1,0,0:0:0:0:
192,192,37779,1,8,0:0:0:0:
448,192,38018,1,0,0:0:0:0:
64,192,38138,128,0,38497:0:0:0:0:
192,192,38138,1,2,0:0:0:0:
320,192,38378,1,0,0:0:0:0:
192,192,38497,1,0,0:0:0:0:
448,192,38497,1,8,0:0:0:0:
448,192,38737,1,0,0:0:0:0:
192,192,38857,1,0,0:0:0:0:
64,192,38857,1,2,0:0:0:0:
192,192,39096,1,0,0:0:0:0:
448,192,39216,1,8,0:0:0:0:
320,192,39216,1,0,0:0:0:0:
64,192,39455,1,0,0:0:0:0:
448,192,39575,1,0,0:0:0:0:
192,192,39575,1,2,0:0:0:0:
320,192,39815,1,0,0:0:0:0:
64,192,39934,1,0,0:0:0:0:
192,192,39934,1,8,0:0:0:0:
448,192,40174,1,2,0:0:0:0:
64,192,40174,1,0,0:0:0:0:
320,192,40294,128,2,40533:0:0:0:0:
192,192,40294,128,0,40533:0:0:0:0:
448,192,40653,128,8,40893:0:0:0:0:
64,192,40653,128,0,40893:0:0:0:0:
320,192,41012,128,0,41252:0:0:0:0:
192,192,41012,128,0,41252:0:0:0:0:
448,192,41252,1,0,0:0:0:0:
64,192,41252,1,8,0:0:0:0:
192,192,41372,1,8,0:0:0:0:
320,192,41372,1,0,0:0:0:0:
448,192,41491,1,8,0:0:0:0:
320,192,41611,1,8,0:0:0:0:
192,192,41731,1,4,0:0:0:0:
448,192,41731,1,0,0:0:0:0:
64,192,41731,1,2,0:0:0:0:
64,192,41970,1,0,0:0:0:0:
192,192,42090,1,0,0:0:0:0:
448,192,42090,1,8,0:0:0:0:
448,192,42330,1,2,0:0:0:0:
320,192,42330,1,0,0:0:0:0:
64,192,42449,1,2,0:0:0:0:
192,192,42509,1,0,0:0:0:0:
448,192,42569,1,0,0:0:0:0:
320,192,42629,1,0,0:0:0:0:
64,192,42689,1,0,0:0:0:0:
192,192,42749,1,0,0:0:0:0:
448,192,42809,1,8,0:0:0:0:
320,192,42809,1,0,0:0:0:0:
192,192,43048,1,2,0:0:0:0:
64,192,43048,1,0,0:0:0:0:
448,192,43408,1,0,0:0:0:0:
192,192,43408,1,2,0:0:0:0:
320,192,43527,1,8,0:0:0:0:
64,192,43527,1,0,0:0:0:0:
64,192,43767,1,0,0:0:0:0:
192,192,43887,1,0,0:0:0:0:
320,192,43887,1,2,0:0:0:0:
448,192,44126,1,2,0:0:0:0:
192,192,44246,1,8,0:0:0:0:
64,192,44246,1,0,0:0:0:0:
448,192,44485,1,0,0:0:0:0:
320,192,44605,1,4,0:0:0:0:
192,192,44605,1,0,0:0:0:0:
64,192,44605,1,2,0:0:0:0:
192,192,44845,1,0,0:0:0:0:
64,192,44964,1,0,0:0:0:0:
448,192,44964,1,8,0:0:0:0:
192,192,45204,1,0,0:0:0:0:
320,192,45204,1,2,0:0:0:0:
448,192,45324,1,0,0:0:0:0:
320,192,45384,1,0,0:0:0:0:
64,192,45443,1,0,0:0:0:0:
192,192,45503,1,0,0:0:0:0:
448,192,45563,1,0,0:0:0:0:
320,192,45623,1,0,0:0:0:0:
64,192,45683,1,8,0:0:0:0:
192,192,45683,1,0,0:0:0:0:
448,192,45923,1,2,0:0:0:0:
64,192,45923,1,0,0:0:0:0:
448,192,46282,1,2,0:0:0:0:
64,192,46282,1,0,0:0:0:0:
320,192,46402,1,0,0:0:0:0:
192,192,46402,1,8,0:0:0:0:
320,192,46641,1,0,0:0:0:0:
448,192,46761,1,0,0:0:0:0:
64,192,46761,1,2,0:0:0:0:
320,192,47000,1,8,0:0:0:0:
64,192,47000,1,0,0:0:0:0:
192,192,47120,1,8,0:3:0:0:
320,192,47240,1,8,0:3:0:0:
192,192,47360,1,8,0:3:0:0:
320,192,47479,1,4,0:0:0:0:
448,192,47479,1,2,0:0:0:0:
64,192,47479,1,0,0:0:0:0:
448,192,47719,1,0,0:0:0:0:
192,192,47839,1,0,0:0:0:0:
64,192,47839,1,8,0:0:0:0:
320,192,48078,1,2,0:0:0:0:
192,192,48198,1,2,0:0:0:0:
64,192,48198,1,0,0:0:0:0:
448,192,48198,1,0,0:0:0:0:
192,192,48437,1,0,0:0:0:0:
320,192,48557,1,0,0:0:0:0:
448,192,48557,1,8,0:0:0:0:
448,192,48797,1,0,0:0:0:0:
320,192,48917,1,0,0:0:0:0:
192,192,48917,1,0,0:0:0:0:
64,192,48917,1,2,0:0:0:0:
64,192,49156,1,0,0:0:0:0:
320,192,49276,1,8,0:0:0:0:
448,192,49276,1,0,0:0:0:0:
192,192,49396,1,0,0:0:0:0:
64,192,49515,1,0,0:0:0:0:
448,192,49635,1,2,0:0:0:0:
192,192,49635,1,0,0:0:0:0:
320,192,49635,1,0,0:0:0:0:
320,192,49875,1,2,0:0:0:0:
192,192,49875,1,0,0:0:0:0:
448,192,49994,1,0,0:0:0:0:
64,192,49994,1,8,0:0:0:0:
320,192,50114,1,8,0:0:0:0:
192,192,50234,1,8,0:0:0:0:
64,192,50354,128,0,50833:0:0:0:0:
448,192,50354,128,2,50833:0:0:0:0:
320,192,50354,1,0,0:0:0:0:
320,192,50952,1,0,0:0:0:0:
192,192,50952,128,2,51192:0:0:0:0:
448,192,51072,1,0,0:0:0:0:
320,192,51312,1,0,0:0:0:0:
192,192,51372,1,0,0:0:0:0:
448,192,51431,1,8,0:0:0:0:
64,192,51431,128,0,51671:0:0:0:0:
320,192,51671,1,0,0:0:0:0:
192,192,51791,1,2,0:0:0:0:
448,192,51791,1,0,0:0:0:0:
448,192,52030,1,0,0:0:0:0:
192,192,52150,1,0,0:0:0:0:
320,192,52390,1,2,0:0:0:0:
64,192,52390,1,0,0:0:0:0:
192,192,52509,128,0,52869:0:0:0:0:
448,192,52869,128,0,53228:0:0:0:0:
320,192,53228,1,2,0:0:0:0:
64,192,53228,1,0,0:0:0:0:
192,192,53228,1,0,0:0:0:0:
64,192,53467,1,0,0:0:0:0:
192,192,53587,1,0,0:0:0:0:
320,192,53587,1,8,0:0:0:0:
320,192,53827,1,0,0:0:0:0:
448,192,53946,1,0,0:0:0:0:
64,192,53946,1,2,0:0:0:0:
448,192,54186,1,0,0:0:0:0:
192,192,54306,1,8,0:0:0:0:
320,192,54306,1,0,0:0:0:0:
192,192,54545,1,0,0:0:0:0:
320,192,54665,1,2,0:0:0:0:
64,192,54665,1,0,0:0:0:0:
448,192,54905,1,0,0:0:0:0:
192,192,55024,1,8,0:0:0:0:
64,192,55024,1,0,0:0:0:0:
64,192,55264,1,0,0:0:0:0:
448,192,55384,1,2,0:0:0:0:
320,192,55384,1,0,0:0:0:0:
448,192,55623,1,0,0:0:0:0:
320,192,55743,1,8,0:0:0:0:
64,192,55743,1,0,0:0:0:0:
320,192,55982,1,0,0:0:0:0:
64,192,56102,1,2,0:0:0:0:
448,192,56102,1,0,0:0:0:0:
64,192,56342,1,0,0:0:0:0:
192,192,56461,1,8,0:0:0:0:
320,192,56461,1,0,0:0:0:0:
192,192,56701,1,0,0:0:0:0:
320,192,56821,1,2,0:0:0:0:
448,192,56821,1,0,0:0:0:0:
192,192,56940,1,0,0:0:0:0:
64,192,57060,1,0,0:0:0:0:
192,192,57180,1,0,0:0:0:0:
320,192,57180,1,8,0:0:0:0:
448,192,57300,1,0,0:0:0:0:
192,192,57420,1,0,0:0:0:0:
320,192,57539,1,0,0:0:0:0:
64,192,57539,1,2,0:0:0:0:
448,192,57899,1,0,0:0:0:0:
192,192,57899,1,0,0:0:0:0:
64,192,57899,1,0,0:0:0:0:
320,192,57899,1,4,0:0:0:0:
64,192,58138,1,0,0:0:0:0:
320,192,58258,1,8,0:0:0:0:
448,192,58258,1,0,0:0:0:0:
192,192,58378,1,8,0:0:0:0:
64,192,58378,1,0,0:0:0:0:
320,192,58497,1,8,0:0:0:0:
448,192,58497,1,0,0:0:0:0:
192,192,58617,1,8,0:3:0:0:
320,192,58737,1,8,0:3:0:0:
192,192,58857,1,8,0:3:0:0:
320,192,58976,1,0,0:0:0:0:
448,192,58976,1,4,0:0:0:0:
64,192,58976,1,2,0:0:0:0:
64,192,59216,1,0,0:0:0:0:
192,192,59336,1,8,0:0:0:0:
448,192,59336,1,0,0:0:0:0:
320,192,59575,1,0,0:0:0:0:
192,192,59695,1,2,0:0:0:0:
64,192,59695,1,0,0:0:0:0:
320,192,59934,1,2,0:0:0:0:
64,192,59934,1,0,0:0:0:0:
192,192,60054,1,0,0:0:0:0:
448,192,60054,1,8,0:0:0:0:
448,192,60294,1,0,0:0:0:0:
320,192,60414,1,0,0:0:0:0:
192,192,60414,1,0,0:0:0:0:
64,192,60414,1,2,0:0:0:0:
192,192,60653,1,0,0:0:0:0:
448,192,60773,1,0,0:0:0:0:
320,192,60773,1,8,0:0:0:0:
64,192,61012,1,0,0:0:0:0:
320,192,61132,1,0,0:0:0:0:
192,192,61132,1,2,0:0:0:0:
448,192,61372,1,2,0:0:0:0:
192,192,61372,1,0,0:0:0:0:
320,192,61491,1,0,0:0:0:0:
64,192,61491,1,8,0:0:0:0:
192,192,61731,1,0,0:0:0:0:
448,192,61851,1,0,0:0:0:0:
320,192,61851,1,2,0:0:0:0:
192,192,61940,1,0,0:0:0:0:
64,192,62030,1,0,0:0:0:0:
320,192,62120,1,0,0:0:0:0:
448,192,62210,1,0,0:0:0:0:
192,192,62210,1,8,0:0:0:0:
320,192,62449,1,0,0:0:0:0:
448,192,62569,1,0,0:0:0:0:
192,192,62569,1,2,0:0:0:0:
192,192,62809,1,0,0:0:0:0:
320,192,62809,1,2,0:0:0:0:
448,192,62928,1,0,0:0:0:0:
64,192,62928,1,8,0:0:0:0:
448,192,63168,128,2,63527:0:0:0:0:
192,192,63168,1,0,0:0:0:0:
64,192,63288,1,0,0:0:0:0:
320,192,63527,1,2,0:0:0:0:
64,192,63647,128,0,64006:0:0:0:0:
192,192,63647,1,8,0:0:0:0:
320,192,63887,1,2,0:0:0:0:
192,192,64006,1,0,0:0:0:0:
448,192,64006,1,2,0:0:0:0:
320,192,64126,1,0,0:0:0:0:
192,192,64246,1,2,0:0:0:0:
64,192,64246,1,0,0:0:0:0:
320,192,64366,1,8,0:0:0:0:
448,192,64366,1,0,0:0:0:0:
192,192,64485,1,0,0:0:0:0:
64,192,64605,1,0,0:0:0:0:
192,192,64725,1,0,0:0:0:0:
448,192,64725,1,4,0:0:0:0:
320,192,64725,1,2,0:0:0:0:
448,192,64964,1,0,0:0:0:0:
64,192,65084,1,0,0:0:0:0:
192,192,65084,1,8,0:0:0:0:
320,192,65324,1,0,0:0:0:0:
448,192,65443,1,2,0:0:0:0:
192,192,65443,1,0,0:0:0:0:
64,192,65683,1,2,0:0:0:0:
448,192,65683,1,0,0:0:0:0:
192,192,65803,1,8,0:0:0:0:
320,192,65803,1,0,0:0:0:0:
320,192,66042,1,0,0:0:0:0:
192,192,66162,1,2,0:0:0:0:
448,192,66162,1,0,0:0:0:0:
64,192,66162,1,0,0:0:0:0:
64,192,66402,1,0,0:0:0:0:
320,192,66521,1,0,0:0:0:0:
448,192,66521,1,8,0:0:0:0:
192,192,66761,1,0,0:0:0:0:
320,192,66881,1,2,0:0:0:0:
64,192,66881,1,0,0:0:0:0:
192,192,66970,1,0,0:0:0:0:
320,192,67060,1,0,0:0:0:0:
448,192,67150,1,0,0:0:0:0:
320,192,67240,1,0,0:0:0:0:
64,192,67240,1,8,0:0:0:0:
192,192,67330,1,0,0:0:0:0:
64,192,67420,1,0,0:0:0:0:
448,192,67509,1,0,0:0:0:0:
320,192,67509,1,0,0:0:0:0:
192,192,67599,1,0,0:0:0:0:
64,192,67599,1,2,0:0:0:0:
448,192,67839,1,0,0:0:0:0:
192,192,67958,1,0,0:0:0:0:
320,192,67958,1,8,0:0:0:0:
64,192,68198,1,0,0:0:0:0:
192,192,68318,1,0,0:0:0:0:
320,192,68318,1,2,0:0:0:0:
448,192,68318,1,0,0:0:0:0:
64,192,68437,1,0,0:0:0:0:
192,192,68557,1,0,0:0:0:0:
448,192,68557,1,2,0:0:0:0:
320,192,68677,1,0,0:0:0:0:
64,192,68677,1,8,0:0:0:0:
448,192,68917,1,0,0:0:0:0:
320,192,69036,1,0,0:0:0:0:
192,192,69036,1,0,0:0:0:0:
64,192,69036,1,2,0:0:0:0:
320,192,69276,1,0,0:0:0:0:
64,192,69396,1,8,0:0:0:0:
448,192,69396,1,0,0:0:0:0:
192,192,69635,1,0,0:0:0:0:
320,192,69755,1,8,0:0:0:0:
448,192,69755,1,0,0:0:0:0:
64,192,69875,1,0,0:0:0:0:
192,192,69875,1,8,0:0:0:0:
320,192,69994,1,8,0:0:0:0:
448,192,69994,1,0,0:0:0:0:
64,192,70114,1,0,0:0:0:0:
192,192,70114,1,8,0:0:0:0:
320,192,70234,1,8,0:0:0:0:
448,192,70234,1,0,0:0:0:0:
64,192,70354,1,0,0:0:0:0:
192,192,70354,1,8,0:0:0:0:
320,192,70473,1,2,0:0:0:0:
448,192,70473,1,4,0:0:0:0:
64,192,70473,1,0,0:0:0:0:
192,192,70713,1,0,0:0:0:0:
64,192,70833,1,8,0:0:0:0:
448,192,70833,1,0,0:0:0:0:
320,192,71072,1,0,0:0:0:0:
192,192,71192,1,2,0:0:0:0:
64,192,71192,1,0,0:0:0:0:
448,192,71431,1,2,0:0:0:0:
192,192,71431,1,0,0:0:0:0:
320,192,71551,1,8,0:0:0:0:
64,192,71551,1,0,0:0:0:0:
64,192,71791,1,0,0:0:0:0:
192,192,71911,1,0,0:0:0:0:
320,192,71911,1,2,0:0:0:0:
448,192,71911,1,0,0:0:0:0:
448,192,72150,1,0,0:0:0:0:
192,192,72270,1,8,0:0:0:0:
64,192,72270,1,0,0:0:0:0:
320,192,72509,1,0,0:0:0:0:
192,192,72629,1,2,0:0:0:0:
448,192,72629,1,0,0:0:0:0:
64,192,72869,1,0,0:0:0:0:
192,192,72869,1,2,0:0:0:0:
320,192,72988,1,0,0:0:0:0:
448,192,72988,1,8,0:0:0:0:
192,192,73228,1,0,0:0:0:0:
64,192,73348,1,0,0:0:0:0:
448,192,73348,1,2,0:0:0:0:
192,192,73437,1,0,0:0:0:0:
320,192,73527,1,0,0:0:0:0:
448,192,73617,1,0,0:0:0:0:
64,192,73707,1,0,0:0:0:0:
192,192,73707,1,8,0:0:0:0:
320,192,73946,1,0,0:0:0:0:
192,192,74066,1,2,0:0:0:0:
64,192,74066,1,0,0:0:0:0:
192,192,74306,1,2,0:0:0:0:
320,192,74426,1,0,0:0:0:0:
448,192,74426,1,8,0:0:0:0:
192,192,74665,128,0,75024:0:0:0:0:
448,192,74665,1,2,0:0:0:0:
64,192,74665,1,0,0:0:0:0:
320,192,74785,1,0,0:0:0:0:
448,192,75024,1,2,0:0:0:0:
320,192,75144,128,0,75503:0:0:0:0:
64,192,75144,1,8,0:0:0:0:
192,192,75384,1,0,0:0:0:0:
64,192,75503,1,0,0:0:0:0:
448,192,75503,1,2,0:0:0:0:
192,192,75623,1,0,0:0:0:0:
448,192,75743,1,2,0:0:0:0:
192,192,75863,1,0,0:0:0:0:
64,192,75863,1,4,0:0:0:0:
320,192,75863,1,0,0:0:0:0:
64,192,76222,1,0,0:0:0:0:
320,192,76222,1,2,0:0:0:0:
192,192,76342,1,0,0:0:0:0:
320,192,76461,1,0,0:0:0:0:
448,192,76581,1,0,0:0:0:0:
64,192,76581,1,8,0:0:0:0:
320,192,76701,1,0,0:0:0:0:
192,192,76821,1,0,0:0:0:0:
64,192,76940,1,0,0:0:0:0:
320,192,76940,1,2,0:0:0:0:
192,192,77060,1,0,0:0:0:0:
320,192,77180,1,0,0:0:0:0:
448,192,77180,1,2,0:0:0:0:
192,192,77300,1,0,0:0:0:0:
64,192,77300,1,8,0:0:0:0:
448,192,77420,1,0,0:0:0:0:
320,192,77539,1,0,0:0:0:0:
192,192,77659,1,0,0:0:0:0:
448,192,77659,1,2,0:0:0:0:
64,192,77779,1,0,0:0:0:0:
192,192,77899,1,0,0:0:0:0:
320,192,78018,1,8,0:0:0:0:
448,192,78018,1,0,0:0:0:0:
192,192,78138,1,0,0:0:0:0:
320,192,78258,1,2,0:0:0:0:
448,192,78258,1,4,0:0:0:0:
64,192,78258,128,0,78737:0:0:0:0:
192,192,78378,1,0,0:0:0:0:
320,192,78497,1,0,0:0:0:0:
448,192,78617,1,0,0:0:0:0:
320,192,78737,1,0,0:0:0:0:
192,192,78737,1,8,0:0:0:0:
448,192,78857,1,8,0:3:0:0:
64,192,78976,1,8,0:3:0:0:
192,192,79096,1,0,0:0:0:0:
448,192,79096,1,2,0:0:0:0:
320,192,79336,1,8,0:0:0:0:
192,192,79336,1,0,0:0:0:0:
64,192,79336,1,0,0:0:0:0:
192,192,79575,1,8,0:0:0:0:
448,192,79575,1,0,0:0:0:0:
64,192,79575,1,0,0:0:0:0:
64,192,79815,1,8,0:0:0:0:
320,192,79815,1,0,0:0:0:0:
448,192,79815,1,0,0:0:0:0:
448,192,80054,1,8,0:0:0:0:
320,192,80054,1,0,0:0:0:0:
192,192,80054,1,0,0:0:0:0:
64,192,80294,1,0,0:0:0:0:
320,192,80294,1,8,0:0:0:0:
192,192,80294,1,0,0:0:0:0:
320,192,80533,1,2,0:0:0:0:
192,192,80533,1,0,0:0:0:0:
320,192,81491,1,0,0:0:0:0:
320,192,81611,1,0,0:0:0:0:
64,192,81970,1,2,0:0:0:0:
192,192,81970,1,0,0:0:0:0:
320,192,82210,1,0,0:0:0:0:
448,192,82330,1,0,0:0:0:0:
192,192,82569,1,0,0:0:0:0:
64,192,82689,1,8,0:0:0:0:
320,192,82689,1,0,0:0:0:0:
448,192,82928,1,0,0:0:0:0:
192,192,83048,1,0,0:0:0:0:
320,192,83288,1,0,0:0:0:0:
448,192,83408,1,0,0:0:0:0:
64,192,83647,1,0,0:0:0:0:
192,192,83767,1,0,0:0:0:0:
448,192,84006,1,0,0:0:0:0:
192,192,84126,1,0,0:0:0:0:
64,192,84126,1,8,0:0:0:0:
320,192,84366,1,0,0:0:0:0:
192,192,84485,1,0,0:0:0:0:
448,192,84725,1,0,0:0:0:0:
64,192,84845,1,0,0:0:0:0:
320,192,84845,128,0,85563:0:0:0:0:
192,192,85084,1,0,0:0:0:0:
448,192,85204,1,0,0:0:0:0:
192,192,85443,1,0,0:0:0:0:
64,192,85563,128,0,86282:0:0:0:0:
448,192,85563,1,8,0:0:0:0:
320,192,85803,1,0,0:0:0:0:
192,192,85923,1,0,0:0:0:0:
448,192,86162,1,0,0:0:0:0:
320,192,86282,1,0,0:0:0:0:
192,192,86282,1,8,0:0:0:0:
192,192,86521,1,0,0:0:0:0:
64,192,86521,1,8,0:0:0:0:
320,192,86761,1,0,0:0:0:0:
448,192,86761,1,8,0:0:0:0:
64,192,87000,1,4,0:0:0:0:
192,192,87000,1,0,0:0:0:0:
320,192,87000,1,0,0:0:0:0:
448,192,87360,1,4,0:0:0:0:
320,192,87360,1,0,0:0:0:0:
192,192,87360,1,0,0:0:0:0:
192,192,87719,1,2,0:0:0:0:
320,192,87719,1,0,0:0:0:0:
320,192,87958,1,0,0:0:0:0:
448,192,88078,1,0,0:0:0:0:
64,192,88078,1,8,0:0:0:0:
192,192,88318,1,0,0:0:0:0:
320,192,88437,1,2,0:0:0:0:
448,192,88677,1,0,0:0:0:0:
192,192,88797,1,0,0:0:0:0:
64,192,88797,1,8,0:0:0:0:
320,192,89036,1,0,0:0:0:0:
64,192,89156,1,2,0:0:0:0:
448,192,89396,128,0,89635:0:0:0:0:
320,192,89515,1,8,0:0:0:0:
192,192,89515,1,0,0:0:0:0:
64,192,89755,1,0,0:0:0:0:
448,192,89875,128,2,90234:0:0:0:0:
64,192,90234,1,8,0:0:0:0:
320,192,90234,1,0,0:0:0:0:
192,192,90473,1,0,0:0:0:0:
320,192,90593,1,2,0:0:0:0:
192,192,90833,1,0,0:0:0:0:
64,192,90952,1,0,0:0:0:0:
448,192,90952,1,8,0:0:0:0:
320,192,91192,1,0,0:0:0:0:
64,192,91312,1,2,0:0:0:0:
192,192,91551,1,0,0:0:0:0:
320,192,91671,1,0,0:0:0:0:
448,192,91671,1,8,0:0:0:0:
448,192,91911,1,0,0:0:0:0:
64,192,92030,128,2,92270:0:0:0:0:
320,192,92030,128,0,92270:0:0:0:0:
192,192,92390,128,0,92629:0:0:0:0:
448,192,92390,128,8,92629:0:0:0:0:
448,192,92749,128,0,92988:0:0:0:0:
64,192,92749,128,2,92988:0:0:0:0:
192,192,92988,1,0,0:0:0:0:
320,192,93108,128,8,93467:0:0:0:0:
448,192,93467,1,0,0:0:0:0:
192,192,93467,1,2,0:0:0:0:
64,192,93467,1,4,0:0:0:0:
320,192,93707,1,0,0:0:0:0:
448,192,93827,1,8,0:0:0:0:
64,192,93827,1,0,0:0:0:0:
192,192,94066,1,0,0:0:0:0:
320,192,94186,1,0,0:0:0:0:
448,192,94186,1,2,0:0:0:0:
448,192,94426,1,2,0:0:0:0:
320,192,94545,1,0,0:0:0:0:
64,192,94545,1,8,0:0:0:0:
192,192,94785,1,2,0:0:0:0:
320,192,94785,1,0,0:0:0:0:
448,192,94905,1,0,0:0:0:0:
64,192,95144,128,0,95384:0:0:0:0:
192,192,95144,1,2,0:0:0:0:
320,192,95264,1,0,0:0:0:0:
448,192,95264,1,8,0:0:0:0:
192,192,95503,1,0,0:0:0:0:
64,192,95623,128,0,95982:0:0:0:0:
448,192,95623,1,2,0:0:0:0:
320,192,95863,1,0,0:0:0:0:
192,192,95982,1,8,0:0:0:0:
448,192,95982,1,0,0:0:0:0:
320,192,96222,1,0,0:0:0:0:
64,192,96342,1,0,0:0:0:0:
192,192,96342,1,2,0:0:0:0:
448,192,96581,1,0,0:0:0:0:
320,192,96701,1,8,0:0:0:0:
64,192,96701,1,0,0:0:0:0:
192,192,96940,1,0,0:0:0:0:
320,192,97060,1,0,0:0:0:0:
448,192,97060,1,2,0:0:0:0:
192,192,97300,1,0,0:0:0:0:
64,192,97420,1,8,0:0:0:0:
320,192,97420,1,0,0:0:0:0:
448,192,97659,1,0,0:0:0:0:
192,192,97779,128,2,98018:0:0:0:0:
320,192,97779,128,0,98018:0:0:0:0:
320,192,98138,128,0,98378:0:0:0:0:
448,192,98138,128,8,98378:0:0:0:0:
192,192,98497,128,2,98737:0:0:0:0:
64,192,98497,128,0,98737:0:0:0:0:
320,192,98737,1,0,0:0:0:0:
448,192,98737,1,8,0:0:0:0:
192,192,98857,1,8,0:0:0:0:
64,192,98857,1,0,0:0:0:0:
448,192,98976,1,8,0:0:0:0:
64,192,99096,1,0,0:0:0:0:
192,192,99216,1,0,0:0:0:0:
320,192,99216,1,2,0:0:0:0:
448,192,99216,1,4,0:0:0:0:
64,192,99575,1,0,0:0:0:0:
448,192,99934,1,0,0:0:0:0:
320,192,99994,1,0,0:0:0:0:
192,192,100054,1,0,0:0:0:0:
64,192,100114,1,0,0:0:0:0:
320,192,100174,1,2,0:0:0:0:
448,192,100174,1,0,0:0:0:0:
192,192,100234,1,0,0:0:0:0:
64,192,100294,1,8,0:0:0:0:
448,192,100294,1,0,0:0:0:0:
320,192,100533,1,2,0:0:0:0:
192,192,100533,1,0,0:0:0:0:
192,192,100893,1,0,0:0:0:0:
320,192,100893,1,2,0:0:0:0:
448,192,101012,1,8,0:0:0:0:
64,192,101012,1,0,0:0:0:0:
448,192,101252,1,0,0:0:0:0:
320,192,101372,1,2,0:0:0:0:
64,192,101372,1,0,0:0:0:0:
64,192,101611,1,0,0:0:0:0:
192,192,101611,1,2,0:0:0:0:
320,192,101731,1,0,0:0:0:0:
448,192,101731,1,8,0:0:0:0:
192,192,101970,1,0,0:0:0:0:
320,192,102090,1,2,0:0:0:0:
448,192,102090,1,0,0:0:0:0:
64,192,102090,1,4,0:0:0:0:
320,192,102330,1,0,0:0:0:0:
192,192,102449,1,8,0:0:0:0:
448,192,102449,1,0,0:0:0:0:
64,192,102689,1,2,0:0:0:0:
192,192,102689,1,0,0:0:0:0:
320,192,102809,1,0,0:0:0:0:
448,192,102869,1,0,0:0:0:0:
192,192,102928,1,0,0:0:0:0:
64,192,102988,1,0,0:0:0:0:
320,192,103048,1,0,0:0:0:0:
448,192,103108,1,0,0:0:0:0:
192,192,103168,1,8,0:0:0:0:
64,192,103168,1,0,0:0:0:0:
64,192,103408,1,0,0:0:0:0:
448,192,103408,1,2,0:0:0:0:
448,192,103767,1,2,0:0:0:0:
64,192,103767,1,0,0:0:0:0:
192,192,103887,1,0,0:0:0:0:
320,192,103887,1,8,0:0:0:0:
320,192,104126,1,0,0:0:0:0:
192,192,104246,1,0,0:0:0:0:
448,192,104246,1,2,0:0:0:0:
192,192,104485,1,2,0:0:0:0:
448,192,104485,1,0,0:0:0:0:
320,192,104605,1,0,0:0:0:0:
64,192,104605,1,8,0:0:0:0:
448,192,104845,1,0,0:0:0:0:
320,192,104964,1,4,0:0:0:0:
64,192,104964,1,2,0:0:0:0:
192,192,104964,1,0,0:0:0:0:
192,192,105204,1,0,0:0:0:0:
320,192,105324,1,0,0:0:0:0:
448,192,105324,1,8,0:0:0:0:
64,192,105563,1,2,0:0:0:0:
192,192,105683,1,0,0:0:0:0:
320,192,105683,1,0,0:0:0:0:
448,192,105683,1,2,0:0:0:0:
320,192,105923,1,0,0:0:0:0:
64,192,106042,1,8,0:0:0:0:
448,192,106042,1,0,0:0:0:0:
192,192,106402,1,0,0:0:0:0:
320,192,106402,1,2,0:0:0:0:
448,192,106402,1,0,0:0:0:0:
64,192,106641,1,0,0:0:0:0:
320,192,106761,1,0,0:0:0:0:
448,192,106761,1,8,0:0:0:0:
192,192,106881,1,0,0:0:0:0:
320,192,107000,1,0,0:0:0:0:
192,192,107120,1,0,0:0:0:0:
64,192,107120,1,2,0:0:0:0:
448,192,107120,1,0,0:0:0:0:
448,192,107360,1,2,0:0:0:0:
320,192,107479,1,8,0:0:0:0:
64,192,107479,1,0,0:0:0:0:
192,192,107599,1,0,0:0:0:0:
448,192,107719,1,0,0:0:0:0:
64,192,107839,1,0,0:0:0:0:
192,192,107839,1,2,0:0:0:0:
320,192,107839,128,0,108318:0:0:0:0:
448,192,108437,1,0,0:0:0:0:
64,192,108437,128,2,108677:0:0:0:0:
192,192,108557,1,0,0:0:0:0:
320,192,108797,1,0,0:0:0:0:
192,192,108857,1,0,0:0:0:0:
64,192,108917,1,8,0:0:0:0:
448,192,108917,128,0,109156:0:0:0:0:
320,192,109156,1,0,0:0:0:0:
192,192,109276,1,0,0:0:0:0:
64,192,109276,1,2,0:0:0:0:
320,192,109515,1,0,0:0:0:0:
64,192,109635,1,0,0:0:0:0:
192,192,109875,1,0,0:0:0:0:
448,192,109875,1,2,0:0:0:0:
320,192,109994,128,0,110354:0:0:0:0:
64,192,110354,128,0,110713:0:0:0:0:
448,192,110713,1,2,0:0:0:0:
192,192,110713,1,0,0:0:0:0:
448,192,110952,1,0,0:0:0:0:
192,192,111072,1,0,0:0:0:0:
64,192,111072,1,8,0:0:0:0:
192,192,111312,1,0,0:0:0:0:
448,192,111431,1,2,0:0:0:0:
64,192,111431,1,0,0:0:0:0:
448,192,111671,1,0,0:0:0:0:
320,192,111791,1,8,0:0:0:0:
64,192,111791,1,0,0:0:0:0:
64,192,112030,1,0,0:0:0:0:
192,192,112150,1,2,0:0:0:0:
320,192,112150,1,0,0:0:0:0:
320,192,112390,1,0,0:0:0:0:
192,192,112509,1,8,0:0:0:0:
448,192,112509,1,0,0:0:0:0:
192,192,112749,1,0,0:0:0:0:
320,192,112869,1,2,0:0:0:0:
64,192,112869,1,0,0:0:0:0:
64,192,113108,1,0,0:0:0:0:
448,192,113228,1,0,0:0:0:0:
320,192,113228,128,0,113288:0:0:0:0:
192,192,113348,128,0,113408:0:0:0:0:
320,192,113467,128,0,113527:0:0:0:0:
64,192,113587,1,2,0:0:0:0:
448,192,113587,1,0,0:0:0:0:
64,192,113827,1,0,0:0:0:0:
320,192,113946,1,8,0:0:0:0:
192,192,113946,1,0,0:0:0:0:
320,192,114186,1,0,0:0:0:0:
64,192,114306,1,0,0:0:0:0:
192,192,114306,1,2,0:0:0:0:
448,192,114426,1,8,0:0:0:0:
192,192,114545,1,8,0:0:0:0:
320,192,114665,1,8,0:0:0:0:
448,192,114665,1,0,0:0:0:0:
192,192,114785,1,8,0:0:0:0:
64,192,114905,1,8,0:0:0:0:
192,192,115024,1,0,0:0:0:0:
448,192,115024,1,2,0:0:0:0:
192,192,115384,1,0,0:0:0:0:
64,192,115384,1,8,0:0:0:0:
448,192,115384,1,0,0:0:0:0:
320,192,115384,1,4,0:0:0:0:
192,192,115623,1,0,0:0:0:0:
448,192,115743,1,8,0:0:0:0:
64,192,115743,1,0,0:0:0:0:
320,192,115863,1,8,0:0:0:0:
192,192,115982,1,8,0:0:0:0:
448,192,116102,1,8,0:3:0:0:
64,192,116102,1,0,0:0:0:0:
320,192,116222,1,8,0:0:0:0:
192,192,116342,1,8,0:0:0:0:
64,192,116461,1,0,0:0:0:0:
448,192,116461,128,2,116701:0:0:0:0:
192,192,116701,1,0,0:0:0:0:
64,192,116821,128,2,117060:0:0:0:0:
448,192,117060,1,0,0:0:0:0:
320,192,117180,128,2,117420:0:0:0:0:
64,192,117420,1,0,0:0:0:0:
192,192,117539,128,2,117779:0:0:0:0:
448,192,117779,1,0,0:0:0:0:
64,192,117899,128,2,118138:0:0:0:0:
320,192,117899,1,0,0:0:0:0:
192,192,118138,1,0,0:0:0:0:
448,192,118258,128,0,118976:0:0:0:0:
320,192,118258,1,8,0:0:0:0:
192,192,118497,1,0,0:0:0:0:
64,192,118617,1,2,0:0:0:0:
64,192,118857,1,2,0:0:0:0:
192,192,118976,1,0,0:0:0:0:
320,192,118976,1,8,0:0:0:0:
320,192,119216,1,0,0:0:0:0:
448,192,119336,1,0,0:0:0:0:
64,192,119336,1,2,0:0:0:0:
192,192,119426,1,0,0:0:0:0:
448,192,119515,1,0,0:0:0:0:
320,192,119605,1,0,0:0:0:0:
192,192,119695,1,8,0:0:0:0:
64,192,119695,1,0,0:0:0:0:
448,192,119934,1,0,0:0:0:0:
320,192,120054,1,2,0:0:0:0:
64,192,120054,1,0,0:0:0:0:
320,192,120294,1,0,0:0:0:0:
192,192,120294,1,2,0:0:0:0:
64,192,120414,1,0,0:0:0:0:
448,192,120414,1,8,0:0:0:0:
320,192,120653,128,0,121012:0:0:0:0:
64,192,120653,1,2,0:0:0:0:
192,192,120773,1,0,0:0:0:0:
192,192,121012,1,2,0:0:0:0:
64,192,121132,1,8,0:0:0:0:
448,192,121132,128,0,121491:0:0:0:0:
192,192,121372,1,0,0:0:0:0:
320,192,121491,1,2,0:0:0:0:
64,192,121491,1,0,0:0:0:0:
192,192,121611,1,0,0:0:0:0:
448,192,121731,1,2,0:0:0:0:
320,192,121731,1,0,0:0:0:0:
192,192,121851,1,0,0:0:0:0:
64,192,121851,1,8,0:0:0:0:
448,192,121970,1,0,0:0:0:0:
320,192,122090,1,0,0:0:0:0:
448,192,122210,1,4,0:0:0:0:
192,192,122210,1,2,0:0:0:0:
64,192,122210,1,0,0:0:0:0:
64,192,122449,1,0,0:0:0:0:
320,192,122569,1,8,0:0:0:0:
448,192,122569,1,0,0:0:0:0:
192,192,122809,1,0,0:0:0:0:
448,192,122928,1,0,0:0:0:0:
64,192,122928,1,2,0:0:0:0:
192,192,123168,1,2,0:0:0:0:
64,192,123168,1,0,0:0:0:0:
320,192,123288,1,0,0:0:0:0:
448,192,123288,1,8,0:0:0:0:
192,192,123527,1,0,0:0:0:0:
320,192,123647,1,2,0:0:0:0:
64,192,123647,1,0,0:0:0:0:
448,192,123647,1,0,0:0:0:0:
320,192,123887,1,0,0:0:0:0:
192,192,124006,1,8,0:0:0:0:
448,192,124006,1,0,0:0:0:0:
64,192,124246,1,0,0:0:0:0:
320,192,124366,1,2,0:0:0:0:
192,192,124366,1,0,0:0:0:0:
64,192,124455,1,0,0:0:0:0:
320,192,124545,1,0,0:0:0:0:
448,192,124635,1,0,0:0:0:0:
64,192,124725,1,0,0:0:0:0:
192,192,124725,1,8,0:0:0:0:
320,192,124815,1,0,0:0:0:0:
448,192,124905,1,0,0:0:0:0:
192,192,124994,1,0,0:0:0:0:
64,192,124994,1,0,0:0:0:0:
320,192,125084,1,0,0:0:0:0:
448,192,125084,1,2,0:0:0:0:
192,192,125204,1,0,0:0:0:0:
64,192,125324,1,2,0:0:0:0:
320,192,125443,1,8,0:0:0:0:
448,192,125443,1,0,0:0:0:0:
192,192,125683,1,0,0:0:0:0:
448,192,125803,1,0,0:0:0:0:
64,192,125803,1,2,0:0:0:0:
320,192,125803,1,0,0:0:0:0:
192,192,125923,1,0,0:0:0:0:
448,192,126042,1,0,0:0:0:0:
192,192,126162,1,8,0:0:0:0:
64,192,126162,1,0,0:0:0:0:
320,192,126282,1,0,0:0:0:0:
192,192,126402,1,0,0:0:0:0:
320,192,126521,1,0,0:0:0:0:
448,192,126521,1,2,0:0:0:0:
64,192,126521,1,0,0:0:0:0:
64,192,126761,1,0,0:0:0:0:
320,192,126881,1,8,0:0:0:0:
448,192,126881,1,0,0:0:0:0:
192,192,127120,1,0,0:0:0:0:
320,192,127240,1,8,0:0:0:0:
448,192,127240,1,0,0:0:0:0:
192,192,127360,1,8,0:0:0:0:
64,192,127360,1,0,0:0:0:0:
320,192,127479,1,8,0:0:0:0:
448,192,127479,1,0,0:0:0:0:
192,192,127599,1,8,0:0:0:0:
64,192,127599,1,0,0:0:0:0:
320,192,127719,1,8,0:0:0:0:
448,192,127719,1,0,0:0:0:0:
192,192,127839,1,8,0:0:0:0:
64,192,127839,1,0,0:0:0:0:
64,192,127958,1,0,0:0:0:0:
320,192,127958,1,2,0:0:0:0:
448,192,127958,1,4,0:0:0:0:
320,192,128198,1,0,0:0:0:0:
64,192,128318,1,8,0:0:0:0:
448,192,128318,1,0,0:0:0:0:
192,192,128557,1,0,0:0:0:0:
320,192,128677,1,2,0:0:0:0:
448,192,128677,1,0,0:0:0:0:
448,192,128917,1,0,0:0:0:0:
192,192,128917,1,2,0:0:0:0:
64,192,129036,1,0,0:0:0:0:
320,192,129036,1,8,0:0:0:0:
64,192,129276,1,0,0:0:0:0:
192,192,129396,1,0,0:0:0:0:
320,192,129396,1,0,0:0:0:0:
448,192,129396,1,2,0:0:0:0:
320,192,129635,128,0,130833:0:0:0:0:
192,192,129755,1,0,0:0:0:0:
448,192,129755,1,8,0:0:0:0:
192,192,129994,1,0,0:0:0:0:
64,192,130114,128,2,130833:0:0:0:0:
448,192,130354,1,2,0:0:0:0:
192,192,130473,128,8,130833:0:0:0:0:
448,192,130713,128,0,130833:0:0:0:0:
64,192,131192,1,0,0:0:0:0:
192,192,131192,1,8,0:0:0:0:
320,192,131192,1,4,0:0:0:0:
448,192,131192,1,0,0:0:0:0:
192,192,131431,1,0,0:0:0:0:
448,192,131551,1,2,0:0:0:0:
64,192,131551,1,0,0:0:0:0:
320,192,131791,1,2,0:0:0:0:
64,192,131791,1,0,0:0:0:0:
192,192,131911,1,8,0:0:0:0:
448,192,131911,1,0,0:0:0:0:
320,192,132150,1,2,0:0:0:0:
448,192,132150,1,0,0:0:0:0:
64,192,132150,128,0,132509:0:0:0:0:
192,192,132270,1,0,0:0:0:0:
320,192,132509,1,2,0:0:0:0:
448,192,132629,128,8,132869:0:0:0:0:
192,192,132629,1,0,0:0:0:0:
64,192,132869,1,2,0:0:0:0:
192,192,132988,1,0,0:0:0:0:
320,192,132988,1,2,0:0:0:0:
448,192,133108,1,0,0:0:0:0:
192,192,133228,1,2,0:0:0:0:
448,192,133348,1,8,0:0:0:0:
64,192,133348,1,0,0:0:0:0:
320,192,133348,1,4,0:0:0:0:
64,192,133707,1,0,0:0:0:0:
320,192,133707,1,2,0:0:0:0:
192,192,133827,1,0,0:0:0:0:
320,192,133946,1,0,0:0:0:0:
448,192,134066,1,0,0:0:0:0:
64,192,134066,1,8,0:0:0:0:
320,192,134186,1,0,0:0:0:0:
192,192,134306,1,0,0:0:0:0:
64,192,134426,1,0,0:0:0:0:
448,192,134426,1,2,0:0:0:0:
320,192,134545,1,0,0:0:0:0:
192,192,134665,1,0,0:0:0:0:
64,192,134665,1,2,0:0:0:0:
320,192,134785,1,0,0:0:0:0:
448,192,134785,1,8,0:0:0:0:
192,192,134905,1,0,0:0:0:0:
320,192,135024,1,0,0:0:0:0:
64,192,135144,1,0,0:0:0:0:
448,192,135144,1,2,0:0:0:0:
192,192,135264,1,0,0:0:0:0:
448,192,135384,1,0,0:0:0:0:
320,192,135503,1,0,0:0:0:0:
64,192,135503,1,8,0:0:0:0:
192,192,135623,1,0,0:0:0:0:
64,192,135743,1,2,0:0:0:0:
448,192,135743,128,4,136222:0:0:0:0:
320,192,135863,1,0,0:0:0:0:
192,192,135982,1,0,0:0:0:0:
64,192,136102,1,0,0:0:0:0:
320,192,136222,1,8,0:0:0:0:
192,192,136222,1,0,0:0:0:0:
448,192,136342,1,8,0:0:0:0:
64,192,136461,1,8,0:0:0:0:
320,192,136581,1,2,0:0:0:0:
448,192,136581,1,0,0:0:0:0:
64,192,136821,1,0,0:0:0:0:
192,192,136821,1,8,0:0:0:0:
320,192,136821,1,0,0:0:0:0:
448,192,137060,1,0,0:0:0:0:
320,192,137060,1,8,0:0:0:0:
192,192,137060,1,0,0:0:0:0:
64,192,137300,1,8,0:0:0:0:
448,192,137300,1,0,0:0:0:0:
192,192,137300,1,0,0:0:0:0:
64,192,137539,1,0,0:0:0:0:
320,192,137539,1,8,0:0:0:0:
448,192,137539,1,0,0:0:0:0:
320,192,137779,1,0,0:0:0:0:
192,192,137779,1,8,0:0:0:0:
64,192,137779,1,0,0:0:0:0:
320,192,138018,1,2,0:0:0:0:
192,192,138018,1,0,0:0:0:0:
64,192,138138,1,0,0:0:0:0:
192,192,138258,1,0,0:0:0:0:
320,192,138378,1,4,0:0:0:0:
448,192,138378,1,8,0:0:0:0:
64,192,138497,1,0,0:0:0:0:
448,192,138617,1,0,0:0:0:0:
192,192,138737,1,2,0:0:0:0:
448,192,138857,1,0,0:0:0:0:
320,192,138857,1,8,0:0:0:0:
192,192,138976,1,8,0:0:0:0:
64,192,138976,1,0,0:0:0:0:
320,192,139096,1,8,0:0:0:0:
448,192,139096,1,0,0:0:0:0:
192,192,139216,1,8,0:0:0:0:
64,192,139216,1,0,0:0:0:0:
320,192,139336,1,8,0:0:0:0:
448,192,139336,1,0,0:0:0:0:
64,192,139455,1,4,0:0:0:0:
192,192,139455,1,2,0:0:0:0:
320,192,139455,1,0,0:0:0:0:
64,192,139815,1,0,0:0:0:0:
448,192,139815,1,8,0:0:0:0:
320,192,140054,1,0,0:0:0:0:
192,192,140174,1,2,0:0:0:0:
64,192,140174,1,0,0:0:0:0:
320,192,140414,1,2,0:0:0:0:
192,192,140414,1,0,0:0:0:0:
64,192,140533,1,8,0:0:0:0:
448,192,140533,1,0,0:0:0:0:
320,192,140773,1,0,0:0:0:0:
192,192,140893,1,2,0:0:0:0:
448,192,140893,1,0,0:0:0:0:
64,192,141132,1,0,0:0:0:0:
320,192,141252,1,8,0:0:0:0:
448,192,141252,1,0,0:0:0:0:
448,192,141491,1,0,0:0:0:0:
192,192,141611,1,2,0:0:0:0:
320,192,141611,1,0,0:0:0:0:
320,192,141851,1,2,0:0:0:0:
192,192,141851,1,0,0:0:0:0:
64,192,141970,1,0,0:0:0:0:
448,192,141970,1,8,0:0:0:0:
192,192,142210,1,0,0:0:0:0:
320,192,142330,1,2,0:0:0:0:
64,192,142330,1,0,0:0:0:0:
192,192,142569,1,0,0:0:0:0:
320,192,142689,1,8,0:0:0:0:
448,192,142689,1,0,0:0:0:0:
448,192,142928,1,0,0:0:0:0:
192,192,143048,1,2,0:0:0:0:
64,192,143048,1,0,0:0:0:0:
320,192,143288,1,2,0:0:0:0:
64,192,143288,1,0,0:0:0:0:
192,192,143408,1,8,0:0:0:0:
448,192,143408,1,0,0:0:0:0:
448,192,143647,1,0,0:0:0:0:
192,192,143767,1,2,0:0:0:0:
64,192,143767,1,0,0:0:0:0:
320,192,144006,1,0,0:0:0:0:
192,192,144126,1,8,0:0:0:0:
448,192,144126,1,0,0:0:0:0:
448,192,144366,1,0,0:0:0:0:
192,192,144485,1,2,0:0:0:0:
320,192,144485,1,0,0:0:0:0:
64,192,144725,1,0,0:0:0:0:
448,192,144845,1,0,0:0:0:0:
192,192,144845,1,8,0:0:0:0:
320,192,144934,1,8,0:0:0:0:
448,192,145024,1,8,0:0:0:0:
192,192,145024,1,0,0:0:0:0:
320,192,145114,1,8,0:0:0:0:
448,192,145204,1,0,0:0:0:0:
192,192,145204,1,4,0:0:0:0:
64,192,145204,1,2,0:0:0:0:
320,192,145443,1,0,0:0:0:0:
448,192,145563,1,0,0:0:0:0:
64,192,145563,1,8,0:0:0:0:
192,192,145803,1,0,0:0:0:0:
320,192,145923,1,2,0:0:0:0:
448,192,145923,1,0,0:0:0:0:
192,192,146162,1,2,0:0:0:0:
320,192,146162,1,0,0:0:0:0:
448,192,146282,1,8,0:0:0:0:
64,192,146282,1,0,0:0:0:0:
448,192,146521,1,0,0:0:0:0:
192,192,146641,1,2,0:0:0:0:
64,192,146641,1,0,0:0:0:0:
320,192,146881,1,0,0:0:0:0:
192,192,147000,1,8,0:0:0:0:
448,192,147000,1,0,0:0:0:0:
192,192,147240,1,0,0:0:0:0:
64,192,147360,1,0,0:0:0:0:
448,192,147360,1,2,0:0:0:0:
320,192,147599,1,2,0:0:0:0:
64,192,147599,1,0,0:0:0:0:
192,192,147719,1,0,0:0:0:0:
448,192,147719,1,8,0:0:0:0:
448,192,147958,1,0,0:0:0:0:
192,192,148078,1,2,0:0:0:0:
64,192,148078,1,0,0:0:0:0:
192,192,148318,1,0,0:0:0:0:
64,192,148437,1,0,0:0:0:0:
320,192,148437,1,8,0:0:0:0:
192,192,148677,1,0,0:0:0:0:
448,192,148797,1,2,0:0:0:0:
320,192,148797,1,0,0:0:0:0:
448,192,149036,1,2,0:0:0:0:
64,192,149156,1,8,0:0:0:0:
320,192,149156,1,0,0:0:0:0:
192,192,149396,1,0,0:0:0:0:
320,192,149515,1,0,0:0:0:0:
448,192,149515,1,2,0:0:0:0:
64,192,149635,1,0,0:0:0:0:
192,192,149755,1,0,0:0:0:0:
320,192,149875,1,0,0:0:0:0:
448,192,149875,1,8,0:0:0:0:
192,192,149994,1,0,0:0:0:0:
64,192,150114,1,2,0:0:0:0:
448,192,150114,1,0,0:0:0:0:
192,192,150234,1,0,0:0:0:0:
320,192,150234,1,0,0:0:0:0:
64,192,150354,1,0,0:0:0:0:
448,192,150473,1,2,0:0:0:0:
320,192,150473,1,0,0:0:0:0:
192,192,150593,1,8,0:0:0:0:
64,192,150593,1,0,0:0:0:0:
448,192,150713,1,0,0:0:0:0:
320,192,150833,1,0,0:0:0:0:
448,192,150952,1,2,0:0:0:0:
64,192,150952,128,0,151192:0:0:0:0:
192,192,150952,1,4,0:0:0:0:
192,192,151192,1,0,0:0:0:0:
320,192,151312,128,0,151551:0:0:0:0:
448,192,151312,1,8,0:0:0:0:
64,192,151551,1,0,0:0:0:0:
192,192,151671,128,2,151911:0:0:0:0:
320,192,151911,1,2,0:0:0:0:
64,192,151911,1,0,0:0:0:0:
448,192,152030,128,8,152270:0:0:0:0:
192,192,152030,1,0,0:0:0:0:
320,192,152270,1,0,0:0:0:0:
64,192,152270,1,2,0:0:0:0:
192,192,152390,1,0,0:0:0:0:
64,192,152629,1,0,0:0:0:0:
320,192,152629,1,2,0:0:0:0:
192,192,152749,1,8,0:0:0:0:
448,192,152749,1,0,0:0:0:0:
64,192,152988,1,0,0:0:0:0:
448,192,153108,128,0,153467:0:0:0:0:
320,192,153108,1,2,0:0:0:0:
192,192,153348,1,0,0:0:0:0:
64,192,153467,128,8,153827:0:0:0:0:
320,192,153467,1,0,0:0:0:0:
192,192,153707,1,0,0:0:0:0:
320,192,153827,128,0,154066:0:0:0:0:
448,192,153827,1,2,0:0:0:0:
64,192,154066,1,0,0:0:0:0:
448,192,154186,1,0,0:0:0:0:
192,192,154186,128,8,154426:0:0:0:0:
320,192,154426,1,0,0:0:0:0:
448,192,154545,128,2,154785:0:0:0:0:
320,192,154785,1,0,0:0:0:0:
64,192,154905,128,0,155144:0:0:0:0:
192,192,154905,1,8,0:0:0:0:
448,192,155144,1,2,0:0:0:0:
320,192,155144,128,0,155503:0:0:0:0:
192,192,155264,1,2,0:0:0:0:
64,192,155264,1,0,0:0:0:0:
448,192,155503,1,2,0:0:0:0:
192,192,155623,1,8,0:0:0:0:
64,192,155623,128,0,155982:0:0:0:0:
448,192,155863,1,0,0:0:0:0:
192,192,155982,1,2,0:0:0:0:
320,192,155982,128,0,156222:0:0:0:0:
448,192,156222,128,0,156461:0:0:0:0:
192,192,156342,1,8,0:0:0:0:
320,192,156342,1,0,0:0:0:0:
64,192,156461,1,8,0:0:0:0:
192,192,156581,1,8,0:0:0:0:
320,192,156701,1,0,0:0:0:0:
448,192,156701,1,2,0:0:0:0:
64,192,156701,1,0,0:0:0:0:
320,192,156940,1,0,0:0:0:0:
192,192,157060,1,0,0:0:0:0:
448,192,157060,128,8,157300:0:0:0:0:
320,192,157300,1,0,0:0:0:0:
192,192,157420,1,2,0:0:0:0:
64,192,157420,128,0,157779:0:0:0:0:
448,192,157659,1,0,0:0:0:0:
192,192,157779,1,8,0:0:0:0:
320,192,157779,128,0,158018:0:0:0:0:
192,192,158018,1,0,0:0:0:0:
448,192,158018,1,2,0:0:0:0:
64,192,158138,128,0,158378:0:0:0:0:
320,192,158258,1,0,0:0:0:0:
192,192,158378,1,2,0:0:0:0:
448,192,158378,1,0,0:0:0:0:
64,192,158497,1,8,0:0:0:0:
320,192,158497,128,0,158737:0:0:0:0:
448,192,158617,1,0,0:0:0:0:
192,192,158737,1,0,0:0:0:0:
64,192,158857,1,0,0:0:0:0:
448,192,158857,128,2,159096:0:0:0:0:
192,192,158976,1,0,0:0:0:0:
320,192,159096,1,0,0:0:0:0:
64,192,159216,1,8,0:0:0:0:
192,192,159216,128,0,159455:0:0:0:0:
448,192,159336,1,0,0:0:0:0:
320,192,159455,1,0,0:0:0:0:
448,192,159575,1,2,0:0:0:0:
64,192,159575,128,0,159815:0:0:0:0:
192,192,159695,1,0,0:0:0:0:
320,192,159815,1,0,0:0:0:0:
448,192,159934,1,8,0:0:0:0:
192,192,159934,1,0,0:0:0:0:
64,192,160054,1,0,0:0:0:0:
448,192,160174,1,2,0:0:0:0:
192,192,160174,1,4,0:0:0:0:
320,192,160174,128,0,160533:0:0:0:0:
192,192,160533,1,2,0:0:0:0:
64,192,160653,1,0,0:0:0:0:
448,192,160653,1,8,0:0:0:0:
192,192,160893,128,0,161252:0:0:0:0:
448,192,160893,1,2,0:0:0:0:
320,192,160893,1,4,0:0:0:0:
448,192,161252,1,2,0:0:0:0:
64,192,161372,1,0,0:0:0:0:
320,192,161372,1,8,0:0:0:0:
448,192,161611,128,2,162090:0:0:0:0:
64,192,161611,1,0,0:0:0:0:
192,192,161611,1,4,0:0:0:0:
192,192,161970,1,2,0:0:0:0:
64,192,162090,1,0,0:0:0:0:
320,192,162090,1,8,0:0:0:0:
192,192,162210,1,8,0:3:0:0:
320,192,162330,1,8,0:3:0:0:
192,192,162449,1,0,0:0:0:0:
64,192,162449,1,2,0:0:0:0:
448,192,162449,1,0,0:0:0:0:
64,192,162689,1,0,0:0:0:0:
320,192,162809,1,0,0:0:0:0:
448,192,162809,1,8,0:0:0:0:
320,192,163048,1,0,0:0:0:0:
192,192,163168,1,2,0:0:0:0:
448,192,163168,1,0,0:0:0:0:
192,192,163408,1,0,0:0:0:0:
64,192,163527,1,8,0:0:0:0:
448,192,163527,1,0,0:0:0:0:
448,192,163767,1,0,0:0:0:0:
64,192,163887,1,0,0:0:0:0:
192,192,163887,1,2,0:0:0:0:
192,192,164126,1,0,0:0:0:0:
320,192,164246,1,8,0:0:0:0:
64,192,164246,1,0,0:0:0:0:
320,192,164485,1,0,0:0:0:0:
192,192,164605,1,2,0:0:0:0:
448,192,164605,1,0,0:0:0:0:
448,192,164845,1,0,0:0:0:0:
320,192,164964,1,8,0:0:0:0:
64,192,164964,1,0,0:0:0:0:
64,192,165204,1,0,0:0:0:0:
192,192,165324,1,0,0:0:0:0:
320,192,165324,1,2,0:0:0:0:
192,192,165563,1,0,0:0:0:0:
64,192,165683,1,0,0:0:0:0:
448,192,165683,128,0,165923:0:0:0:0:
320,192,165923,128,0,166042:0:0:0:0:
64,192,166042,128,0,166282:0:0:0:0:
320,192,166282,128,0,166402:0:0:0:0:
192,192,166402,128,0,166641:0:0:0:0:
448,192,166641,128,0,166761:0:0:0:0:
64,192,166761,128,0,167000:0:0:0:0:
192,192,167120,1,0,0:0:0:0:
64,192,167120,1,0,0:0:0:0:
320,192,167120,1,4,0:0:0:0:
448,192,167120,1,0,0:0:0:0:
320,192,167839,1,0,0:0:0:0:
320,192,168198,1,0,0:0:0:0:
448,192,168198,1,0,0:0:0:0:
64,192,168198,1,2,0:0:0:0:
192,192,168557,1,0,0:0:0:0:
320,192,168557,1,8,0:0:0:0:
448,192,168797,1,0,0:0:0:0:
64,192,168917,1,0,0:0:0:0:
192,192,168917,1,2,0:0:0:0:
192,192,169156,1,2,0:0:0:0:
64,192,169156,1,0,0:0:0:0:
448,192,169276,1,8,0:0:0:0:
320,192,169276,1,0,0:0:0:0:
192,192,169515,1,0,0:0:0:0:
64,192,169635,1,0,0:0:0:0:
320,192,169635,1,2,0:0:0:0:
64,192,169994,1,8,0:0:0:0:
448,192,169994,1,0,0:0:0:0:
320,192,170234,1,0,0:0:0:0:
448,192,170354,1,0,0:0:0:0:
192,192,170354,1,2,0:0:0:0:
448,192,170593,1,0,0:0:0:0:
192,192,170593,1,2,0:0:0:0:
320,192,170713,1,8,0:0:0:0:
64,192,170713,1,0,0:0:0:0:
192,192,170952,1,0,0:0:0:0:
448,192,171072,1,2,0:0:0:0:
320,192,171072,1,0,0:0:0:0:
64,192,171431,1,8,0:0:0:0:
320,192,171431,1,0,0:0:0:0:
192,192,171671,1,0,0:0:0:0:
320,192,171791,1,2,0:0:0:0:
448,192,171791,1,0,0:0:0:0:
64,192,172030,1,0,0:0:0:0:
192,192,172030,1,2,0:0:0:0:
320,192,172150,1,8,0:0:0:0:
448,192,172150,1,0,0:0:0:0:
64,192,172390,128,0,172749:0:0:0:0:
320,192,172390,1,2,0:0:0:0:
320,192,172749,1,2,0:0:0:0:
192,192,172869,1,0,0:0:0:0:
448,192,172869,128,8,173228:0:0:0:0:
320,192,173108,1,2,0:0:0:0:
64,192,173228,1,2,0:0:0:0:
192,192,173467,1,2,0:0:0:0:
320,192,173467,1,0,0:0:0:0:
448,192,173587,1,8,0:0:0:0:
64,192,173587,1,0,0:0:0:0:
448,192,173827,1,0,0:0:0:0:
64,192,173946,1,4,0:0:0:0:
192,192,173946,1,0,0:0:0:0:
320,192,173946,1,2,0:0:0:0:
64,192,174306,1,4,0:0:0:0:
320,192,174306,1,0,0:0:0:0:
448,192,174306,1,8,0:0:0:0:
192,192,174665,1,0,0:0:0:0:
320,192,174665,1,2,0:0:0:0:
320,192,174905,1,2,0:0:0:0:
192,192,174905,1,0,0:0:0:0:
64,192,175024,1,0,0:0:0:0:
448,192,175024,1,8,0:0:0:0:
192,192,175264,1,0,0:0:0:0:
320,192,175384,1,0,0:0:0:0:
448,192,175384,1,2,0:0:0:0:
64,192,175743,1,8,0:0:0:0:
320,192,175743,1,0,0:0:0:0:
448,192,175982,1,0,0:0:0:0:
192,192,176102,1,2,0:0:0:0:
64,192,176102,1,0,0:0:0:0:
192,192,176342,1,2,0:0:0:0:
320,192,176461,1,8,0:0:0:0:
448,192,176461,1,0,0:0:0:0:
64,192,176581,1,0,0:0:0:0:
192,192,176581,1,2,0:0:0:0:
320,192,176701,1,8,0:0:0:0:
448,192,176701,1,0,0:0:0:0:
192,192,176821,1,4,0:0:0:0:
64,192,176821,1,2,0:0:0:0:
448,192,176821,1,0,0:0:0:0:
192,192,177060,1,0,0:0:0:0:
320,192,177180,1,0,0:0:0:0:
448,192,177180,1,8,0:0:0:0:
192,192,177420,1,0,0:0:0:0:
64,192,177539,1,0,0:0:0:0:
320,192,177539,1,0,0:0:0:0:
448,192,177539,1,2,0:0:0:0:
192,192,177659,1,0,0:0:0:0:
320,192,177779,1,0,0:0:0:0:
448,192,177779,1,2,0:0:0:0:
192,192,177899,1,8,0:0:0:0:
64,192,177899,1,0,0:0:0:0:
448,192,178138,1,0,0:0:0:0:
320,192,178258,1,0,0:0:0:0:
192,192,178258,1,0,0:0:0:0:
64,192,178258,1,2,0:0:0:0:
192,192,178497,1,0,0:0:0:0:
64,192,178617,1,0,0:0:0:0:
448,192,178617,1,8,0:0:0:0:
320,192,178857,1,0,0:0:0:0:
192,192,178976,1,8,0:0:0:0:
64,192,178976,1,0,0:0:0:0:
320,192,179096,1,8,0:0:0:0:
448,192,179096,1,0,0:0:0:0:
192,192,179216,1,8,0:0:0:0:
64,192,179216,1,0,0:0:0:0:
320,192,179336,1,8,0:0:0:0:
448,192,179336,1,0,0:0:0:0:
192,192,179455,1,8,0:0:0:0:
64,192,179455,1,0,0:0:0:0:
448,192,179575,1,0,0:0:0:0:
320,192,179575,1,8,0:0:0:0:
192,192,179695,128,0,180773:0:0:0:0:
320,192,180773,1,8,0:0:0:0:
448,192,180773,1,4,0:0:0:0:
64,192,180773,1,0,0:0:0:0:
448,192,181012,1,0,0:0:0:0:
320,192,181132,1,0,0:0:0:0:
64,192,181132,1,0,0:0:0:0:
192,192,181132,1,2,0:0:0:0:
321,192,181372,1,0,0:0:0:0:
448,192,181491,1,8,0:0:0:0:
64,192,181491,1,0,0:0:0:0:
192,192,181731,1,0,0:0:0:0:
448,192,181851,1,2,0:0:0:0:
320,192,181851,1,0,0:0:0:0:
448,192,182090,1,2,0:0:0:0:
192,192,182090,1,0,0:0:0:0:
64,192,182210,1,0,0:0:0:0:
320,192,182210,1,8,0:0:0:0:
64,192,182449,1,0,0:0:0:0:
448,192,182569,1,2,0:0:0:0:
192,192,182569,1,0,0:0:0:0:
320,192,182659,1,0,0:0:0:0:
64,192,182749,1,0,0:0:0:0:
192,192,182839,1,0,0:0:0:0:
448,192,182928,1,8,0:0:0:0:
320,192,182928,1,0,0:0:0:0:
64,192,183168,1,0,0:0:0:0:
320,192,183288,1,2,0:0:0:0:
448,192,183288,1,0,0:0:0:0:
192,192,183527,1,2,0:0:0:0:
448,192,183647,128,0,183887:0:0:0:0:
320,192,183887,128,0,184246:0:0:0:0:
64,192,184246,128,0,184366:0:0:0:0:
448,192,184366,128,0,184725:0:0:0:0:
64,192,184725,128,0,184785:0:0:0:0:
192,192,184845,128,0,184905:0:0:0:0:
64,192,184964,128,0,185024:0:0:0:0:
192,192,185084,1,0,0:0:0:0:
320,192,185084,1,0,0:0:0:0:
448,192,185084,1,4,0:0:0:0:
320,192,185443,1,2,0:0:0:0:
448,192,185443,1,0,0:0:0:0:
192,192,185563,1,0,0:0:0:0:
64,192,185683,1,0,0:0:0:0:
448,192,185803,1,0,0:0:0:0:
192,192,185803,1,8,0:0:0:0:
320,192,185923,1,0,0:0:0:0:
192,192,186042,1,0,0:0:0:0:
64,192,186162,1,0,0:0:0:0:
448,192,186162,1,2,0:0:0:0:
192,192,186282,1,0,0:0:0:0:
320,192,186402,1,0,0:0:0:0:
448,192,186402,1,2,0:0:0:0:
192,192,186521,1,0,0:0:0:0:
64,192,186521,1,8,0:0:0:0:
320,192,186641,1,0,0:0:0:0:
448,192,186761,1,0,0:0:0:0:
64,192,186881,1,0,0:0:0:0:
320,192,186881,1,2,0:0:0:0:
192,192,187000,1,0,0:0:0:0:
320,192,187120,1,0,0:0:0:0:
448,192,187240,1,8,0:0:0:0:
64,192,187240,1,0,0:0:0:0:
320,192,187360,1,0,0:0:0:0:
192,192,187479,1,4,0:0:0:0:
64,192,187479,1,2,0:0:0:0:
448,192,187479,1,0,0:0:0:0:
320,192,187599,1,0,0:0:0:0:
192,192,187719,1,0,0:0:0:0:
64,192,187839,1,0,0:0:0:0:
192,192,187958,1,8,0:0:0:0:
448,192,187958,1,0,0:0:0:0:
320,192,188078,1,8,0:0:0:0:
192,192,188198,1,8,0:0:0:0:
64,192,188318,1,4,0:0:0:0:
320,192,188318,1,2,0:0:0:0:
448,192,188318,1,0,0:0:0:0:
448,192,188557,1,0,0:0:0:0:
320,192,188557,1,8,0:0:0:0:
192,192,188557,1,0,0:0:0:0:
64,192,188797,1,0,0:0:0:0:
192,192,188797,1,8,0:0:0:0:
320,192,188797,1,0,0:0:0:0:
448,192,189036,1,0,0:0:0:0:
192,192,189036,1,0,0:0:0:0:
64,192,189036,1,8,0:0:0:0:
64,192,189276,1,0,0:0:0:0:
320,192,189276,1,0,0:0:0:0:
448,192,189276,1,8,0:0:0:0:
192,192,189515,1,0,0:0:0:0:
320,192,189515,1,8,0:0:0:0:
448,192,189515,1,0,0:0:0:0:
192,192,189755,1,0,0:0:0:0:
64,192,189755,1,2,0:0:0:0:
320,192,189994,1,0,0:0:0:0:
448,192,190114,1,0,0:0:0:0:
64,192,190114,1,8,0:0:0:0:
192,192,190354,1,0,0:0:0:0:
320,192,190473,1,0,0:0:0:0:
448,192,190473,1,2,0:0:0:0:
192,192,190593,1,0,0:0:0:0:
320,192,190713,1,2,0:0:0:0:
448,192,190833,1,8,0:0:0:0:
64,192,190833,1,0,0:0:0:0:
192,192,190952,1,0,0:0:0:0:
320,192,191072,1,0,0:0:0:0:
192,192,191192,1,0,0:0:0:0:
64,192,191192,1,2,0:0:0:0:
448,192,191431,1,8,0:0:0:0:
320,192,191431,1,0,0:0:0:0:
192,192,191431,1,0,0:0:0:0:
64,192,191671,1,8,0:0:0:0:
192,192,191671,1,0,0:0:0:0:
320,192,191671,1,0,0:0:0:0:
448,192,191911,128,8,192150:0:0:0:0:
320,192,191911,1,0,0:0:0:0:
320,192,192150,128,0,192390:0:0:0:0:
192,192,192150,1,8,0:0:0:0:
64,192,192390,128,8,192629:0:0:0:0:
192,192,192390,1,0,0:0:0:0:
448,192,192629,128,0,192869:0:0:0:0:
192,192,192869,128,0,193108:0:0:0:0:
320,192,193108,128,0,193348:0:0:0:0:
64,192,193348,128,0,193587:0:0:0:0:
192,192,193587,128,0,193827:0:0:0:0:
320,192,193827,128,0,194066:0:0:0:0:
192,192,194066,1,0,0:0:0:0:
64,192,194066,1,2,0:0:0:0:
320,192,194785,1,0,0:0:0:0:
64,192,195503,1,0,0:0:0:0:
448,192,196102,1,0,0:0:0:0:
64,192,196581,1,0,0:0:0:0:
448,192,196581,1,4,0:0:0:0:
192,192,196581,128,0,199815:0:0:0:0:
