osu file format v14

[General]
AudioFilename: pa shuwa pa pa shuwa.mp3
AudioLeadIn: 0
PreviewTime: 48027
Countdown: 1
SampleSet: Soft
StackLeniency: 0.7
Mode: 0
LetterboxInBreaks: 1
WidescreenStoryboard: 0

[Editor]
Bookmarks: 54169,75426,86397,90940,94454,102854,143311,204340
DistanceSpacing: 1.8
BeatDivisor: 4
GridSize: 4
TimelineZoom: 1

[Metadata]
Title:Ageage Again
TitleUnicode:アゲアゲアゲイン
Artist:Mitchie M
ArtistUnicode:Mitchie M
Creator:Cloudchaser
Version:Hard
Source:初音ミク Project Mirai 2 テーマ曲
Tags:hatsune miku tema kyoku greatest idol
BeatmapID:325679
BeatmapSetID:128654

[Difficulty]
HPDrainRate:6
CircleSize:4
OverallDifficulty:7
ApproachRate:7
SliderMultiplier:1.2
SliderTickRate:2

[Events]
//Background and Video events
0,0,"ageageagain.png",0,0
Video,0,"this is so fucking kawaii.avi"
//Break Periods
2,75626,82754
//Storyboard Layer 0 (Background)
//Storyboard Layer 1 (Fail)
//Storyboard Layer 2 (Pass)
//Storyboard Layer 3 (Foreground)
//Storyboard Sound Samples

[TimingPoints]
1369,342.857142857143,4,2,0,80,1,0
1369,-100,4,2,0,80,0,1
1540,-100,4,2,0,80,0,0
23311,-153.846153846153,4,2,0,51,0,0
34283,-100,4,2,0,80,0,0
45254,-100,4,2,0,50,0,0
45940,-100,4,2,0,35,0,0
47311,-100,4,2,0,15,0,0
47826,-100,4,2,0,80,0,1
68569,-100,4,2,0,60,0,1
69940,-100,4,2,0,80,0,0
75426,-100,4,2,0,80,0,1
75597,-100,4,2,0,80,0,0
91883,-100,4,2,0,65,0,0
94454,-100,4,2,0,80,0,0
97369,-153.846153846154,4,2,0,60,0,0
108340,-100,4,2,0,80,0,0
119311,-100,4,2,0,60,0,0
119997,-100,4,2,0,35,0,0
121369,-100,4,2,0,15,0,0
121883,-100,4,2,0,80,0,1
129426,-100,4,2,0,60,0,1
130283,-100,4,2,0,80,0,1
142626,-100,4,2,0,70,0,1
143997,-100,4,2,0,80,0,0
144083,-100,4,2,0,20,0,0
149483,-100,4,2,0,5,0,0
160454,-100,4,2,0,70,0,0
171426,-100,4,2,0,20,0,0
176740,-100,4,2,0,80,0,1
188911,-100,4,2,0,80,0,0
189254,-100,4,2,0,80,0,1
192854,-100,4,2,0,40,0,0
193197,-100,4,2,0,80,0,1
198854,-100,4,2,0,80,0,0
204340,-100,4,2,0,80,0,1
204511,-100,4,2,0,80,0,0

[Colours]
Combo1 : 255,255,40
Combo2 : 255,40,40
Combo3 : 128,255,0
Combo4 : 128,0,128
Combo5 : 0,128,255

[HitObjects]
128,320,1369,6,0,P|172:324|200:316,1,60
256,264,1711,2,0,P|264:184|252:128,1,120
196,80,2226,1,0,0:0:0:0:
136,144,2397,2,0,L|48:148,1,60
48,232,2740,2,0,L|180:228,1,120
256,264,3254,1,0,0:0:0:0:
340,228,3426,2,0,L|459:231,1,120
492,316,3940,1,0,0:0:0:0:
460,232,4111,2,0,P|456:192|460:156,1,60
392,112,4454,6,0,P|393:82|389:52,1,60
308,12,4797,1,0,0:0:0:0:
256,84,4969,1,0,0:0:0:0:
168,84,5140,1,0,0:0:0:0:
132,168,5311,2,0,P|132:224|156:296,1,120
216,348,5826,2,0,P|240:304|240:276,1,60
244,204,6169,1,0,0:0:0:0:
324,160,6340,2,0,P|376:132|456:160,1,120
492,212,6854,1,0,0:0:0:0:
324,276,7197,6,0,L|256:272,1,60
216,348,7540,2,0,L|148:344,1,60
92,280,7883,1,0,0:0:0:0:
112,192,8054,2,0,P|152:156|180:80,1,120
256,48,8569,2,0,P|272:72|300:96,1,60
423,128,8911,2,0,P|406:103|384:84,1,60,0|0,0:0|0:0,0:0:0:0:
340,164,9254,1,0,0:0:0:0:
256,192,9597,12,0,10883,0:0:0:0:
256,192,10969,12,0,11997,0:0:0:0:
104,292,12340,5,0,0:0:0:0:
104,292,12683,6,0,P|112:240|112:208,1,60
120,144,13026,2,0,P|140:96|220:68,1,120
208,156,13540,1,0,0:0:0:0:
260,228,13711,2,0,L|256:304,1,60
340,180,14054,2,0,L|344:104,1,60
396,48,14397,1,0,0:0:0:0:
468,100,14569,1,0,0:0:0:0:
440,184,14740,2,0,P|432:252|424:264,1,60
368,304,15083,2,0,L|280:304,1,60
260,228,15426,6,0,P|216:176|200:112,1,120
204,36,15940,1,0,0:0:0:0:
376,88,16283,2,0,L|380:228,1,120
332,284,16797,2,0,P|288:316|256:316,1,60
196,296,17140,1,0,0:0:0:0:
164,212,17311,1,0,0:0:0:0:
196,128,17483,1,0,0:0:0:0:
316,188,17654,1,0,0:0:0:0:
248,72,17826,6,0,P|208:52|180:56,1,60
116,100,18169,2,0,L|116:176,1,60
136,240,18511,2,0,B|156:288|192:304|192:304|244:288,1,120
304,276,19026,2,0,P|372:268|384:272,1,60
476,336,19369,2,0,L|476:196,1,120
424,140,19883,1,0,0:0:0:0:
344,176,20054,1,0,0:0:0:0:
268,128,20226,6,0,L|260:56,1,60
200,188,20569,2,0,P|204:240|200:316,1,120
136,372,21083,1,0,0:0:0:0:
100,292,21254,2,0,P|96:260|100:224,1,60
268,128,21769,2,0,P|312:132|312:208,1,120
84,320,22626,5,0,0:0:0:0:
84,320,22969,1,0,0:0:0:0:
84,320,23311,2,0,P|140:312|160:316,1,77.9999964294435
236,340,23826,2,0,P|274:344|312:336,1,77.9999964294435
380,296,24340,1,0,0:0:0:0:
420,144,24511,6,0,L|424:100,1,38.9999982147218
312,144,24854,2,0,L|332:192,1,38.9999982147218
344,64,25197,2,0,L|220:68,1,116.999994644165
128,188,26054,6,0,P|128:232|144:264,1,77.9999964294435
212,300,26569,2,0,L|304:304,1,77.9999964294435
368,320,27083,6,0,P|372:344|372:372,1,38.9999982147218
340,248,27426,2,0,P|336:224|336:196,1,38.9999982147218
236,88,27769,2,0,P|232:140|244:172,1,77.9999964294435
388,112,28454,5,0,0:0:0:0:
388,112,28626,1,0,0:0:0:0:
388,112,28797,2,0,L|300:124,1,77.9999964294435
256,176,29311,2,0,L|128:192,1,116.999994644165
88,252,29997,5,0,0:0:0:0:
148,304,30169,2,0,P|184:336|216:340,1,77.9999964294435
391,301,30683,2,0,P|336:285|284:308,1,116.999994644165
136,352,31540,6,0,P|114:373|80:388,2,58.4999973220826
72,308,32226,2,0,P|44:284|32:264,2,58.4999973220826
104,240,32911,2,0,P|132:184|108:120,1,116.999994644165
68,76,33597,5,0,0:0:0:0:
68,76,33940,1,0,0:0:0:0:
308,104,34283,6,0,L|384:112,1,60
403,198,34626,2,0,L|344:192,1,60
260,176,34969,1,0,0:0:0:0:
288,256,35140,1,0,0:0:0:0:
164,232,35311,1,0,0:0:0:0:
164,232,35483,6,0,P|156:172|172:104,1,120
204,40,35997,2,0,P|240:64|248:84,1,60
244,164,36340,1,0,0:0:0:0:
324,192,36511,1,0,0:0:0:0:
332,276,36683,2,0,L|336:352,1,60
408,380,37026,5,0,0:0:0:0:
408,380,37197,1,0,0:0:0:0:
444,304,37369,1,0,0:0:0:0:
460,220,37540,1,0,0:0:0:0:
456,136,37711,2,0,P|456:68|452:56,2,60
376,108,38226,6,0,L|240:104,1,120
184,148,38740,1,0,0:0:0:0:
140,220,38911,2,0,P|124:280|156:344,1,120
204,272,39426,2,0,P|252:268|272:264,2,60
140,220,39940,5,0,0:0:0:0:
184,148,40111,2,0,P|192:100|176:68,1,60
322,90,40454,2,0,P|318:119|328:148,1,60
396,196,40797,1,0,0:0:0:0:
384,72,40969,2,0,L|248:76,1,120
212,140,41483,2,0,P|212:169|225:196,2,60
296,144,41997,2,0,P|308:117|309:87,2,60
212,140,42511,5,0,0:0:0:0:
148,192,42683,1,0,0:0:0:0:
64,188,42854,2,0,P|56:152|60:120,2,60
148,192,43369,2,0,P|149:221|141:250,1,60
36,184,43711,2,0,P|32:124|60:56,1,120
132,48,44226,2,0,L|188:72,1,60
256,120,44569,1,0,0:0:0:0:
324,72,44740,2,0,L|380:48,2,60
256,192,45169,12,0,47311,0:0:0:0:
64,280,47826,6,0,P|96:296|192:260,1,120
208,200,48340,2,0,L|212:136,1,60
300,140,48683,2,0,L|304:200,1,60
364,260,49026,1,0,0:0:0:0:
364,260,49197,1,0,0:0:0:0:
364,260,49369,2,0,P|376:204|364:116,1,120
260,84,49883,2,0,P|248:140|260:228,1,120
276,284,50397,1,0,0:0:0:0:
200,316,50569,6,0,L|56:320,1,120
24,256,51083,2,0,P|16:216|20:188,1,60
100,216,51426,2,0,P|116:180|136:160,1,60
208,136,51769,1,0,0:0:0:0:
368,188,51940,1,0,0:0:0:0:
368,188,52111,2,0,L|348:264,1,60
284,296,52454,1,0,0:0:0:0:
204,268,52626,1,0,0:0:0:0:
124,292,52797,2,0,P|88:328|72:352,2,60
284,296,53311,6,0,P|292:208|284:168,1,120
212,140,53826,2,0,L|144:124,1,60
287,177,54169,2,0,L|354:195,2,60
212,140,54683,1,0,0:0:0:0:
132,160,54854,2,0,P|120:228|144:284,1,120
204,328,55369,2,0,P|148:308|116:372,1,120
32,340,55883,2,0,L|64:268,1,60
124,232,56226,5,0,0:0:0:0:
364,276,56569,5,0,0:0:0:0:
236,164,56911,5,0,0:0:0:0:
204,328,57254,5,0,0:0:0:0:
364,276,57597,5,0,0:0:0:0:
256,192,57683,12,0,58626,0:0:0:0:
256,304,58797,6,0,P|188:308|144:256,1,120
112,200,59311,2,0,P|80:164|56:160,1,60
44,240,59654,2,0,P|40:268|48:304,1,60
160,356,59997,2,0,P|164:328|156:292,1,60
44,240,60340,2,0,P|32:188|48:116,1,120
100,60,60854,2,0,P|144:80|112:148,1,120
124,224,61369,1,0,0:0:0:0:
184,284,61540,6,0,L|260:288,1,60
312,340,61883,1,0,0:0:0:0:
372,280,62054,2,0,P|376:252|376:212,1,60
324,152,62397,1,0,0:0:0:0:
160,192,62740,1,0,0:0:0:0:
84,156,62911,1,0,0:0:0:0:
92,240,63083,2,0,L|88:312,1,60
160,192,63426,2,0,L|164:132,2,60
168,276,63940,1,0,0:0:0:0:
332,320,64283,6,0,P|384:340|448:316,1,120
388,252,64797,2,0,L|384:168,1,60
300,196,65140,2,0,L|272:136,1,60
204,192,65483,2,0,L|144:156,1,60
68,168,65826,1,0,0:0:0:0:
68,168,65997,1,0,0:0:0:0:
68,168,66169,2,0,P|60:224|72:300,1,120
132,344,66683,5,0,0:0:0:0:
196,292,66854,1,0,0:0:0:0:
196,292,67026,2,0,B|224:298|252:282|252:282|280:294|312:290,1,120
372,232,67540,1,0,0:0:0:0:
304,180,67711,2,0,P|256:148|208:192,1,120
192,264,68226,1,0,0:0:0:0:
340,336,68569,5,0,0:0:0:0:
40,188,69254,1,0,0:0:0:0:
340,36,69940,1,0,0:0:0:0:
256,192,70026,12,0,75083,0:0:0:0:
256,188,75426,5,0,0:0:0:0:
256,192,83654,12,0,84940,0:0:0:0:
256,192,85026,12,0,86397,0:0:0:0:
364,328,86740,6,0,P|324:296|316:284,1,60
256,236,87083,2,0,P|204:224|144:248,1,120
88,312,87597,2,0,P|64:276|60:248,1,60
144,248,87940,2,0,P|144:208|192:128,1,120
256,100,88454,1,0,0:0:0:0:
328,140,88626,1,0,0:0:0:0:
328,140,88797,2,0,P|348:176|340:216,1,60
308,268,89140,6,0,P|276:276|228:208,1,120
244,132,89654,1,0,0:0:0:0:
180,76,89826,2,0,L|104:76,1,60
48,228,90340,2,0,P|84:272|144:304,1,120
256,260,90854,1,0,0:0:0:0:
256,260,91197,2,0,P|304:248|332:252,1,60
388,292,91540,2,0,L|392:352,2,60
348,128,92226,6,0,P|316:80|300:64,1,60
268,148,92569,2,0,P|224:108|164:92,1,120
116,160,93083,2,0,L|112:288,2,120
168,92,93940,2,0,L|164:8,2,60
256,184,94454,2,0,L|288:184,2,30
120,284,94969,5,0,0:0:0:0:
120,284,95311,2,0,L|120:208,1,60
188,68,95826,1,0,0:0:0:0:
340,112,95997,5,0,0:0:0:0:
348,148,96340,1,0,0:0:0:0:
356,176,96683,1,0,0:0:0:0:
364,212,97026,1,0,0:0:0:0:
368,236,97369,6,0,P|348:296|336:308,1,77.9999964294435
272,332,97883,2,0,L|188:340,1,77.9999964294435
56,324,98569,2,0,P|44:280|48:244,1,77.9999964294435
64,180,99083,2,0,P|68:136|60:92,1,77.9999964294435
28,32,99769,1,0,0:0:0:0:
168,48,100111,6,0,L|252:52,1,77.9999964294435
300,96,100626,2,0,L|392:100,1,77.9999964294435
480,196,101311,1,0,0:0:0:0:
456,264,101483,1,0,0:0:0:0:
400,308,101654,1,0,0:0:0:0:
328,312,101826,2,0,L|280:328,2,38.9999982147218
396,188,102511,1,0,0:0:0:0:
304,84,102854,6,0,P|272:68|224:72,1,77.9999964294435
180,116,103369,2,0,L|160:248,1,116.999994644165
256,336,104226,2,0,L|252:240,1,77.9999964294435
364,176,104740,2,0,P|360:244|336:296,1,116.999994644165
208,240,105597,6,0,L|136:232,2,58.4999973220826
236,304,106283,1,0,0:0:0:0:
340,308,106540,1,0,0:0:0:0:
364,204,106797,1,0,0:0:0:0:
364,204,106969,2,0,L|364:120|364:72,1,116.999994644165
228,48,107654,5,0,0:0:0:0:
228,48,107997,1,0,0:0:0:0:
