osu file format v12

[General]
AudioFilename: Projectmirai2ver.mp3
AudioLeadIn: 0
PreviewTime: 47346
Countdown: 0
SampleSet: Soft
StackLeniency: 0.7
Mode: 0
LetterboxInBreaks: 1
WidescreenStoryboard: 0

[Editor]
Bookmarks: 198889
DistanceSpacing: 1
BeatDivisor: 4
GridSize: 8

[Metadata]
Title:Age Age Again
TitleUnicode:Age Age Again
Artist:Mitchie M
ArtistUnicode:Mitchie M
Creator:judgment light
Version:Light
Source:Project Mirai2
Tags:miku
BeatmapID:337860
BeatmapSetID:134760

[Difficulty]
HPDrainRate:7
CircleSize:4
OverallDifficulty:7
ApproachRate:9
SliderMultiplier:2
SliderTickRate:1

[Events]
//Background and Video events
0,0,"age age again.jpg",0,0
//Break Periods
2,75461,83089
2,144232,147889
//Storyboard Layer 0 (Background)
//Storyboard Layer 1 (Fail)
//Storyboard Layer 2 (Pass)
//Storyboard Layer 3 (Foreground)
//Storyboard Sound Samples
//Background Colour Transformations
3,100,163,162,255

[TimingPoints]
1404,342.857142857143,4,1,0,80,1,0
11004,-100,4,1,0,40,0,0
12375,-100,4,1,0,60,0,0
23346,-166.666666666667,4,2,0,80,0,0
31575,-200,4,2,0,80,0,0
32261,-133.333333333333,4,2,0,60,0,0
32946,-100,4,1,0,70,0,0
33632,-100,4,1,0,100,0,0
33804,-100,4,1,0,10,0,0
33975,-100,4,1,0,100,0,0
34146,-100,4,1,0,10,0,0
34318,-100,4,1,0,60,0,0
43746,-133.333333333333,4,1,0,60,0,0
45204,-133.333333333333,4,1,0,45,0,0
47175,-133.333333333333,4,2,0,45,0,0
47346,-133.333333333333,4,2,0,60,0,0
47861,-90.9090909090909,4,1,0,60,0,1
55575,-90.9090909090909,4,2,0,60,0,1
56089,-90.9090909090909,4,1,0,60,0,1
56432,-90.9090909090909,4,2,0,60,0,1
57632,-90.9090909090909,4,1,0,60,0,1
58318,-90.9090909090909,4,1,0,50,0,0
58832,-90.9090909090909,4,1,0,60,0,1
68604,-133.333333333333,4,2,0,60,0,1
69975,-200,4,1,0,60,0,0
71346,-200,4,2,0,60,0,0
72718,-100,4,1,0,60,0,0
73404,-100,4,2,0,60,0,0
74089,-100,4,1,0,60,0,0
75032,-100,4,2,0,35,0,0
75118,-90.9090909090909,4,1,0,80,0,0
85061,-100,4,3,0,50,0,0
86432,-100,4,1,0,60,0,0
91918,-133.333333333333,4,2,0,50,0,0
94318,-100,4,1,0,60,0,0
96032,-133.333333333333,4,2,0,60,0,0
96118,-100,4,2,0,30,0,0
96375,-100,4,2,0,60,0,0
96461,-100,4,2,0,30,0,0
96718,-100,4,2,0,60,0,0
96804,-100,4,2,0,30,0,0
96889,-100,4,2,0,60,0,0
96975,-100,4,2,0,30,0,0
97061,-100,4,2,0,60,0,0
97146,-100,4,2,0,30,0,0
97232,-100,4,2,0,60,0,0
97318,-100,4,2,0,30,0,0
97404,-166.666666666667,4,2,0,60,0,0
105632,-200,4,2,0,60,0,0
107261,-200,4,2,0,5,0,0
107518,-100,4,2,0,60,0,0
107689,-100,4,1,0,100,0,0
107861,-100,4,1,0,10,0,0
108032,-100,4,1,0,100,0,0
108075,-100,4,1,0,20,0,0
108118,-100,4,1,0,30,0,0
108204,-100,4,1,0,40,0,0
108289,-100,4,1,0,50,0,0
108375,-100,4,1,0,60,0,0
113175,-100,4,3,0,60,0,0
114032,-100,4,1,0,60,0,0
117804,-133.333333333333,4,1,0,60,0,0
119261,-133.333333333333,4,2,0,45,0,0
121404,-133.333333333333,4,2,0,60,0,0
121918,-90.9090909090909,4,1,0,60,0,1
129632,-90.9090909090909,4,2,0,60,0,1
129718,-90.9090909090909,4,2,0,40,0,1
129804,-90.9090909090909,4,2,0,60,0,1
129889,-90.9090909090909,4,2,0,40,0,1
129975,-90.9090909090909,4,2,0,60,0,1
130318,-90.9090909090909,4,1,0,60,0,1
130661,-90.9090909090909,4,1,0,60,0,1
130832,-90.9090909090909,4,2,0,60,0,1
131004,-90.9090909090909,4,1,0,60,0,1
131346,-90.9090909090909,4,1,0,60,0,1
131518,-90.9090909090909,4,2,0,60,0,1
131689,-90.9090909090909,4,1,0,60,0,1
132375,-90.9090909090909,4,1,0,60,0,0
132889,-90.9090909090909,4,1,0,60,0,1
142661,-133.333333333333,4,2,0,60,0,1
144032,-90.9090909090909,4,1,0,60,0,0
144118,-90.9090909090909,4,2,0,30,0,0
148489,-166.666666666667,4,2,0,60,0,0
159118,-166.666666666667,4,1,0,60,0,0
160489,-100,4,1,0,60,0,0
173689,-100,4,2,0,60,0,0
176775,-90.9090909090909,4,1,0,60,0,1
184146,-90.9090909090909,4,2,0,60,0,1
184489,-90.9090909090909,4,1,0,60,0,1
187232,-90.9090909090909,4,1,0,60,0,0
188261,-90.9090909090909,4,1,0,60,0,0
188432,-90.9090909090909,4,2,0,20,0,0
188604,-90.9090909090909,4,1,0,60,0,0
188775,-90.9090909090909,4,2,0,20,0,0
188946,-62.5,4,1,0,60,0,0
189204,-90.9090909090909,4,1,0,20,0,0
189289,-90.9090909090909,4,1,0,60,0,1
197518,-133.333333333333,4,1,0,60,0,1
203946,-133.333333333333,4,2,0,60,0,0
204032,-133.333333333333,4,1,0,60,0,0

[Colours]
Combo1 : 55,155,255
Combo2 : 0,255,64
Combo3 : 255,255,47
Combo4 : 241,130,247

[HitObjects]
88,104,1404,6,0,L|155:177,1,100
288,304,1746,2,0,P|368:296|400:224,1,150,8|0,0:0|0:0,0:0:0:0:
408,168,2089,1,0,0:0:0:0:
283,41,2261,2,0,P|227:64|210:117,1,100,0|8,0:0|0:0,0:0:0:0:
194,251,2604,1,0,0:0:0:0:
194,251,2689,1,0,0:0:0:0:
194,251,2775,1,0,0:0:0:0:
56,155,2946,1,0,0:0:0:0:
279,110,3118,6,0,L|448:136,1,150,8|0,0:0|0:0,0:0:0:0:
470,214,3461,2,0,L|369:198,1,100
218,52,3804,1,8,0:0:0:0:
275,207,3976,1,0,0:0:0:0:
275,207,4061,1,0,0:0:0:0:
275,207,4146,1,0,0:0:0:0:
359,116,4318,1,0,0:0:0:0:
191,142,4489,6,0,P|168:212|199:279,1,150,8|0,0:0|0:0,0:0:0:0:
272,309,4832,1,0,0:0:0:0:
411,194,5004,2,0,L|302:172,1,100,0|8,0:0|0:0,0:0:0:0:
94,236,5346,1,0,0:0:0:0:
106,257,5432,1,0,0:0:0:0:
118,278,5518,2,0,L|216:297,1,100,0|0,0:0|0:0,0:0:0:0:
158,103,5861,6,0,L|7:71,1,150,8|0,0:0|0:0,0:0:0:0:
27,151,6204,1,0,0:0:0:0:
176,186,6375,2,0,P|224:155|244:94,1,100,0|8,0:0|0:0,0:0:0:0:
86,195,6718,1,0,0:0:0:0:
67,211,6804,1,0,0:0:0:0:
48,227,6889,1,0,0:0:0:0:
216,335,7061,1,0,0:0:0:0:
402,264,7232,6,0,L|369:117,1,150,8|0,0:0|0:0,0:0:0:0:
321,45,7575,2,0,P|287:96|290:146,1,100
468,189,7918,1,8,0:0:0:0:
351,324,8089,1,0,0:0:0:0:
337,338,8175,1,0,0:0:0:0:
323,353,8261,1,0,0:0:0:0:
120,300,8432,1,0,0:0:0:0:
291,86,8604,2,0,P|323:151|310:249,1,150,8|0,0:0|0:0,0:0:0:0:
378,285,8946,2,0,P|334:307|285:305,1,100
207,178,9289,1,8,0:0:0:0:
398,67,9461,1,0,0:0:0:0:
256,192,9632,12,0,11004,0:0:0:0:
90,196,11175,5,0,0:0:0:0:
182,106,11346,1,0,0:0:0:0:
274,189,11518,1,0,0:0:0:0:
205,263,11689,5,0,0:0:0:0:
198,270,11775,1,0,0:0:0:0:
192,277,11861,1,0,0:0:0:0:
186,284,11946,1,0,0:0:0:0:
179,291,12032,1,0,0:0:0:0:
172,298,12118,1,0,0:0:0:0:
165,305,12204,1,0,0:0:0:0:
159,312,12289,1,0,0:0:0:0:
152,319,12375,6,0,P|104:300|70:253,1,100,4|0,0:0|0:0,0:0:0:0:
164,144,12718,2,0,L|233:67,1,100,8|0,0:0|0:0,0:0:0:0:
439,137,13061,2,0,P|450:229|375:301,1,200,0|8,0:0|0:0,0:0:0:0:
210,369,13575,2,0,L|178:248,1,100
291,98,13918,2,0,L|316:194,1,100,0|8,0:0|0:0,0:0:0:0:
141,92,14261,1,0,0:0:0:0:
88,317,14432,1,0,0:0:0:0:
252,235,14604,1,0,0:0:0:0:
361,308,14775,1,8,0:0:0:0:
468,212,14946,2,0,P|451:99|349:52,1,200
192,179,15461,6,0,L|32:166,1,150,8|0,0:0|0:0,0:0:0:0:
6,241,15804,2,0,L|105:249,1,100
251,107,16146,1,8,0:0:0:0:
187,267,16318,1,0,0:0:0:0:
197,278,16404,1,0,0:0:0:0:
207,289,16489,1,0,0:0:0:0:
376,271,16661,1,0,0:0:0:0:
447,47,16832,6,0,L|324:136,1,150,8|0,0:0|0:0,0:0:0:0:
268,184,17175,1,0,0:0:0:0:
75,136,17346,1,0,0:0:0:0:
75,136,17432,1,0,0:0:0:0:
75,136,17518,1,8,0:0:0:0:
311,61,17689,1,8,0:0:0:0:
272,339,17861,1,4,0:0:0:0:
272,339,18204,6,0,P|211:291|183:278,1,100,8|0,0:0|0:0,0:0:0:0:
11,218,18546,2,0,P|60:111|178:73,1,200,0|8,0:0|0:0,0:0:0:0:
324,173,19061,2,0,P|282:199|232:197,1,100
428,40,19404,2,0,P|475:99|479:134,1,100,0|8,0:0|0:0,0:0:0:0:
419,281,19746,1,0,0:0:0:0:
158,165,19918,1,0,0:0:0:0:
354,265,20089,1,0,0:0:0:0:
276,107,20261,1,8,0:0:0:0:
160,251,20432,2,0,L|117:363,2,100
185,88,20946,6,0,P|114:87|33:171,1,150,8|0,0:0|0:0,0:0:0:0:
29,201,21289,1,0,0:0:0:0:
232,176,21461,2,0,P|291:189|332:222,1,100,0|8,0:0|0:0,0:0:0:0:
449,337,21804,1,0,0:0:0:0:
224,303,21975,1,0,0:0:0:0:
366,236,22146,1,0,0:0:0:0:
374,231,22232,1,0,0:0:0:0:
382,226,22318,1,8,0:0:0:0:
447,108,22489,6,0,L|391:82,1,50,0|8,0:0|0:0,0:0:0:0:
271,139,22661,2,0,L|215:157,1,50,0|8,0:0|0:0,0:0:0:0:
106,81,22832,1,0,0:0:0:0:
30,199,23004,2,0,L|53:306,1,100,8|0,0:0|0:0,0:0:0:0:
53,306,23261,1,0,0:0:0:0:
55,315,23346,1,4,1:1:0:0:
253,248,23689,5,8,0:0:0:0:
253,248,23861,2,0,B|285:224|330:269|374:232,1,119.999996337891
435,167,24375,1,2,1:2:0:0:
511,225,24546,2,0,L|511:344,1,119.999996337891
415,327,25061,2,0,L|345:328,1,59.9999981689454,8|0,0:0|0:0,0:0:0:0:
264,360,25404,2,0,L|199:358,1,59.9999981689454
121,309,25746,1,2,1:3:0:0:
121,309,25918,1,0,0:0:0:0:
74,225,26089,6,0,B|41:187|39:153|58:110,1,119.999996337891,0|8,0:0|0:0,0:0:0:0:
138,62,26604,2,0,L|203:67,1,59.9999981689454
271,127,26946,2,0,L|202:144,1,59.9999981689454,0|2,0:0|1:2,0:0:0:0:
150,206,27289,2,0,L|275:241,1,119.999996337891
341,177,27804,2,0,L|355:247,1,59.9999981689454,8|0,0:0|0:0,0:0:0:0:
442,203,28146,2,0,L|421:281,1,59.9999981689454
363,333,28489,1,2,1:2:0:0:
276,291,28661,5,0,0:0:0:0:
183,265,28832,2,0,P|119:272|92:288,1,89.9999972534181,0|0,0:0|0:0,0:0:0:0:
70,315,29175,1,8,0:0:0:0:
258,248,29346,2,0,P|229:206|156:193,1,119.999996337891
70,315,29861,1,2,1:2:0:0:
3,246,30032,5,0,0:0:0:0:
63,171,30204,2,0,P|105:136|160:124,1,89.9999972534181,0|0,0:0|0:0,0:0:0:0:
177,131,30546,1,8,0:0:0:0:
0,213,30718,2,0,P|-5:149|34:95,1,119.999996337891
177,131,31232,1,2,1:2:0:0:
267,129,31575,6,0,L|351:128,2,75
223,210,32261,6,0,L|292:311,2,112.500004291535
136,207,32946,5,0,0:0:0:0:
51,314,33118,1,0,0:0:0:0:
155,138,33289,1,0,0:0:0:0:
3,184,33461,1,0,0:0:0:0:
194,71,33632,2,0,L|292:116,1,100,2|0,1:2|2:0,0:0:0:0:
368,272,33975,2,0,L|490:214,1,100,2|0,1:2|2:0,0:0:0:0:
304,202,34318,5,4,0:0:0:0:
140,278,34489,2,0,L|90:373,2,100,0|8|0,0:0|0:0|0:0,0:0:0:0:
294,107,35004,1,0,0:0:0:0:
99,145,35175,1,0,0:0:0:0:
226,307,35346,1,8,0:0:0:0:
367,131,35518,2,0,L|461:96,1,100,0|0,0:0|0:0,0:0:0:0:
398,259,35861,6,0,L|519:305,2,100,0|8|0,0:0|0:0|0:0,0:0:0:0:
207,106,36375,1,0,0:0:0:0:
281,332,36546,1,0,0:0:0:0:
358,181,36718,1,8,0:0:0:0:
156,212,36889,2,0,L|90:300,1,100
99,104,37232,5,0,0:0:0:0:
279,229,37404,1,8,0:0:0:0:
285,36,37575,1,0,0:0:0:0:
231,190,37746,2,0,L|252:330,2,100,0|0|8,0:0|0:0|0:0,0:0:0:0:
285,36,38261,2,2,P|385:38|425:126,1,200
299,348,38775,1,8,0:0:0:0:
76,248,38946,2,2,P|138:173|232:191,1,200
413,351,39461,1,0,0:0:0:0:
376,230,39632,1,0,0:0:0:0:
367,201,39718,1,0,0:0:0:0:
357,172,39804,1,0,0:0:0:0:
323,63,39975,6,0,P|234:78|214:122,1,100,0|8,0:0|0:0,0:0:0:0:
139,237,40318,1,0,0:0:0:0:
347,322,40489,1,0,0:0:0:0:
291,137,40661,1,0,0:0:0:0:
167,341,40832,1,8,0:0:0:0:
368,197,41004,2,0,L|472:135,1,100
484,337,41346,6,0,L|388:281,1,100,0|8,0:0|0:0,0:0:0:0:
221,193,41689,1,0,0:0:0:0:
45,246,41861,1,0,0:0:0:0:
253,117,42032,1,0,0:0:0:0:
337,337,42204,1,8,0:0:0:0:
122,222,42375,2,0,L|166:122,1,100
349,130,42718,6,0,L|390:222,2,100,0|8|0,0:0|0:0|0:0,0:0:0:0:
227,41,43232,1,0,0:0:0:0:
158,290,43404,1,0,0:0:0:0:
107,100,43575,1,8,0:0:0:0:
369,196,43746,6,0,P|412:289|321:334,1,225.000008583069,0|8,0:0|0:0,0:0:0:0:
282,205,44432,1,0,0:0:0:0:
210,84,44604,1,0,0:0:0:0:
156,248,44775,1,8,0:0:0:0:
354,27,44946,1,0,0:0:0:0:
424,243,45118,1,8,0:0:0:0:
256,192,45204,12,2,47175,0:0:0:0:
170,266,47346,5,4,0:0:0:0:
258,330,47518,1,2,0:0:0:0:
346,266,47689,1,4,0:0:0:0:
475,188,47861,6,0,P|438:115|365:81,1,165.000005035401
293,82,48204,1,0,0:0:0:0:
460,232,48375,5,8,0:0:0:0:
276,84,48546,1,0,0:0:0:0:
455,248,48718,5,0,0:0:0:0:
259,87,48889,1,0,0:0:0:0:
449,263,49061,5,8,0:0:0:0:
242,89,49232,1,0,0:0:0:0:
444,278,49404,6,0,L|293:189,1,165.000005035401
229,137,49746,2,0,P|219:228|242:260,1,110.000003356934,8|0,0:0|0:0,0:0:0:0:
330,311,50089,2,0,L|342:250,1,55.0000016784668
355,186,50261,1,0,0:0:0:0:
200,103,50432,1,8,0:0:0:0:
22,259,50604,6,0,P|72:311|163:310,1,165.000005035401
224,269,50946,1,0,0:0:0:0:
231,60,51118,1,8,0:0:0:0:
125,203,51289,1,0,0:0:0:0:
285,140,51461,2,0,L|405:120,1,110.000003356934
497,253,51804,2,0,L|377:273,1,110.000003356934,8|0,0:0|0:0,0:0:0:0:
249,234,52146,5,0,0:0:0:0:
38,169,52318,1,0,0:0:0:0:
174,341,52489,1,8,0:0:0:0:
176,120,52661,1,0,0:0:0:0:
54,304,52832,2,0,L|11:358,2,55.0000016784668
143,229,53175,1,8,0:0:0:0:
242,161,53346,6,0,P|348:171|398:204,1,165.000005035401
418,272,53689,1,0,0:0:0:0:
316,74,53861,5,8,0:0:0:0:
379,307,54032,1,0,0:0:0:0:
376,69,54204,5,0,0:0:0:0:
332,329,54375,1,0,0:0:0:0:
432,91,54546,5,8,0:0:0:0:
282,337,54718,1,0,0:0:0:0:
482,136,54889,6,0,L|372:209,1,110.000003356934
234,335,55232,2,0,L|194:295,1,55.0000016784668,8|0,0:0|0:0,0:0:0:0:
134,229,55404,1,0,0:0:0:0:
210,60,55575,1,2,0:0:0:0:
329,79,55746,1,0,0:0:0:0:
314,199,55918,1,2,0:0:0:0:
197,180,56089,5,0,0:0:0:0:
197,180,56175,1,0,0:0:0:0:
197,180,56261,2,0,L|86:180,1,110.000003356934,0|0,0:0|1:0,0:0:0:0:
302,257,56604,2,0,L|413:257,1,110.000003356934,10|0,1:2|0:0,0:0:0:0:
233,336,56946,2,0,L|122:336,1,110.000003356934,0|0,1:0|1:0,0:0:0:0:
280,146,57289,2,0,L|391:146,1,110.000003356934,10|0,1:2|0:0,0:0:0:0:
223,268,57632,1,2,0:0:0:0:
130,104,57804,1,0,0:0:0:0:
299,26,57975,1,10,0:0:0:0:
387,190,58146,1,0,0:0:0:0:
259,150,58318,5,2,0:0:0:0:
244,157,58404,1,0,0:0:0:0:
229,164,58489,1,0,0:0:0:0:
214,171,58575,1,0,0:0:0:0:
199,178,58661,1,10,0:0:0:0:
184,186,58747,1,0,0:0:0:0:
169,193,58832,6,0,P|177:304|226:338,1,165.000005035401
289,334,59175,1,0,0:0:0:0:
486,227,59346,5,8,0:0:0:0:
307,292,59518,1,0,0:0:0:0:
106,188,59689,5,0,0:0:0:0:
285,253,59861,1,0,0:0:0:0:
484,145,60032,5,8,0:0:0:0:
305,210,60204,1,0,0:0:0:0:
106,101,60375,6,0,P|189:86|269:122,1,165.000005035401
277,169,60718,1,8,0:0:0:0:
153,262,60889,1,0,0:0:0:0:
300,133,61061,2,0,L|356:96,1,55.0000016784668
472,19,61232,2,0,L|448:166,1,110.000003356934,0|8,0:0|0:0,0:0:0:0:
418,277,61575,6,0,P|347:332|272:334,1,165.000005035401
211,294,61918,1,0,0:0:0:0:
92,137,62089,1,8,0:0:0:0:
311,207,62261,1,0,0:0:0:0:
158,182,62432,2,0,L|34:226,1,110.000003356934
210,93,62775,2,0,L|313:56,1,110.000003356934,8|0,0:0|0:0,0:0:0:0:
428,134,63118,5,0,0:0:0:0:
374,346,63289,1,0,0:0:0:0:
277,147,63461,1,8,0:0:0:0:
473,244,63632,1,0,0:0:0:0:
255,282,63804,2,0,L|201:310,1,55.0000016784668
74,367,63975,2,0,L|95:254,1,110.000003356934,0|8,0:0|0:0,0:0:0:0:
190,80,64318,6,0,P|292:61|359:94,1,165.000005035401
379,155,64661,1,0,0:0:0:0:
180,210,64832,5,8,0:0:0:0:
307,315,65004,1,0,0:0:0:0:
64,283,65175,5,0,0:0:0:0:
225,247,65346,1,0,0:0:0:0:
157,160,65518,5,8,0:0:0:0:
278,270,65689,1,0,0:0:0:0:
15,270,65861,5,0,0:0:0:0:
205,128,66032,1,0,0:0:0:0:
384,286,66204,1,8,0:0:0:0:
460,144,66375,2,0,L|408:28,1,110.000003356934
302,47,66718,5,0,0:0:0:0:
269,185,66889,1,8,0:0:0:0:
84,124,67061,2,0,L|126:234,1,110.000003356934
161,26,67404,1,0,0:0:0:0:
194,164,67575,1,8,0:0:0:0:
340,154,67747,2,0,L|298:264,1,110.000003356934
214,369,68089,2,0,L|184:303,1,55.0000016784668
162,244,68261,1,8,0:0:0:0:
162,244,68604,5,2,0:0:0:0:
237,181,68775,2,0,P|316:151|368:161,1,112.500004291535,2|0,0:0|0:0,0:0:0:0:
377,163,69118,1,2,0:0:0:0:
459,198,69289,1,2,0:0:0:0:
450,287,69461,1,0,0:0:0:0:
364,314,69632,1,2,0:0:0:0:
313,239,69804,1,0,0:0:0:0:
391,239,69975,5,4,0:0:0:0:
256,192,70061,12,0,75118,0:0:0:0:
256,192,83689,12,8,85061,0:0:0:0:
163,171,85232,5,8,0:0:0:0:
326,145,85404,1,2,0:0:0:0:
268,299,85575,1,8,0:0:0:0:
163,171,85746,1,0,0:0:0:0:
168,162,85832,1,8,0:0:0:0:
173,153,85918,1,0,0:0:0:0:
178,144,86004,1,8,0:0:0:0:
183,135,86089,1,2,0:0:0:0:
188,126,86175,1,0,0:0:0:0:
193,117,86261,1,8,0:0:0:0:
198,108,86346,1,0,0:0:0:0:
203,99,86432,6,0,P|266:86|311:75,1,100,4|0,1:3|0:0,0:0:0:0:
470,182,86775,2,0,P|421:193|372:203,1,100,8|0,0:0|0:0,0:0:0:0:
213,262,87118,2,0,P|129:261|63:139,1,200,0|8,0:0|0:0,0:0:0:0:
203,100,87632,2,0,L|274:214,1,100
454,329,87975,2,0,P|474:278|447:221,1,100,0|8,0:0|0:0,0:0:0:0:
456,98,88318,2,0,L|335:159,1,100
184,202,88661,1,0,0:0:0:0:
310,67,88832,1,8,0:0:0:0:
281,216,89004,2,0,L|258:331,1,100
101,206,89346,1,0,0:0:0:0:
249,144,89518,6,0,P|301:143|360:226,1,150,8|0,0:0|0:0,0:0:0:0:
397,291,89861,2,0,L|461:214,1,100
455,121,90204,1,8,0:0:0:0:
337,47,90375,1,0,0:0:0:0:
340,61,90461,1,0,0:0:0:0:
343,75,90546,1,0,0:0:0:0:
281,215,90718,1,0,0:0:0:0:
228,355,90889,2,0,P|133:330|100:282,1,150,8|0,0:0|0:0,0:0:0:0:
43,248,91232,2,0,L|66:121,1,100
66,120,91489,1,0,0:0:0:0:
74,90,91575,2,0,L|129:131,1,50,8|0,0:0|0:0,0:0:0:0:
218,192,91746,2,0,L|282:171,1,50,8|0,0:0|0:0,0:0:0:0:
387,111,91918,6,0,P|437:148|465:168,1,75.0000028610231,4|0,3:3|2:2,0:0:0:0:
363,217,92261,2,0,L|387:302,1,75.0000028610231,2|0,2:2|0:0,0:0:0:0:
268,277,92604,2,0,L|251:315,1,37.5000014305115,4|0,3:3|0:0,0:0:0:0:
236,351,92775,1,0,0:0:0:0:
155,279,92946,2,0,L|68:306,1,75.0000028610231,2|0,0:0|0:0,0:0:0:0:
16,209,93289,2,0,L|116:181,1,75.0000028610231,4|0,3:3|0:0,0:0:0:0:
196,298,93632,2,0,L|109:325,1,75.0000028610231,2|0,0:0|0:0,0:0:0:0:
24,152,93975,2,0,L|60:142,1,37.5000014305115,2|0,3:3|0:0,0:0:0:0:
95,132,94146,1,0,0:0:0:0:
181,49,94318,5,2,1:2:0:0:
216,61,94404,1,0,0:0:0:0:
251,73,94489,1,0,0:0:0:0:
286,85,94575,1,0,0:0:0:0:
321,97,94661,1,0,0:0:0:0:
479,147,94832,1,0,0:0:0:0:
316,182,95004,2,0,L|183:267,1,150
131,301,95346,1,0,0:0:0:0:
40,120,95518,1,0,0:0:0:0:
40,120,95604,1,0,0:0:0:0:
40,120,95689,1,0,0:0:0:0:
152,184,95861,1,0,0:0:0:0:
279,134,96032,6,0,L|273:97,3,37.5000014305115,2|0|0|0,1:2|0:0|0:0|0:0,0:0:0:0:
276,220,96375,2,0,L|250:284,3,50,2|0|0|0,1:2|0:0|0:0|0:0,0:0:0:0:
342,182,96718,6,0,L|402:162,1,50,2|0,1:2|0:0,0:0:0:0:
466,57,96889,2,0,L|387:83,1,50,2|0,0:0|0:0,0:0:0:0:
236,123,97061,2,0,L|259:79,1,50,2|0,1:2|0:0,0:0:0:0:
104,208,97232,2,0,L|83:253,1,50,2|0,0:0|0:0,0:0:0:0:
86,32,97404,5,4,1:0:0:0:
168,165,97746,1,8,0:0:0:0:
168,165,97918,2,0,P|216:200|274:195,1,119.999996337891
340,143,98432,1,2,1:2:0:0:
423,135,98604,2,0,P|483:197|486:231,1,119.999996337891
461,307,99118,2,0,P|435:334|396:348,1,59.9999981689454,8|0,0:0|0:0,0:0:0:0:
330,347,99461,2,0,P|296:331|281:296,1,59.9999981689454
369,265,99804,1,2,1:2:0:0:
369,265,100146,6,0,P|337:231|265:217,1,119.999996337891,0|8,0:0|0:0,0:0:0:0:
184,234,100661,2,0,L|138:295,1,59.9999981689454
196,155,101004,2,0,L|155:101,1,59.9999981689454,0|2,0:0|1:2,0:0:0:0:
236,73,101346,2,0,P|297:57|368:81,1,119.999996337891
416,112,101861,2,0,P|456:112|488:88,1,59.9999981689454,8|0,0:0|0:0,0:0:0:0:
344,144,102204,2,0,P|336:176|344:200,1,59.9999981689454
408,256,102546,1,2,1:2:0:0:
490,272,102718,1,0,0:0:0:0:
436,336,102889,6,0,P|364:328|340:304,1,89.9999972534181
324,286,103232,1,8,0:0:0:0:
280,149,103404,2,0,P|219:187|198:248,1,119.999996337891
324,286,103918,1,2,1:2:0:0:
434,189,104089,1,0,0:0:0:0:
332,90,104261,6,0,P|286:70|234:83,1,89.9999972534181
214,101,104604,1,8,0:0:0:0:
93,26,104775,2,0,P|64:90|86:157,1,119.999996337891
214,101,105289,1,2,1:2:0:0:
127,251,105632,6,0,L|82:315,2,75,2|0|0,1:2|0:0|0:0,0:0:0:0:
174,179,106318,5,2,1:2:0:0:
174,179,106546,1,2,1:2:0:0:
174,179,106775,1,2,1:2:0:0:
174,179,107004,6,0,P|266:164|325:183,1,150,2|0,1:2|0:0,0:0:0:0:
394,237,107689,6,0,L|419:345,1,100,2|0,1:2|0:0,0:0:0:0:
407,137,108032,2,0,L|435:110,7,25,2|0|0|0|0|0|0|0,1:2|0:0|0:0|0:0|0:0|0:0|0:0|0:0,0:0:0:0:
389,156,108375,5,4,0:0:0:0:
258,253,108546,1,0,0:0:0:0:
149,61,108718,1,8,0:0:0:0:
87,208,108889,1,0,0:0:0:0:
278,170,109061,2,0,P|323:199|344:245,1,100
223,349,109404,1,8,0:0:0:0:
187,183,109575,2,0,P|199:124|243:74,1,100
316,331,109918,5,0,0:0:0:0:
465,207,110089,1,8,0:0:0:0:
362,83,110261,2,0,L|338:141,1,50
293,230,110432,2,0,L|232:121,1,100
175,30,110775,1,8,0:0:0:0:
48,165,110946,2,0,P|126:175|157:159,1,100
290,63,111289,5,0,0:0:0:0:
430,240,111461,1,8,0:0:0:0:
218,244,111632,1,0,0:0:0:0:
368,162,111804,2,0,L|478:111,1,100
361,331,112146,1,8,0:0:0:0:
263,133,112318,2,2,P|199:84|79:137,1,200
228,331,112832,1,8,0:0:0:0:
430,240,113004,1,2,0:0:0:0:
386,80,113175,5,2,0:0:0:0:
365,58,113261,1,0,0:0:0:0:
338,45,113346,1,8,0:0:0:0:
308,41,113432,1,0,0:0:0:0:
277,40,113518,1,2,0:0:0:0:
248,51,113604,1,0,0:0:0:0:
226,72,113689,1,8,0:0:0:0:
215,100,113775,1,8,0:0:0:0:
211,129,113861,1,4,0:0:0:0:
243,296,114032,5,0,0:0:0:0:
360,183,114204,1,8,0:0:0:0:
124,235,114375,1,0,0:0:0:0:
71,75,114546,1,0,0:0:0:0:
259,208,114718,1,0,0:0:0:0:
71,75,114889,1,8,0:0:0:0:
259,208,115061,2,0,L|352:272,1,100
483,116,115404,6,0,P|419:75|359:92,1,100,0|8,0:0|0:0,0:0:0:0:
290,136,115746,1,0,0:0:0:0:
233,287,115918,1,0,0:0:0:0:
189,72,116089,1,0,0:0:0:0:
127,253,116261,1,8,0:0:0:0:
349,203,116432,2,0,P|418:197|459:207,1,100
395,331,116775,5,0,0:0:0:0:
250,209,116946,1,8,0:0:0:0:
145,320,117118,1,0,0:0:0:0:
227,128,117289,2,0,L|288:33,2,100,0|0|8,0:0|0:0|0:0,0:0:0:0:
112,324,117804,6,0,P|35:294|39:163,1,225.000008583069,0|8,0:0|0:0,0:0:0:0:
132,86,118489,1,0,0:0:0:0:
168,240,118661,1,0,0:0:0:0:
322,28,118832,1,8,0:0:0:0:
390,264,119004,1,0,0:0:0:0:
258,150,119175,1,8,0:0:0:0:
256,192,119261,12,2,121232,0:0:0:0:
383,276,121404,5,4,0:0:0:0:
284,207,121575,1,2,0:0:0:0:
335,99,121746,1,4,0:0:0:0:
208,52,121918,6,0,P|119:71|70:133,1,165.000005035401
53,195,122261,1,0,0:0:0:0:
178,286,122432,5,8,0:0:0:0:
297,163,122604,1,0,0:0:0:0:
308,341,122775,5,0,0:0:0:0:
289,157,122946,1,0,0:0:0:0:
438,285,123118,5,8,0:0:0:0:
280,162,123289,1,0,0:0:0:0:
478,151,123461,6,0,P|419:103|310:118,1,165.000005035401
285,171,123804,2,0,L|235:284,1,110.000003356934,8|0,0:0|0:0,0:0:0:0:
174,157,124146,2,0,L|149:96,1,55.0000016784668,0|0,0:0|0:0,0:0:0:0:
126,35,124318,1,0,0:0:0:0:
64,221,124489,1,8,0:0:0:0:
221,306,124661,6,0,P|313:313|372:251,1,165.000005035401
385,198,125004,1,0,0:0:0:0:
189,108,125175,1,8,0:0:0:0:
354,57,125346,1,0,0:0:0:0:
276,230,125518,1,0,0:0:0:0:
116,171,125689,1,0,0:0:0:0:
54,336,125861,2,0,L|157:281,1,110.000003356934,8|0,0:0|0:0,0:0:0:0:
255,207,126204,5,0,0:0:0:0:
471,172,126375,1,0,0:0:0:0:
315,326,126546,1,8,0:0:0:0:
351,108,126718,1,0,0:0:0:0:
466,294,126889,2,0,L|510:334,2,55.0000016784668,0|0|0,0:0|0:0|0:0,0:0:0:0:
364,232,127232,1,8,0:0:0:0:
255,206,127404,6,0,P|176:201|77:255,1,165.000005035401
48,306,127746,1,0,0:0:0:0:
126,97,127918,5,8,0:0:0:0:
15,226,128089,1,0,0:0:0:0:
209,141,128261,5,0,0:0:0:0:
319,297,128432,1,0,0:0:0:0:
288,95,128604,5,8,0:0:0:0:
179,277,128775,1,0,0:0:0:0:
352,165,128946,6,0,P|423:154|485:169,1,110.000003356934
430,349,129289,2,0,L|391:300,1,55.0000016784668,8|0,0:0|0:0,0:0:0:0:
350,243,129461,1,0,0:0:0:0:
237,95,129632,2,0,L|222:170,1,55.0000016784668,2|0,0:0|0:0,0:0:0:0:
178,277,129804,2,0,L|128:213,1,55.0000016784668,2|0,0:0|0:0,0:0:0:0:
107,111,129975,1,2,0:0:0:0:
107,111,130318,6,0,P|179:87|247:109,1,110.000003356934
329,31,130661,2,0,P|353:103|333:180,1,110.000003356934,10|0,1:2|0:0,0:0:0:0:
409,239,131004,2,0,P|337:263|265:248,1,110.000003356934
199,327,131346,2,0,P|175:255|196:178,1,110.000003356934,10|0,1:2|0:0,0:0:0:0:
211,91,131689,5,2,0:0:0:0:
303,260,131861,1,0,0:0:0:0:
177,222,132032,1,10,0:0:0:0:
350,135,132204,1,0,0:0:0:0:
424,242,132375,1,2,0:0:0:0:
413,267,132461,1,0,0:0:0:0:
400,291,132546,1,0,0:0:0:0:
379,309,132632,1,0,0:0:0:0:
356,324,132718,1,10,0:0:0:0:
330,334,132804,1,0,0:0:0:0:
303,340,132889,6,0,P|228:329|163:249,1,165.000005035401
166,192,133232,1,0,0:0:0:0:
303,138,133404,5,8,0:0:0:0:
171,39,133575,1,0,0:0:0:0:
273,223,133746,5,0,0:0:0:0:
107,215,133918,1,0,0:0:0:0:
329,138,134089,5,8,0:0:0:0:
165,24,134260,1,0,0:0:0:0:
300,235,134432,6,0,P|398:257|470:220,1,165.000005035401
490,168,134775,1,8,0:0:0:0:
369,57,134946,1,0,0:0:0:0:
245,176,135118,2,0,L|212:222,1,55.0000016784668
166,283,135289,1,0,0:0:0:0:
78,193,135461,1,8,0:0:0:0:
192,102,135632,6,0,P|282:93|332:211,1,220.000006713867
218,352,136146,1,8,0:0:0:0:
154,174,136318,1,0,0:0:0:0:
55,333,136489,2,0,L|188:293,1,110.000003356934
291,331,136832,2,0,L|424:291,1,110.000003356934,8|0,0:0|0:0,0:0:0:0:
455,166,137175,5,0,0:0:0:0:
271,45,137346,1,0,0:0:0:0:
349,251,137518,1,8,0:0:0:0:
411,40,137689,1,0,0:0:0:0:
238,177,137861,2,0,L|184:215,1,55.0000016784668
136,251,138032,1,0,0:0:0:0:
114,77,138204,1,0,0:0:0:0:
269,93,138375,6,0,P|320:138|305:237,1,165.000005035401
255,293,138718,1,0,0:0:0:0:
178,187,138889,5,8,0:0:0:0:
367,126,139061,1,0,0:0:0:0:
147,113,139232,5,0,0:0:0:0:
363,222,139404,1,0,0:0:0:0:
130,248,139575,5,8,0:0:0:0:
328,171,139746,1,0,0:0:0:0:
97,179,139918,5,0,0:0:0:0:
398,180,140090,1,0,0:0:0:0:
209,60,140261,1,8,0:0:0:0:
3,231,140432,2,0,P|53:277|117:279,1,110.000003356934
197,207,140775,5,0,0:0:0:0:
319,126,140946,1,8,0:0:0:0:
433,243,141118,2,0,L|399:357,1,110.000003356934
191,167,141461,5,0,0:0:0:0:
328,116,141632,1,8,0:0:0:0:
413,256,141804,2,0,L|354:359,1,110.000003356934
199,125,142146,6,0,L|258:117,1,55.0000016784668
336,111,142318,1,8,0:0:0:0:
336,111,142832,5,2,0:0:0:0:
413,186,143004,1,2,0:0:0:0:
287,200,143176,1,0,0:0:0:0:
421,195,143347,2,0,L|479:267,1,75.0000028610231,2|0,0:0|0:0,0:0:0:0:
284,213,143690,2,0,L|257:302,1,75.0000028610231,2|0,0:0|0:0,0:0:0:0:
349,177,144032,5,4,0:0:0:0:
99,132,148489,6,0,P|150:116|214:140,1,119.999996337891,2|0,0:0|0:0,0:0:0:0:
274,183,149004,2,0,P|338:204|392:181,1,119.999996337891,2|0,0:0|0:0,0:0:0:0:
449,132,149518,2,0,L|472:249,1,119.999996337891,2|0,0:0|0:0,0:0:0:0:
431,323,150032,1,2,0:0:0:0:
274,260,150375,1,0,0:0:0:0:
274,260,150547,1,2,0:0:0:0:
126,339,150889,1,2,0:0:0:0:
116,171,151232,6,0,L|42:60,2,119.999996337891,2|0|2,0:0|0:0|0:0,0:0:0:0:
117,172,152261,2,0,P|185:167|223:120,1,119.999996337891,2|0,0:0|0:0,0:0:0:0:
146,102,152775,1,0,0:0:0:0:
193,43,152946,2,0,P|274:62|302:101,1,119.999996337891,2|0,0:0|0:0,0:0:0:0:
277,215,153632,6,0,L|321:330,1,119.999996337891,2|0,0:0|0:0,0:0:0:0:
243,344,154146,1,0,0:0:0:0:
174,305,154318,2,0,P|134:253|217:123,1,239.999992675781,2|0,0:0|0:0,0:0:0:0:
391,87,155346,5,2,0:0:0:0:
450,244,155689,1,0,0:0:0:0:
450,244,155861,2,0,L|378:266,1,59.9999981689454,2|0,0:0|0:0,0:0:0:0:
308,260,156204,2,0,L|181:212,1,119.999996337891,2|0,0:0|0:0,0:0:0:0:
118,185,156718,2,0,P|125:111|166:68,2,119.999996337891,2|2|0,0:0|0:0|0:0,0:0:0:0:
118,185,157575,1,2,0:0:0:0:
256,192,157661,12,0,159032,0:0:0:0:
97,143,159118,5,2,1:2:0:0:
432,227,159632,5,2,1:2:0:0:
432,227,160489,5,0,0:0:0:0:
379,88,160661,1,0,0:0:0:0:
292,275,160832,1,8,0:0:0:0:
221,175,161004,1,0,0:0:0:0:
132,289,161175,2,0,L|43:343,1,100
126,122,161518,2,0,L|215:68,1,100,8|0,0:0|0:0,0:0:0:0:
428,153,161861,5,0,0:0:0:0:
246,135,162032,1,0,0:0:0:0:
430,157,162204,1,8,0:0:0:0:
242,138,162375,1,0,0:0:0:0:
432,161,162546,1,0,0:0:0:0:
238,141,162718,1,0,0:0:0:0:
434,165,162889,2,0,L|351:85,1,100,8|0,0:0|0:0,0:0:0:0:
199,74,163232,5,0,0:0:0:0:
176,242,163404,1,0,0:0:0:0:
312,171,163575,1,8,0:0:0:0:
67,206,163746,1,0,0:0:0:0:
156,344,163918,2,0,P|218:350|276:324,1,100
238,141,164261,1,8,0:0:0:0:
328,308,164432,1,0,0:0:0:0:
220,246,164604,5,0,0:0:0:0:
415,213,164775,1,0,0:0:0:0:
225,237,164946,1,8,0:0:0:0:
415,202,165118,1,0,0:0:0:0:
229,228,165289,2,0,L|114:241,2,100,0|0|8,0:0|0:0|0:0,0:0:0:0:
361,122,165804,1,0,0:0:0:0:
361,122,165889,1,0,0:0:0:0:
361,122,165975,1,0,0:0:0:0:
229,27,166146,6,0,L|204:83,1,50
156,204,166318,2,0,L|260:188,1,100,8|0,0:0|0:0,0:0:0:0:
361,52,166661,1,0,0:0:0:0:
480,157,166832,1,0,0:0:0:0:
473,287,167004,2,0,B|432:338|370:325|370:325|345:275|286:275,1,200,8|0,0:0|0:0,0:0:0:0:
166,310,167518,6,0,L|110:264,1,50
31,197,167689,2,0,L|131:157,1,100,8|0,0:0|0:0,0:0:0:0:
267,45,168032,1,0,0:0:0:0:
199,216,168204,1,0,0:0:0:0:
344,132,168375,2,0,P|411:129|459:145,1,100,8|0,0:0|0:0,0:0:0:0:
460,161,168632,1,0,0:0:0:0:
472,188,168718,6,0,L|406:341,1,150,0|0,0:0|0:0,0:0:0:0:
358,269,169061,1,8,0:0:0:0:
322,106,169232,2,0,L|256:259,1,150,0|0,0:0|0:0,0:0:0:0:
208,187,169575,1,8,0:0:0:0:
186,27,169746,2,0,L|120:180,1,150,0|0,0:0|0:0,0:0:0:0:
72,108,170089,1,8,0:0:0:0:
265,44,170261,2,0,P|345:29|407:74,1,150,0|0,0:0|0:0,0:0:0:0:
439,133,170604,1,0,0:0:0:0:
352,251,170775,6,0,L|301:281,1,50,8|0,0:0|0:0,0:0:0:0:
175,351,170946,2,0,L|194:242,1,100,0|8,0:0|0:0,0:0:0:0:
221,105,171289,1,2,1:2:0:0:
193,123,173689,6,0,L|169:47,2,66.6666666666667,2|0|2,0:0|0:0|0:0,0:0:0:0:
175,134,176261,5,4,0:0:0:0:
313,114,176432,1,2,0:0:0:0:
398,225,176604,1,4,0:0:0:0:
321,341,176775,6,0,P|250:352|160:312,1,165.000005035401
151,249,177118,1,0,0:0:0:0:
289,182,177289,5,8,0:0:0:0:
289,182,177461,1,0,0:0:0:0:
393,294,177632,5,0,0:0:0:0:
393,294,177804,1,0,0:0:0:0:
470,161,177975,5,8,0:0:0:0:
470,161,178146,1,0,0:0:0:0:
351,61,178318,6,0,P|256:62|203:117,1,165.000005035401
196,193,178661,2,0,P|228:264|258:283,1,110.000003356934,8|0,0:0|0:0,0:0:0:0:
406,209,179004,1,0,0:0:0:0:
406,209,179089,1,0,0:0:0:0:
406,209,179175,1,0,0:0:0:0:
304,172,179346,1,8,0:0:0:0:
149,104,179518,6,0,P|108:158|130:260,1,165.000005035401
185,298,179861,1,0,0:0:0:0:
355,251,180032,1,8,0:0:0:0:
225,154,180204,1,0,0:0:0:0:
389,113,180375,2,0,P|481:171|488:196,1,110.000003356934
295,332,180718,2,0,P|260:279|265:209,1,110.000003356934,8|0,0:0|0:0,0:0:0:0:
290,105,181061,5,0,0:0:0:0:
78,48,181232,1,0,0:0:0:0:
202,230,181404,1,8,0:0:0:0:
208,10,181575,1,0,0:0:0:0:
84,192,181746,2,0,L|45:244,1,55.0000016784668
12,297,181918,1,0,0:0:0:0:
202,230,182089,1,8,0:0:0:0:
284,331,182261,6,0,P|208:360|129:340,1,165.000005035401
122,266,182604,1,0,0:0:0:0:
250,168,182775,5,8,0:0:0:0:
392,251,182946,1,0,0:0:0:0:
264,131,183118,5,0,0:0:0:0:
122,214,183289,1,0,0:0:0:0:
246,96,183461,5,8,0:0:0:0:
388,179,183632,1,0,0:0:0:0:
271,56,183804,6,0,P|215:47|134:77,1,110.000003356934
50,148,184146,2,0,L|65:210,1,55.0000016784668,2|0,0:0|0:0,0:0:0:0:
87,289,184318,1,2,0:0:0:0:
213,248,184489,2,0,B|257:209|257:209|305:226|332:202|332:202|374:224|374:224|413:195,1,220.000006713867,0|8,0:0|0:0,0:0:0:0:
461,109,185004,1,0,0:0:0:0:
352,59,185175,6,0,P|279:46|227:67,1,110.000003356934
123,96,185518,2,0,P|110:169|131:221,1,110.000003356934,10|0,1:2|2:0,0:0:0:0:
160,325,185861,2,0,P|233:338|285:317,1,110.000003356934
389,288,186204,2,0,P|402:215|381:163,1,110.000003356934,10|0,1:2|2:0,0:0:0:0:
268,73,186546,1,2,0:0:0:0:
137,179,186718,1,0,0:0:0:0:
243,310,186889,1,10,0:0:0:0:
374,204,187061,1,0,0:0:0:0:
258,189,187232,5,2,0:0:0:0:
258,189,187318,1,0,0:0:0:0:
258,189,187404,1,0,0:0:0:0:
258,189,187489,1,0,0:0:0:0:
258,189,187575,1,10,0:0:0:0:
258,189,187661,1,0,0:0:0:0:
258,189,187746,6,0,P|196:209|156:303,1,165.000005035401
191,360,188089,1,0,0:0:0:0:
329,268,188261,2,0,L|452:258,1,110.000003356934,8|0,0:0|0:0,0:0:0:0:
183,116,188604,2,0,L|50:122,1,110.000003356934
292,16,188946,6,0,P|379:92|331:193,1,240,8|0,0:0|0:0,0:0:0:0:
257,220,189289,6,0,P|237:289|303:348,1,165.000005035401
375,327,189632,1,8,0:0:0:0:
178,189,189804,2,0,P|108:187|54:212,1,110.000003356934
71,200,190061,1,0,0:0:0:0:
71,200,190146,1,0,0:0:0:0:
146,320,190318,1,8,0:0:0:0:
317,269,190489,6,0,P|329:178|265:145,1,165.000005035401
178,189,190832,1,0,0:0:0:0:
308,58,191004,1,8,0:0:0:0:
446,179,191175,1,0,0:0:0:0:
411,310,191346,2,0,P|334:292|312:254,1,110.000003356934
177,189,191689,2,0,P|231:131|274:131,1,110.000003356934,8|0,0:0|0:0,0:0:0:0:
373,159,192032,5,0,0:0:0:0:
211,309,192204,1,0,0:0:0:0:
242,91,192375,1,8,0:0:0:0:
351,281,192546,1,0,0:0:0:0:
141,211,192718,5,2,1:2:0:0:
141,211,192889,5,2,1:2:0:0:
141,211,193232,6,0,P|216:175|312:195,1,165.000005035401
357,236,193575,1,0,0:0:0:0:
410,109,193746,5,8,0:0:0:0:
466,252,193918,1,0,0:0:0:0:
226,300,194089,5,0,0:0:0:0:
348,205,194261,1,0,0:0:0:0:
170,66,194432,5,8,0:0:0:0:
246,200,194604,1,0,0:0:0:0:
14,246,194775,5,0,0:0:0:0:
250,111,194946,1,0,0:0:0:0:
371,321,195118,1,8,0:0:0:0:
416,175,195289,2,0,L|459:55,1,110.000003356934
309,175,195632,5,0,0:0:0:0:
297,329,195804,1,8,0:0:0:0:
175,235,195975,2,0,L|76:150,1,110.000003356934
175,235,196318,1,0,0:0:0:0:
297,329,196489,1,8,0:0:0:0:
309,174,196661,2,0,L|312:57,1,110.000003356934
197,128,197004,1,0,0:0:0:0:
197,128,197089,1,0,0:0:0:0:
197,128,197175,1,8,0:0:0:0:
197,128,197518,5,2,1:2:0:0:
302,94,197689,2,0,P|365:116|393:188,1,112.500004291535,2|0,1:2|2:0,0:0:0:0:
385,184,198032,1,2,1:2:0:0:
333,257,198204,1,2,1:2:0:0:
246,232,198375,1,0,1:2:0:0:
249,142,198546,1,2,1:2:0:0:
334,113,198718,1,0,1:2:0:0:
310,184,198889,5,0,0:0:0:0:
256,192,198975,12,0,204032,0:0:0:0:
