osu file format v12

[General]
AudioFilename: Age Age Again.mp3
AudioLeadIn: 0
PreviewTime: 47905
Countdown: 0
SampleSet: Normal
StackLeniency: 0.4
Mode: 0
LetterboxInBreaks: 1
WidescreenStoryboard: 0

[Editor]
Bookmarks: 47389,140811
DistanceSpacing: 1.1
BeatDivisor: 4
GridSize: 4

[Metadata]
Title:Age Age Again
TitleUnicode:アゲアゲアゲイン
Artist:Mitchie M
ArtistUnicode:Mitchie M
Creator:FlawlessTea
Version:Hard
Source:
Tags:Vocaloid Greatest Idol Project Mirai Hatsune Miku
BeatmapID:357674
BeatmapSetID:143863

[Difficulty]
HPDrainRate:6
CircleSize:4
OverallDifficulty:6
ApproachRate:8
SliderMultiplier:1.5
SliderTickRate:1

[Events]
//Background and Video events
0,0,"BG.jpg",0,0
//Break Periods
2,144268,158404
2,171697,175547
//Storyboard Layer 0 (Background)
//Storyboard Layer 1 (Fail)
//Storyboard Layer 2 (Pass)
//Storyboard Layer 3 (Foreground)
//Storyboard Sound Samples
//Background Colour Transformations
3,100,163,162,255

[TimingPoints]
69,342.857142857143,4,2,0,50,1,0
1447,-100,4,1,0,100,0,0
47897,-100,4,1,0,100,0,1
56297,-100,4,1,0,100,0,0
58869,-100,4,1,0,100,0,1
68469,-100,4,1,0,100,0,0
68640,-100,4,1,0,100,0,1
69326,-100,4,1,0,100,0,0
121954,-100,4,1,0,100,0,1
130354,-100,4,1,0,100,0,0
132926,-100,4,1,0,100,0,1
144069,-100,4,1,0,100,0,0
176811,-100,4,1,0,100,0,1
185211,-100,4,1,0,100,0,0
187783,-100,4,1,0,100,0,1
197383,-100,4,1,0,100,0,0
197554,-100,4,1,0,100,0,1
198240,-100,4,1,0,100,0,0
204069,-100,4,1,0,100,0,1
215211,-100,4,1,0,100,0,0
215383,-100,4,1,0,100,0,1
215554,-100,4,1,0,100,0,0

[Colours]
Combo1 : 255,0,0
Combo2 : 0,242,242
Combo3 : 4,117,255
Combo4 : 233,92,166

[HitObjects]
256,72,583,2,0,L|256:48,16,18.75
256,156,1440,2,0,L|256:236,1,75,4|0,1:1|0:0,0:0:0:0:
256,312,1783,1,2,0:0:0:0:
312,160,2126,2,0,L|348:92,1,75,2|0,0:0|0:0,0:0:0:0:
200,160,2469,2,0,L|164:92,1,75,8|2,0:0|0:0,0:0:0:0:
152,76,3154,5,2,0:0:0:0:
140,56,3497,6,0,P|112:84|88:112,1,75,2|0,0:0|0:0,0:0:0:0:
124,196,3840,2,0,P|152:168|176:140,1,75,0|0,0:0|0:0,0:0:0:0:
232,72,4183,5,0,0:0:0:0:
252,60,4526,5,10,0:0:0:0:
272,48,4869,6,0,L|316:108,1,75,2|0,0:0|0:0,0:0:0:0:
360,188,5211,1,0,0:0:0:0:
360,280,5383,5,2,0:0:0:0:
340,288,5897,5,2,0:0:0:0:
320,296,6240,6,0,P|280:312|244:320,1,75,2|0,0:0|0:0,0:0:0:0:
164,288,6583,1,0,0:0:0:0:
108,216,6754,1,0,0:0:0:0:
80,128,6926,2,0,P|68:72|72:52,2,75,0|0|6,0:0|0:0|0:0,0:0:0:0:
88,148,7611,6,0,P|124:200|136:212,1,75,10|0,0:0|0:0,0:0:0:0:
148,224,8126,5,10,0:0:0:0:
164,240,8640,5,10,0:0:0:0:
180,256,8983,6,0,P|224:292|248:300,1,75,6|0,0:0|0:0,0:0:0:0:
332,308,9326,1,0,0:0:0:0:
408,260,9497,1,0,0:0:0:0:
436,172,9669,6,0,P|456:124|456:96,1,75
280,64,10011,2,0,P|260:112|260:140,1,75
348,156,10354,2,0,P|368:108|368:80,1,75
192,40,10697,2,0,P|172:88|172:116,1,75
256,192,11040,12,4,12411,0:0:0:0:
168,288,12754,6,0,B|136:260|136:260|120:220|152:156,1,150
195,63,13269,2,0,P|222:89|236:124,1,75
252,212,13611,2,0,P|296:256|380:280,1,150
184,160,14126,2,0,P|123:176|112:184,1,75
260,128,14469,2,0,P|276:67|275:53,1,75
184,160,14811,1,0,0:0:0:0:
184,160,14983,2,0,P|144:216|128:296,1,150
40,272,15497,5,10,0:0:0:0:
40,248,15840,6,0,P|40:188|48:160,1,75,2|0,0:0|0:0,0:0:0:0:
48,152,16354,5,2,0:0:0:0:
52,128,16869,5,2,0:0:0:0:
56,104,17211,6,0,P|100:108|128:124,1,75,2|0,0:0|0:0,0:0:0:0:
176,196,17554,2,0,P|220:232|252:236,1,75,8|0,0:0|0:0,0:0:0:0:
316,268,17897,1,0,0:0:0:0:
316,268,18240,6,0,P|356:212|352:132,1,150
220,72,18754,2,0,P|233:106|264:128,1,75
292,60,19097,2,0,P|212:116|176:156,1,150
316,268,19611,2,0,P|384:224|400:208,1,75
384,112,19954,2,0,P|316:156|300:172,1,75
248,208,20297,1,0,0:0:0:0:
232,220,20383,1,0,0:0:0:0:
220,232,20469,2,0,P|172:268|84:288,1,150
80,196,20983,5,6,0:0:0:0:
92,176,21326,6,0,P|112:144|140:112,1,75,2|0,0:0|0:0,0:0:0:0:
156,104,21840,6,0,P|180:98|192:96,4,37.5,2|0|0|0|0,0:0|0:0|0:0|0:0|0:0,0:0:0:0:
216,92,22269,2,0,P|240:86|252:84,4,37.5
276,80,22697,5,0,0:0:0:0:
300,76,23040,5,0,0:0:0:0:
324,72,23383,6,0,P|384:104|408:180,1,150
332,288,23897,2,0,P|321:252|328:216,1,75
231,184,24240,2,0,P|251:153|284:136,1,75
376,136,24583,2,0,P|432:100|440:20,1,150
292,148,25097,2,0,P|328:204|408:212,1,150
224,96,25783,5,2,2:2:0:0:
224,96,26126,6,0,P|164:128|140:204,1,150
215,312,26640,2,0,P|225:276|219:239,1,75
316,208,26983,2,0,P|296:176|263:159,1,75
172,160,27326,2,0,P|116:124|108:44,1,150
256,172,27840,2,0,P|232:220|216:232,1,75
132,272,28183,1,0,0:0:0:0:
132,272,28354,1,0,0:0:0:0:
132,272,28526,6,0,P|176:308|196:308,1,75
272,264,28869,2,0,P|272:176|320:144,1,150
336,220,29383,2,0,P|248:220|216:172,1,150
420,224,29897,1,0,0:0:0:0:
420,224,30069,1,0,0:0:0:0:
420,224,30240,6,0,P|332:224|300:176,1,150
376,160,30754,2,0,P|376:248|328:280,1,150
264,220,31269,1,0,0:0:0:0:
196,276,31440,1,0,0:0:0:0:
128,216,31611,6,0,P|100:184|72:116,2,112.5
196,276,32297,2,0,P|237:267|310:277,2,112.5
112,304,32983,1,0,0:0:0:0:
112,304,33154,1,0,0:0:0:0:
64,176,33326,1,0,0:0:0:0:
64,176,33497,1,0,0:0:0:0:
120,52,33669,5,2,0:0:0:0:
392,52,34011,1,2,0:0:0:0:
120,136,34354,6,0,P|108:184|164:272,1,150,4|0,0:0|0:0,0:0:0:0:
232,216,34869,2,0,P|264:208|304:224,1,75
376,256,35211,1,0,0:0:0:0:
340,112,35383,1,8,0:0:0:0:
232,216,35554,1,8,0:0:0:0:
232,216,35897,6,0,P|188:228|160:224,2,75
316,180,36411,1,0,0:0:0:0:
316,180,36497,1,0,0:0:0:0:
316,180,36583,1,0,0:0:0:0:
304,268,36754,2,0,P|312:320|312:344,1,75,8|8,0:0|0:0,0:0:0:0:
136,168,37269,6,0,P|132:128|120:96,1,75
48,40,37611,1,0,0:0:0:0:
60,196,37783,2,0,P|96:240|112:248,1,75
192,292,38126,1,0,0:0:0:0:
280,272,38297,2,0,L|316:280,2,37.5
216,208,38640,2,0,P|196:152|196:132,1,75
376,144,38983,2,0,B|392:184|392:184|387:207|387:207|408:244|408:288,1,150,0|4,0:0|0:0,0:0:0:0:
124,292,39840,5,0,0:0:0:0:
124,292,40011,2,0,P|116:240|120:200,1,75
144,132,40354,1,0,0:0:0:0:
80,68,40526,2,0,L|44:56,2,37.5
168,48,40869,2,0,P|220:40|244:48,1,75,10|10,0:0|0:0,0:0:0:0:
260,56,41383,5,0,0:0:0:0:
280,188,41554,1,0,0:0:0:0:
340,68,41726,1,0,0:0:0:0:
220,128,41897,1,0,0:0:0:0:
352,148,42069,1,0,0:0:0:0:
200,208,42240,2,0,P|168:236|148:264,1,75,10|10,0:0|0:0,0:0:0:0:
136,280,42754,5,0,0:0:0:0:
84,208,42926,1,0,0:0:0:0:
140,136,43097,1,0,0:0:0:0:
76,72,43269,1,0,0:0:0:0:
76,72,43354,1,0,0:0:0:0:
76,72,43440,1,0,0:0:0:0:
164,52,43611,5,0,0:0:0:0:
164,52,43783,2,0,P|240:56|292:104,1,150
296,284,44469,2,0,L|360:216,1,75
264,200,44811,2,0,L|212:144,1,75
292,104,45154,1,4,0:0:0:0:
312,192,47383,5,2,2:1:0:0:
200,192,47554,1,2,2:1:0:0:
312,192,47726,1,2,2:1:0:0:
200,192,47897,6,0,P|164:228|152:324,1,150,2|0,0:0|0:0,0:0:0:0:
240,120,48411,2,0,P|226:70|212:52,1,75,0|0,0:0|0:0,0:0:0:0:
280,192,48754,2,0,P|329:205|352:201,1,75,0|0,0:0|0:0,0:0:0:0:
448,48,49097,2,0,P|398:34|375:38,1,75,0|0,0:0|0:0,0:0:0:0:
296,80,49440,2,0,B|316:140|376:140|376:140|408:108,1,150
492,128,49954,2,0,L|440:184,1,75
376,244,50297,1,8,0:0:0:0:
236,272,50469,1,8,0:0:0:0:
236,132,50640,6,0,P|304:76|360:52,1,150
316,188,51154,2,0,P|284:216|252:232,1,75
120,96,51497,2,0,P|152:68|184:52,1,75
236,132,51840,2,0,P|204:160|172:176,1,75
92,212,52183,6,0,L|20:248,1,75,8|0,0:0|0:0,0:0:0:0:
152,272,52526,2,0,L|140:348,1,75,8|0,0:0|0:0,0:0:0:0:
232,252,52869,2,0,L|276:316,1,75,10|10,0:0|0:0,0:0:0:0:
392,176,53383,6,0,P|428:140|440:44,1,150,0|8,0:0|0:0,0:0:0:0:
352,248,53897,2,0,P|365:297|380:315,1,75,0|8,0:0|0:0,0:0:0:0:
312,176,54240,2,0,P|262:162|239:166,1,75,0|8,0:0|0:0,0:0:0:0:
144,320,54583,2,0,P|193:333|216:329,1,75,0|8,0:0|0:0,0:0:0:0:
296,288,54926,2,0,B|276:228|216:228|216:228|184:260,1,150
100,240,55440,2,0,L|152:184,1,75
216,124,55783,1,8,0:0:0:0:
384,60,55954,1,8,0:0:0:0:
384,60,56297,5,0,0:0:0:0:
384,324,56640,1,0,0:0:0:0:
128,324,56983,1,0,0:0:0:0:
128,60,57326,1,0,0:0:0:0:
256,192,57669,6,0,P|292:216|392:188,1,150
324,128,58183,1,0,0:0:0:0:
236,104,58354,2,0,P|197:123|171:223,1,150
320,84,58869,2,0,P|300:45|200:19,1,150,12|8,0:0|0:0,0:0:0:0:
152,132,59383,5,0,0:0:0:0:
236,104,59554,1,8,0:0:0:0:
304,216,59726,5,0,0:0:0:0:
220,188,59897,1,8,0:0:0:0:
156,304,60069,5,0,0:0:0:0:
240,276,60240,1,8,0:0:0:0:
324,248,60411,2,0,L|468:196,1,150
476,108,60926,2,0,L|364:148,1,112.5
328,164,61269,1,8,0:0:0:0:
196,200,61440,1,8,0:0:0:0:
236,72,61611,6,0,P|288:48|372:84,1,150
208,148,62126,2,0,P|168:116|156:88,1,75
328,164,62469,2,0,P|368:196|380:224,1,75
312,336,62811,2,0,P|272:304|260:276,1,75
176,252,63154,6,0,L|104:288,1,75,10|0,0:0|0:0,0:0:0:0:
160,176,63497,2,0,L|80:164,1,75,10|0,0:0|0:0,0:0:0:0:
192,104,63840,2,0,L|140:48,1,75,10|8,0:0|0:0,0:0:0:0:
255,191,64354,6,0,P|303:247|376:257,1,150,14|8,0:0|0:0,0:0:0:0:
388,76,64869,2,0,P|360:44|328:28,1,75,2|8,0:0|0:0,0:0:0:0:
308,116,65211,2,0,P|336:148|368:164,1,75,2|8,0:0|0:0,0:0:0:0:
488,52,65554,2,0,P|460:20|428:4,1,75,2|8,0:0|0:0,0:0:0:0:
320,40,65897,5,2,0:0:0:0:
320,40,65983,1,0,0:0:0:0:
320,40,66069,2,0,P|284:44|252:64,1,75,8|2,0:0|0:0,0:0:0:0:
180,120,66411,1,12,0:0:0:0:
316,240,66754,6,0,P|352:236|384:216,1,75
456,160,67097,1,0,0:0:0:0:
240,264,67440,6,0,P|225:297|226:334,1,75
316,340,67783,1,0,0:0:0:0:
316,240,67954,1,0,0:0:0:0:
232,348,68126,1,0,0:0:0:0:
400,288,68297,1,0,0:0:0:0:
256,184,68469,1,0,0:0:0:0:
316,340,68640,5,4,0:0:0:0:
316,340,69326,5,4,0:0:0:0:
316,340,70011,5,4,0:0:0:0:
300,236,70354,1,0,0:0:0:0:
196,248,70697,1,0,0:0:0:0:
212,352,71040,1,0,0:0:0:0:
316,340,71383,1,0,0:0:0:0:
180,328,71726,1,0,0:0:0:0:
196,192,72069,1,0,0:0:0:0:
332,204,72412,1,0,0:0:0:0:
316,340,72754,6,0,L|248:296,1,75
336,264,73097,2,0,L|404:220,1,75
316,188,73440,2,0,L|248:144,1,75
336,112,73783,2,0,L|404:68,1,75
316,36,74126,6,0,L|280:20,2,37.5
256,88,74469,2,0,L|216:96,2,37.5
232,164,74811,2,0,L|208:192,2,37.5
256,244,75154,1,4,0:0:0:0:
256,244,75497,6,0,L|256:164,1,75,4|0,0:0|0:0,0:0:0:0:
256,88,75840,1,2,0:0:0:0:
200,240,76183,2,0,L|164:308,1,75,2|0,0:0|0:0,0:0:0:0:
312,240,76526,2,0,L|348:308,1,75,8|2,0:0|0:0,0:0:0:0:
360,324,77211,5,2,0:0:0:0:
372,344,77554,6,0,P|400:316|424:288,1,75,2|0,0:0|0:0,0:0:0:0:
388,204,77897,2,0,P|360:232|336:260,1,75,0|0,0:0|0:0,0:0:0:0:
280,328,78240,5,0,0:0:0:0:
260,340,78583,5,10,0:0:0:0:
240,352,78926,6,0,L|196:292,1,75,2|0,0:0|0:0,0:0:0:0:
152,212,79268,1,0,0:0:0:0:
152,120,79440,5,2,0:0:0:0:
172,112,79954,5,2,0:0:0:0:
192,104,80297,6,0,P|232:88|268:80,1,75,2|0,0:0|0:0,0:0:0:0:
348,112,80640,1,0,0:0:0:0:
404,184,80811,1,0,0:0:0:0:
432,272,80983,2,0,P|440:296|440:312,4,37.5
424,252,81668,6,0,P|388:200|376:188,1,75,10|0,0:0|0:0,0:0:0:0:
364,176,82183,5,10,0:0:0:0:
348,160,82697,5,10,0:0:0:0:
332,144,83040,6,0,P|288:108|264:100,1,75,6|0,0:0|0:0,0:0:0:0:
180,92,83383,1,0,0:0:0:0:
104,140,83554,1,0,0:0:0:0:
76,228,83726,6,0,P|56:276|56:304,1,75
232,336,84068,2,0,P|252:288|252:260,1,75
164,244,84411,2,0,P|144:292|144:320,1,75
320,360,84754,2,0,P|340:312|340:284,1,75
256,192,85097,12,0,86468,0:0:0:0:
196,116,86811,6,0,P|156:172|160:252,1,150
292,312,87325,2,0,P|279:278|248:256,1,75
220,324,87668,2,0,P|300:268|336:228,1,150
196,116,88182,2,0,P|128:160|112:176,1,75
128,272,88525,2,0,P|196:228|212:212,1,75
264,176,88868,1,0,0:0:0:0:
276,164,88954,1,0,0:0:0:0:
288,152,89040,2,0,P|336:116|424:96,1,150
432,188,89554,5,6,0:0:0:0:
420,208,89897,6,0,P|400:240|372:272,1,75,2|0,0:0|0:0,0:0:0:0:
148,180,90411,5,2,0:0:0:0:
152,156,90926,5,2,0:0:0:0:
156,132,91268,6,0,P|200:136|228:152,1,75,2|0,0:0|0:0,0:0:0:0:
276,224,91611,2,0,P|320:260|352:264,1,75,8|0,0:0|0:0,0:0:0:0:
412,292,91954,1,0,0:0:0:0:
452,132,92297,5,4,0:0:0:0:
132,52,92983,5,0,0:0:0:0:
360,112,93669,5,4,0:0:0:0:
232,316,94354,5,0,0:0:0:0:
308,276,94526,5,0,0:0:0:0:
324,268,94611,1,0,0:0:0:0:
340,260,94697,2,0,P|388:232|416:208,1,75
468,156,95040,1,14,0:0:0:0:
300,132,95383,2,0,P|256:156|240:176,1,75,0|8,0:0|0:0,0:0:0:0:
376,100,95726,2,0,P|377:49|367:26,1,75
364,180,96069,5,0,0:0:0:0:
260,328,96411,1,0,0:0:0:0:
108,228,96754,1,0,0:0:0:0:
212,80,97096,1,0,0:0:0:0:
220,296,97440,6,0,P|160:264|136:188,1,150
212,80,97954,2,0,P|223:116|216:152,1,75
313,184,98297,2,0,P|293:215|260:232,1,75
168,232,98640,2,0,P|112:268|104:348,1,150
252,220,99154,2,0,P|216:164|136:156,1,150
320,272,99840,5,2,2:2:0:0:
320,272,100183,6,0,P|380:240|404:164,1,150
329,56,100697,2,0,P|319:92|325:129,1,75
228,160,101040,2,0,P|248:192|281:209,1,75
372,208,101383,2,0,P|428:244|436:324,1,150
288,196,101897,2,0,P|312:148|328:136,1,75
412,96,102240,1,0,0:0:0:0:
412,96,102411,1,0,0:0:0:0:
412,96,102583,6,0,P|368:60|348:60,1,75
272,104,102926,2,0,P|272:192|224:224,1,150
208,148,103440,2,0,P|296:148|328:196,1,150
124,144,103954,1,0,0:0:0:0:
124,144,104126,1,0,0:0:0:0:
124,144,104297,6,0,P|212:144|244:192,1,150
168,208,104811,2,0,P|168:120|216:88,1,150
280,148,105326,1,0,0:0:0:0:
348,92,105497,1,0,0:0:0:0:
416,152,105668,6,0,P|444:184|472:252,2,112.5,0|4|0,0:0|0:0|0:0,0:0:0:0:
348,92,106354,2,0,P|307:101|234:91,2,112.5,0|4|0,0:0|0:0|0:0,0:0:0:0:
432,64,107040,1,0,0:0:0:0:
432,64,107211,1,0,0:0:0:0:
480,192,107383,1,0,0:0:0:0:
480,192,107554,1,0,0:0:0:0:
424,316,107726,5,2,0:0:0:0:
152,316,108068,1,2,0:0:0:0:
424,232,108411,6,0,P|436:184|380:96,1,150
312,152,108926,2,0,P|280:160|240:144,1,75
168,112,109268,1,0,0:0:0:0:
204,256,109440,1,8,0:0:0:0:
312,152,109611,1,8,0:0:0:0:
312,152,109954,6,0,P|356:140|384:144,2,75
228,188,110468,1,0,0:0:0:0:
228,188,110554,1,0,0:0:0:0:
228,188,110640,1,0,0:0:0:0:
240,100,110811,2,0,P|232:48|232:24,1,75,8|8,0:0|0:0,0:0:0:0:
408,200,111326,6,0,P|412:240|424:272,1,75
496,328,111668,1,0,0:0:0:0:
484,172,111840,2,0,P|448:128|432:120,1,75
352,76,112183,1,0,0:0:0:0:
264,96,112354,2,0,L|228:88,2,37.5
328,160,112697,2,0,P|348:216|348:236,1,75
168,224,113040,2,0,B|156:196|156:196|164:168|164:168|148:128|144:64,1,150,0|4,0:0|0:0,0:0:0:0:
352,76,113897,5,0,0:0:0:0:
352,76,114068,2,0,P|360:128|356:168,1,75
332,236,114411,1,0,0:0:0:0:
396,300,114583,2,0,L|432:312,2,37.5,2|0|0,0:0|0:0|0:0,0:0:0:0:
308,320,114926,2,0,P|256:328|232:320,1,75,10|8,0:0|0:0,0:0:0:0:
216,312,115440,5,0,0:0:0:0:
196,180,115611,1,0,0:0:0:0:
136,300,115783,1,0,0:0:0:0:
256,240,115954,1,2,0:0:0:0:
124,220,116126,1,0,0:0:0:0:
276,160,116297,2,0,P|308:132|328:104,1,75,10|8,0:0|0:0,0:0:0:0:
340,88,116811,5,0,0:0:0:0:
392,160,116983,1,0,0:0:0:0:
336,232,117154,1,0,0:0:0:0:
400,296,117326,1,0,0:0:0:0:
400,296,117411,1,0,0:0:0:0:
400,296,117497,1,0,0:0:0:0:
312,316,117668,5,0,0:0:0:0:
312,316,117840,2,0,P|236:312|184:264,1,150
180,84,118526,2,0,L|116:152,1,75
212,168,118868,2,0,L|264:224,1,75
184,264,119211,1,4,0:0:0:0:
312,192,121440,5,2,2:1:0:0:
200,192,121611,1,2,2:1:0:0:
312,192,121783,1,2,2:1:0:0:
200,192,121954,6,0,P|164:156|152:60,1,150,14|8,0:0|0:0,0:0:0:0:
240,264,122468,2,0,P|226:314|212:332,1,75,0|8,0:0|0:0,0:0:0:0:
280,192,122811,2,0,P|329:179|352:183,1,75,0|8,0:0|0:0,0:0:0:0:
448,336,123154,2,0,P|398:350|375:346,1,75,0|8,0:0|0:0,0:0:0:0:
296,304,123497,2,0,B|316:244|376:244|376:244|408:276,1,150
492,256,124011,2,0,L|440:200,1,75
376,140,124354,1,8,0:0:0:0:
224,104,124526,1,8,0:0:0:0:
236,252,124697,6,0,P|304:308|360:332,1,150
316,196,125211,2,0,P|284:168|252:152,1,75
120,288,125554,2,0,P|152:316|184:332,1,75
236,252,125897,2,0,P|204:224|172:208,1,75
92,172,126240,6,0,L|20:136,1,75,10|0,0:0|0:0,0:0:0:0:
152,116,126583,2,0,L|140:40,1,75,10|0,0:0|0:0,0:0:0:0:
232,132,126926,2,0,L|276:68,1,75,10|8,0:0|0:0,0:0:0:0:
392,208,127440,6,0,P|428:244|440:340,1,150,10|8,0:0|0:0,0:0:0:0:
352,136,127954,2,0,P|365:87|380:69,1,75,2|8,0:0|0:0,0:0:0:0:
312,208,128297,2,0,P|262:222|239:218,1,75,2|8,0:0|0:0,0:0:0:0:
144,64,128640,2,0,P|193:51|216:55,1,75,2|8,0:0|0:0,0:0:0:0:
296,96,128983,2,0,B|276:156|216:156|216:156|184:124,1,150,2|0,0:0|0:0,0:0:0:0:
100,144,129497,2,0,L|152:200,1,75
216,260,129840,1,8,0:0:0:0:
384,324,130011,1,12,0:0:0:0:
384,324,130354,5,0,0:0:0:0:
384,60,130697,1,0,0:0:0:0:
128,60,131040,1,0,0:0:0:0:
128,324,131383,1,0,0:0:0:0:
256,192,131726,6,0,P|292:168|392:196,1,150
324,256,132240,1,0,0:0:0:0:
236,280,132411,2,0,P|197:261|171:161,1,150
320,300,132926,2,0,P|300:339|200:365,1,150,14|8,0:0|0:0,0:0:0:0:
152,252,133440,5,2,0:0:0:0:
236,280,133611,1,8,0:0:0:0:
304,168,133783,5,2,0:0:0:0:
220,196,133954,1,8,0:0:0:0:
156,80,134126,5,2,0:0:0:0:
240,108,134297,1,8,0:0:0:0:
324,136,134468,2,0,L|468:188,1,150,2|0,0:0|0:0,0:0:0:0:
476,276,134983,2,0,L|364:236,1,112.5
328,220,135326,1,10,0:0:0:0:
196,184,135497,1,8,0:0:0:0:
236,312,135668,6,0,P|288:336|372:300,1,150
208,236,136183,2,0,P|168:268|156:296,1,75
328,220,136526,2,0,P|368:188|380:160,1,75
312,48,136868,2,0,P|272:80|260:108,1,75
176,132,137211,6,0,L|104:96,1,75,10|0,0:0|0:0,0:0:0:0:
160,208,137554,2,0,L|80:220,1,75,10|0,0:0|0:0,0:0:0:0:
192,280,137897,2,0,L|140:336,1,75,10|12,0:0|0:0,0:0:0:0:
255,193,138411,6,0,P|303:137|376:127,1,150
388,308,138926,2,0,P|360:340|328:356,1,75
308,268,139268,2,0,P|336:236|368:220,1,75
488,332,139611,2,0,P|460:364|428:380,1,75
320,344,139954,5,0,0:0:0:0:
320,344,140040,1,0,0:0:0:0:
320,344,140126,2,0,P|284:340|252:320,1,75
180,264,140468,1,4,0:0:0:0:
316,144,140811,6,0,P|352:148|384:168,1,75
456,224,141154,1,0,0:0:0:0:
240,120,141497,6,0,P|225:87|226:50,1,75
316,44,141840,1,0,0:0:0:0:
316,144,142011,1,0,0:0:0:0:
232,36,142183,1,0,0:0:0:0:
400,96,142354,1,0,0:0:0:0:
256,200,142526,1,0,0:0:0:0:
316,44,142697,5,0,0:0:0:0:
316,44,142869,2,0,P|280:88|256:108,1,75
192,152,143211,1,0,0:0:0:0:
176,240,143383,1,0,0:0:0:0:
176,240,143469,1,0,0:0:0:0:
176,240,143554,1,0,0:0:0:0:
248,296,143726,2,0,P|288:320|320:324,2,75
304,144,159154,6,0,P|352:72|412:48,1,150,4|0,0:0|0:0,0:0:0:0:
240,192,159669,2,0,P|153:186|102:146,2,150,4|0|0,0:0|0:0|0:0,0:0:0:0:
320,232,160526,1,0,0:0:0:0:
320,232,160697,2,0,P|356:272|368:312,1,75,0|8,0:0|0:0,0:0:0:0:
276,312,161040,1,8,0:0:0:0:
188,208,161211,5,0,0:0:0:0:
320,232,161383,1,0,0:0:0:0:
196,288,161554,1,0,0:0:0:0:
264,172,161726,1,0,0:0:0:0:
196,288,161897,2,0,L|136:344,1,75,10|0,0:0|0:0,0:0:0:0:
188,208,162240,2,0,L|96:204,1,75,10|0,0:0|0:0,0:0:0:0:
216,132,162583,2,0,L|156:84,1,75,10|0,0:0|0:0,0:0:0:0:
268,72,162926,1,12,0:0:0:0:
400,220,163440,5,0,0:0:0:0:
312,236,163611,1,0,0:0:0:0:
340,152,163783,1,0,0:0:0:0:
372,304,163954,2,0,P|352:344|324:364,1,75
184,264,164297,2,0,P|204:224|228:208,1,75
312,236,164640,2,0,P|292:276|264:296,1,75,10|0,0:0|0:0,0:0:0:0:
124,196,164983,2,0,P|144:156|172:136,1,75,10|0,0:0|0:0,0:0:0:0:
228,208,165326,2,0,B|208:276|144:272|124:336,1,150,10|0,0:0|0:0,0:0:0:0:
336,164,166183,5,0,0:0:0:0:
336,164,166269,1,0,0:0:0:0:
336,164,166354,2,0,P|320:216|312:236,1,75
404,124,166697,2,0,P|457:111|478:108,1,75
336,84,167040,1,4,0:0:0:0:
336,84,167554,5,0,0:0:0:0:
336,84,167640,1,0,0:0:0:0:
336,84,167726,2,0,P|276:104|264:116,1,75
272,292,168069,2,0,P|332:272|344:260,1,75
240,200,168411,2,0,P|184:224|148:260,1,112.5,4|0,0:0|0:0,0:0:0:0:
132,276,168754,6,0,P|125:342|192:343,1,150,4|0,0:0|0:0,0:0:0:0:
200,220,169269,2,0,P|201:153|267:159,1,150,4|0,0:0|0:0,0:0:0:0:
280,276,169783,2,0,P|273:342|340:343,1,150,4|0,0:0|0:0,0:0:0:0:
384,232,170297,2,0,P|450:233|444:299,1,150,4|0,0:0|0:0,0:0:0:0:
356,340,170811,1,0,0:0:0:0:
336,336,170897,1,0,0:0:0:0:
316,332,170983,2,0,B|276:312|276:312|280:276|280:276|228:240|244:144,1,225,0|4,0:0|0:0,0:0:0:0:
312,192,176297,5,2,2:1:0:0:
200,192,176468,1,2,2:1:0:0:
312,192,176640,1,2,2:1:0:0:
200,192,176811,6,0,P|164:228|152:324,1,150,2|0,0:0|0:0,0:0:0:0:
240,120,177325,2,0,P|226:70|212:52,1,75,0|0,0:0|0:0,0:0:0:0:
280,192,177668,2,0,P|329:205|352:201,1,75,0|0,0:0|0:0,0:0:0:0:
448,48,178011,2,0,P|398:34|375:38,1,75,0|0,0:0|0:0,0:0:0:0:
296,80,178354,2,0,B|316:140|376:140|376:140|408:108,1,150
492,128,178868,2,0,L|440:184,1,75
376,244,179211,1,8,0:0:0:0:
228,276,179383,1,8,0:0:0:0:
236,132,179554,6,0,P|304:76|360:52,1,150
316,188,180068,2,0,P|284:216|252:232,1,75
120,96,180411,2,0,P|152:68|184:52,1,75
236,132,180754,2,0,P|204:160|172:176,1,75
92,212,181097,6,0,L|20:248,1,75,8|0,0:0|0:0,0:0:0:0:
152,272,181440,2,0,L|140:348,1,75,8|0,0:0|0:0,0:0:0:0:
232,252,181783,2,0,L|276:316,1,75,10|8,0:0|0:0,0:0:0:0:
392,176,182297,6,0,P|428:140|440:44,1,150
352,248,182811,2,0,P|365:297|380:315,1,75,0|0,0:0|0:0,0:0:0:0:
312,176,183154,2,0,P|262:162|239:166,1,75,0|0,0:0|0:0,0:0:0:0:
144,320,183497,2,0,P|193:333|216:329,1,75,0|0,0:0|0:0,0:0:0:0:
296,288,183840,2,0,B|276:228|216:228|216:228|184:260,1,150
100,240,184354,2,0,L|152:184,1,75
216,124,184697,1,8,0:0:0:0:
384,60,184868,1,8,0:0:0:0:
384,60,185211,5,0,0:0:0:0:
128,60,185554,1,0,0:0:0:0:
128,324,185897,1,0,0:0:0:0:
384,324,186240,1,0,0:0:0:0:
256,192,186583,6,0,P|292:216|392:188,1,150
324,128,187097,1,0,0:0:0:0:
236,104,187268,2,0,P|197:123|171:223,1,150
320,84,187783,2,0,P|300:45|200:19,1,150,14|8,0:0|0:0,0:0:0:0:
152,132,188297,5,2,0:0:0:0:
236,104,188468,1,8,0:0:0:0:
304,216,188640,5,2,0:0:0:0:
220,188,188811,1,8,0:0:0:0:
156,304,188983,5,2,0:0:0:0:
240,276,189154,1,8,0:0:0:0:
324,248,189326,2,0,L|464:196,1,150,2|0,0:0|0:0,0:0:0:0:
476,108,189840,2,0,L|364:148,1,112.5
328,164,190183,1,8,0:0:0:0:
196,200,190354,1,8,0:0:0:0:
236,72,190526,6,0,P|288:48|372:80,1,150,10|8,0:0|0:0,0:0:0:0:
208,148,191040,2,0,P|168:116|156:88,1,75,2|8,0:0|0:0,0:0:0:0:
328,164,191383,2,0,P|368:196|380:224,1,75,2|8,0:0|0:0,0:0:0:0:
312,336,191725,2,0,P|272:304|260:276,1,75,2|8,0:0|0:0,0:0:0:0:
176,252,192068,6,0,L|104:288,1,75,10|0,0:0|0:0,0:0:0:0:
160,176,192411,2,0,L|80:164,1,75,10|0,0:0|0:0,0:0:0:0:
192,104,192754,2,0,L|140:48,1,75,10|8,0:0|0:0,0:0:0:0:
255,191,193268,6,0,P|303:247|376:257,1,150,4|0,0:0|0:0,0:0:0:0:
388,76,193783,2,0,P|360:44|328:28,1,75
308,116,194125,2,0,P|336:148|368:164,1,75
488,52,194468,2,0,P|460:20|428:4,1,75
320,40,194811,5,0,0:0:0:0:
320,40,194897,1,0,0:0:0:0:
320,40,194983,2,0,P|284:44|252:64,1,75
180,120,195325,1,4,0:0:0:0:
316,240,195668,6,0,P|352:236|384:216,1,75
456,160,196011,1,0,0:0:0:0:
240,264,196354,6,0,P|225:297|226:334,1,75
316,340,196697,1,0,0:0:0:0:
316,240,196868,1,0,0:0:0:0:
232,348,197040,1,0,0:0:0:0:
400,288,197211,1,0,0:0:0:0:
272,192,197383,1,0,0:0:0:0:
316,340,197554,5,4,0:0:0:0:
316,340,198240,5,0,0:0:0:0:
316,340,198925,5,4,0:0:0:0:
332,236,199268,1,0,0:0:0:0:
436,248,199611,1,0,0:0:0:0:
420,352,199954,1,0,0:0:0:0:
316,340,200297,1,0,0:0:0:0:
452,328,200640,1,0,0:0:0:0:
436,192,200983,1,0,0:0:0:0:
300,204,201326,1,0,0:0:0:0:
316,340,201668,6,0,L|384:296,1,75
296,264,202011,2,0,L|228:220,1,75
316,188,202354,2,0,L|384:144,1,75
296,112,202697,2,0,L|228:68,1,75
316,36,203040,6,0,L|352:20,2,37.5
376,88,203383,2,0,L|416:96,2,37.5
400,164,203725,2,0,L|424:192,2,37.5
376,244,204068,1,4,0:0:0:0:
256,244,204411,6,0,L|256:164,1,75,4|0,0:0|0:0,0:0:0:0:
256,88,204754,1,2,0:0:0:0:
312,240,205097,2,0,L|348:308,1,75,2|0,0:0|0:0,0:0:0:0:
200,240,205440,2,0,L|164:308,1,75,8|2,0:0|0:0,0:0:0:0:
152,324,206125,5,2,0:0:0:0:
140,344,206468,6,0,P|112:316|88:288,1,75,2|0,0:0|0:0,0:0:0:0:
124,204,206811,2,0,P|152:232|176:260,1,75,0|0,0:0|0:0,0:0:0:0:
232,328,207154,5,0,0:0:0:0:
252,340,207497,5,10,0:0:0:0:
272,352,207840,6,0,L|316:292,1,75,2|0,0:0|0:0,0:0:0:0:
360,212,208182,1,0,0:0:0:0:
360,120,208354,5,2,0:0:0:0:
340,112,208868,5,2,0:0:0:0:
320,104,209211,6,0,P|280:88|244:80,1,75,2|0,0:0|0:0,0:0:0:0:
164,112,209554,1,0,0:0:0:0:
108,184,209725,1,0,0:0:0:0:
80,272,209897,2,0,P|72:296|76:344,2,75
88,252,210582,6,0,P|124:200|136:188,1,75,10|0,0:0|0:0,0:0:0:0:
148,176,211097,5,10,0:0:0:0:
164,160,211611,5,10,0:0:0:0:
180,144,211954,6,0,P|224:108|248:100,1,75,6|0,0:0|0:0,0:0:0:0:
332,92,212297,1,0,0:0:0:0:
408,140,212468,1,0,0:0:0:0:
436,228,212640,6,0,P|456:276|456:304,1,75
280,336,212982,2,0,P|260:288|260:260,1,75
348,244,213325,2,0,P|368:292|368:320,1,75
192,360,213668,2,0,P|172:312|172:284,1,75
256,192,214011,12,0,215211,0:0:0:0:
256,192,215383,5,12,0:0:0:0:
