osu file format v9

[General]
AudioFilename: mitani nana shiroi yuki no princess wa.mp3
AudioLeadIn: 0
PreviewTime: 60645
Countdown: 0
SampleSet: Soft
StackLeniency: 0.6
Mode: 0
LetterboxInBreaks: 0

[Editor]
Bookmarks: 5295,21031,42631,61831,90631,112231,131431,150631,160081,190231,213031,232081,249178,259231
DistanceSpacing: 1.2
BeatDivisor: 4
GridSize: 4

[Metadata]
Title:Shiroi Yuki no Princess ha ...
Artist:Mitani Nana
Creator:karenying
Version:Collab
Source:Noboru-P
Tags:noboru vocaloid vocaloid2 hatsune miku bakabaka

[Difficulty]
HPDrainRate:7
CircleSize:4
OverallDifficulty:6
ApproachRate:9
SliderMultiplier:1.4
SliderTickRate:2

[Events]
//Background and Video events
0,0,"BG.jpg"
//Break Periods
2,81078,90028
2,150678,159478
//Storyboard Layer 0 (Background)
//Storyboard Layer 1 (Fail)
//Storyboard Layer 2 (Pass)
//Storyboard Layer 3 (Foreground)
//Storyboard Sound Samples
//Background Colour Transformations
3,100,163,162,255

[TimingPoints]
5428,300,4,2,1,70,1,0
6478,-100,4,2,1,70,0,1
6553,-100,4,2,1,70,0,0
16078,-133.333333333333,4,2,1,70,0,0
16528,-133.333333333333,4,1,1,60,0,0
17503,-133.333333333333,4,2,1,70,0,0
18328,-133.333333333333,4,1,1,50,0,0
18628,-100,4,2,1,70,0,0
58528,-100,4,1,1,40,0,0
59128,-200,4,2,1,70,0,0
61828,-100,4,2,1,70,0,1
70303,-100,4,1,1,60,0,1
70603,-100,4,1,1,70,0,1
70978,-100,4,2,1,70,0,1
71353,-100,4,2,1,70,0,0
71428,-100,4,2,1,70,0,1
76003,-100,4,2,1,60,0,1
76228,-100,4,2,1,70,0,1
80878,-100,4,2,1,70,0,0
98953,-200,4,2,1,70,0,0
99103,-200,4,2,1,5,0,0
99478,-200,4,2,1,70,0,0
100153,-100,4,2,1,70,0,0
128728,-100,4,2,1,60,0,0
128878,-100,4,2,1,50,0,0
129028,-100,4,2,1,70,0,0
131428,-100,4,2,1,70,0,1
139978,-100,4,1,1,60,0,1
140203,-100,4,1,1,70,0,1
140578,-100,4,2,1,70,0,1
140953,-100,4,2,1,70,0,0
141028,-100,4,2,1,70,0,1
150478,-100,4,2,1,70,0,0
172078,-200,4,2,1,70,0,0
180478,-133.333333333333,4,2,1,70,0,0
181828,-100,4,2,1,70,0,0
188428,-100,4,1,1,70,0,0
188878,-100,4,1,1,60,0,0
189028,-133.333333333333,4,2,1,50,0,0
189478,-133.333333333333,4,2,1,40,0,0
189553,-133.333333333333,4,2,1,50,0,0
190078,-133.333333333333,4,2,1,40,0,0
190153,-133.333333333333,4,2,1,50,0,0
191053,-200,4,2,2,40,0,0
208153,-100,4,2,1,70,0,0
208753,-100,4,1,1,35,0,0
209053,-100,4,1,1,40,0,0
209353,-100,4,1,1,45,0,0
209653,-100,4,1,1,50,0,0
209953,-100,4,1,1,55,0,0
210253,-100,4,1,1,60,0,0
210553,-100,4,2,1,70,0,0
211678,-200,4,2,1,70,0,0
212878,-100,4,2,1,70,0,0
213028,-100,4,2,1,70,0,1
221728,-100,4,2,1,50,0,1
222178,-100,4,2,1,60,0,1
222478,-100,4,2,1,70,0,1
222553,-100,4,2,1,70,0,0
222628,-100,4,2,1,70,0,1
231253,-100,4,1,1,55,0,1
231778,-100,4,2,1,70,0,1
232078,-100,4,2,1,70,0,0
241003,-100,4,1,1,50,0,0
241153,-100,4,2,1,70,0,0
253528,-100,4,1,1,50,0,0
253753,-100,4,2,1,70,0,0
254803,-100,4,2,1,5,0,0

[Colours]
Combo1 : 255,128,128
Combo2 : 151,225,253
Combo3 : 172,172,172
Combo4 : 130,202,197

[HitObjects]
420,184,6478,6,0,B|368:232|288:208,1,140,4|0
252,132,6928,2,0,B|220:116|184:124,2,70,8|0|0
96,228,7528,1,8
180,236,7678,2,0,B|184:280|144:324|84:312,1,140
96,228,8128,2,0,B|96:188|132:168,1,70,8|0
180,236,8428,2,0,B|252:244|300:304,1,140,0|8
348,372,8878,5,0
432,224,9178,1,0
412,144,9328,2,0,B|368:145|345:107,1,70,8|0
420,68,9628,2,0,B|348:64|276:68,1,140,0|8
196,72,10078,6,0,B|136:84|112:124,1,70,4|0
76,160,10378,1,0
48,240,10528,1,8
132,100,10678,6,0,B|126:160|158:195,1,70,4|0
183,239,10978,1,0
252,287,11128,1,8
336,288,11278,6,0,B|408:260|428:188,1,140,4|0
448,108,11728,2,0,B|488:116|504:152,1,70,8|0
364,132,12028,2,0,B|296:144|224:96,1,140,0|8
164,52,12478,1,0
24,148,12778,1,0
104,172,12928,2,0,B|128:200|124:252,1,70,8|0
40,240,13228,2,0,B|184:304,1,140,0|8
244,332,13678,6,0,B|300:360|348:296|300:252,1,140,4|0
252,196,14128,1,8
336,180,14278,1,0
415,200,14428,2,0,B|409:248|352:275|306:258,1,140,0|8
408,116,14878,6,0,B|404:72|444:40,2,70,4|0|0
492,112,15328,1,8
408,116,15478,2,0,B|371:141|324:122,2,70,4|0|0
364,44,15928,1,8
268,176,16078,6,0,B|208:140|184:220|116:172,1,157.499995306134,4|0
44,88,16978,1,0
32,196,17428,2,0,B|-6:254|73:281|22:347,2,157.499995306134
236,100,18628,6,0,B|300:72,1,70,4|2
300,72,19678,2,0,B|172:128,1,140,4|0
92,156,20128,1,8
92,156,20278,1,0
120,236,20428,1,8
120,236,20578,1,0
152,312,20728,2,0,B|180:380,1,70,4|0
268,276,21028,6,0,B|200:247,1,70,6|0
348,248,21328,2,0,B|416:277,1,70,8|0
412,192,21628,1,2
332,164,21778,1,0
348,248,21928,2,0,B|360:296|332:336,1,70,8|0
268,276,22228,6,0,B|216:216|248:144,1,140,2|8
120,120,22678,2,0,B|138:194|76:244,2,140,2|8|2
168,280,23578,5,0
244,244,23728,2,0,B|280:236|340:244,1,70,8|0
428,312,24028,2,0,B|392:320|332:312,1,70,2|0
168,196,24328,2,0,B|194:170|250:148,1,70,8|0
304,128,24628,1,2
388,124,24778,1,2
388,124,24853,1,0
388,124,24928,6,0,B|416:168|464:184,1,70,8|0
352,316,25378,2,0,B|344:240|260:196,1,140,8|4
64,252,25978,1,0
64,252,26128,6,0,B|133:283|213:232,1,140,8|2
256,34,26578,2,0,B|196:79|200:156,2,140,0|2|0
256,34,27328,1,8
292,200,27628,5,2
216,236,27778,1,0
216,236,27853,1,0
216,236,27928,1,8
368,244,28078,1,0
144,188,28378,5,0
208,316,28528,1,8
292,200,28678,1,0
124,108,28828,2,0,B|76:124|52:172,1,70,2|0
84,308,29128,2,0,B|132:292|156:244,1,70,8|0
299,84,29428,6,0,B|224:108|200:176,1,140,2|8
240,316,29878,2,0,B|315:292|339:224,1,140,2|0
360,144,30328,1,8
428,208,30478,5,0
428,208,30553,1,0
428,208,30628,1,4
428,292,30778,1,0
360,144,30928,1,8
360,252,31078,1,0
232,148,31228,2,0,B|272:164|288:220,1,70,2|0
240,316,31528,2,0,B|200:300|184:244,1,70,8|0
132,88,31828,6,0,B|72:104|72:104|76:144|36:176,1,140,2|8
100,336,32278,2,0,B|160:320|160:320|156:280|196:248,1,140,2|0
276,244,32728,1,8
164,172,32878,1,4
412,208,33178,5,0
356,272,33328,2,0,B|336:312|344:344,1,70,8|0
480,260,33628,2,0,B|500:220|492:188,1,70,2|0
400,48,33928,2,0,B|332:88|340:172,1,140,8|2
412,208,34378,1,0
248,192,34528,5,8
340,256,34678,2,0,B|356:320|296:340|296:340|236:328,1,140,0|8
68,296,35278,6,0,B|140:300|216:264,1,140,4|0
280,232,35728,1,8
100,168,36028,2,0,B|136:192|188:192,2,70,2|0|8
40,108,36478,2,0,B|88:56|180:48,1,140,0|0
184,48,36853,1,0
204,48,36928,1,8
312,176,37228,6,0,B|272:184|216:156,1,70,2|0
312,216,37528,2,0,B|388:212|456:252,1,140,8|4
118,197,38128,5,8
143,324,38278,1,0
200,208,38428,1,0
81,268,38578,1,8
218,287,38728,2,0,B|268:268|280:216,1,70,8|0
244,104,39028,5,2
336,192,39178,1,0
364,84,39328,1,8
424,164,39478,1,0
456,84,39628,2,0,B|500:108|508:152,1,70,0|8
424,320,39928,2,0,B|380:296|372:252,1,70,8|0
368,252,40153,1,0
360,232,40228,1,2
388,136,40378,1,0
308,80,40528,6,0,B|280:116|280:156,1,70,8|0
176,196,40828,2,0,B|159:170|159:130,1,70,0|8
52,216,41128,2,0,B|64:260|104:288,1,70,8|0
256,288,41428,5,2
256,288,41578,1,0
256,96,41728,1,8
256,96,41878,1,0
316,192,42028,2,0,B|352:184|384:140,1,70,2|0
196,192,42328,2,0,B|160:200|128:244,1,70,8|0
373,153,42628,6,0,B|409:106|451:148|495:94,1,140,4|8
426,44,43078,2,0,B|400:76|398:107|407:144|454:170,1,140,0|0
505,223,43528,1,8
362,311,43828,2,0,B|295:278|299:338|224:308,1,140,2|8
144,292,44278,1,0
144,292,44578,5,0
88,232,44728,2,0,B|116:200|164:212,1,70,8|0
180,132,45028,2,0,B|216:196|300:180,1,140,2|8
336,304,45478,2,0,B|300:240|216:256,1,140,0|0
256,332,45928,5,8
408,256,46228,1,2
320,116,46528,1,8
240,88,46678,2,0,B|176:120|104:104,1,140,0|0
103,103,47053,1,0
103,103,47128,1,8
44,36,47278,1,0
100,208,47428,6,0,B|96:272|160:300|160:300|192:296,1,140,4|8
324,320,47878,2,0,B|328:256|264:228|264:228|232:232,1,140
184,296,48328,1,8
444,72,48628,6,0,B|424:164|424:164|428:188|428:212,1,140,2|8
404,292,49078,1,0
260,208,49378,1,0
220,136,49528,2,0,B|160:168|186:210|184:220|127:260,2,140,8|2|8
304,132,50278,2,0,B|380:136|440:100,1,140
368,56,50728,6,0,B|328:56|304:32,1,70,8|0
420,192,51028,2,0,B|460:192|484:216,1,70,4|0
237,65,51328,2,0,B|173:32,1,70,4|0
445,281,51628,2,0,B|509:314,1,70,4|0
304,133,51928,2,0,B|234:169,1,70,4|0
248,324,52228,6,0,B|324:319|373:250,1,140,4|8
288,225,52678,2,0,B|238:259|150:257,1,140,2|0
74,226,53128,1,8
272,152,53428,2,0,B|316:132|380:184|361:233,1,140,2|4
288,224,53878,2,0,B|324:156|396:144,1,140,0|0
480,132,54328,1,4
196,116,54628,6,0,B|112:132|44:104,1,140,2|4
267,189,55228,2,0,B|335:177|399:197,1,105,0|0
392,196,55528,1,4
476,220,55678,1,0
404,264,55828,2,0,B|376:188|416:128,1,140,8|4
456,56,56278,1,8
292,72,56578,5,8
220,116,56728,1,4
292,72,56878,1,0
220,116,57028,2,0,B|168:156|80:132,1,140,2|8
12,92,57478,1,0
156,300,57778,5,0
156,300,57928,1,8
226,242,58078,2,0,B|276:176|219:116,1,140,2|0
163,52,58528,1,0
220,116,58678,1,0
163,52,58828,2,0,B|114:50|85:20,1,70
276,58,59128,6,0,B|324:59|353:89,1,70,0|4
341,78,60028,1,2
388,128,60628,5,2
364,216,60928,1,2
280,256,61228,2,0,B|240:264|212:288,1,70,2|2
56,228,61828,6,0,B|120:236|120:236|168:236|192:184,1,140,4|8
224,124,62278,1,0
280,256,62428,2,0,B|272:212|292:172,1,70
420,100,62728,2,0,B|428:144|408:184,1,70,8|0
384,335,63028,6,0,B|360:336|340:320|340:320|368:284|360:232,1,140,2|8
175,180,63628,2,0,B|200:180|220:196|220:196|192:232|200:284,1,140,2|8
92,192,64078,1,0
92,192,64153,1,0
92,192,64228,2,0,B|64:148|80:112,1,70,2|0
176,180,64528,6,0,B|212:224|204:272|204:272|164:312,1,140,8|0
100,344,64978,1,0
312,260,65128,5,8
280,336,65278,1,0
432,180,65428,6,0,B|464:232|456:276|456:276|416:316,1,140,4|8
228,272,66028,1,2
60,288,66328,1,8
192,180,66628,5,6
148,340,66778,1,0
80,188,66928,2,0,B|56:136|80:100,1,70,8|0
224,49,67228,2,0,B|240:128|192:180,1,140,0|8
224,49,67678,1,0
312,128,67828,6,0,B|279:190|315:263,1,140,2|8
364,332,68278,1,0
436,288,68428,1,2
436,288,68503,1,0
436,288,68578,1,0
315,262,68728,1,8
428,204,68878,1,2
268,192,69028,2,0,B|216:184|188:208|188:208|180:240|144:256,1,140,4|8
104,180,69478,5,8
100,348,69778,1,8
28,196,70078,1,8
154,251,70228,5,0
232,224,70378,1,0
232,224,70453,1,0
232,224,70528,1,0
312,192,70678,1,0
312,192,70753,1,0
312,192,70828,1,0
300,276,70978,5,2
168,160,71128,1,8
180,300,71278,1,2
312,192,71428,2,0,B|352:132|312:48,1,140,4|8
232,60,71878,1,0
192,132,72028,2,0,B|180:176|200:212,1,70
120,296,72328,2,0,B|132:252|112:216,1,70,8|0
80,152,72628,5,2
256,288,72928,1,8
432,152,73228,1,2
328,108,73378,1,0
264,220,73528,5,8
356,188,73678,1,2
356,188,73753,1,0
356,188,73828,2,0,B|420:240|396:324,1,140,4|8
112,280,74428,2,0,B|110:204|185:170,1,140,2|8
296,344,74878,6,0,B|220:332|200:253,1,140,4|0
184,171,75328,1,8
260,136,75478,1,0
260,136,75553,1,0
260,136,75628,1,8
336,100,75778,1,0
300,212,75928,1,8
440,144,76078,5,8
440,180,76153,1,8
440,216,76228,2,0,B|440:264|420:296,1,70,8|2
296,300,76528,2,0,B|308:253|336:227,1,70,8|0
268,152,76828,2,0,B|220:200|132:200,1,140,2|8
56,188,77278,1,0
140,199,77428,1,2
308,72,77728,5,8
204,88,77878,1,0
212,260,78178,5,2
300,280,78328,1,8
192,288,78478,1,8
320,252,78628,2,0,B|380:224|440:256|440:256|448:312|388:352,2,210,4|2|4
248,292,79678,1,2
176,248,79828,6,8,B|144:322|60:298,1,140,2|2
336,136,80428,2,8,B|368:62|452:86,1,140,0|2
256,192,80878,1,4
420,172,90628,6,0,B|424:128|444:104,1,70,4|0
332,228,90928,2,0,B|328:272|308:296,1,70,8|0
252,232,91228,1,2
399,288,91378,1,0
352,152,91528,2,0,B|423:172,1,70,8|0
284,92,91828,6,0,B|248:112|200:100,1,70,2|0
40,180,92128,1,8
40,180,92278,2,0,B|112:152|184:176,2,140,0|8|0
224,296,93178,6,0,B|256:316|292:312,2,70,0|8|0
268,224,93628,2,0,B|236:204|200:208,1,70,2|0
352,248,93928,1,8
268,224,94078,1,0
308,105,94228,6,0,B|332:172,1,70,2|0
352,248,94528,1,8
408,188,94678,2,0,B|457:133|473:65,2,140,0|8|2
240,204,95578,1,0
168,244,95728,2,0,B|120:264|70:260|70:260|48:228,1,140,8|2
16,148,96178,2,0,B|60:136|96:160,1,70,0|8
228,296,96478,2,0,B|276:276|325:279|325:279|348:312,1,140,2|0
424,348,96928,1,8
388,184,97228,6,0,B|379:137|402:101,1,70,2|0
400,100,97453,1,0
408,84,97528,1,8
476,48,97678,2,0,B|416:96|344:80,1,140,2|0
268,48,98128,1,8
184,32,98278,1,0
32,112,98428,1,2
116,96,98578,1,0
116,96,98653,1,0
116,96,98728,2,0,B|144:124|152:156,1,70,8|0
143,264,99028,6,0,B|127:294|74:300|52:274,1,105,2|2
372,192,100228,6,0,B|360:156|320:136,1,70,4|0
162,116,100528,2,0,B|180:152|212:164,1,70,8|0
288,212,100828,2,0,B|256:224|236:264,1,70,2|0
248,84,101128,2,0,B|260:48|300:28,1,70,8|0
124,180,101428,6,0,B|88:204|80:244|80:244|108:280|120:320,1,140,2|8
184,372,101878,2,0,B|220:348|228:308|228:308|200:272|188:232,2,140,2|0|4
280,236,102778,2,0,B|268:204|232:164,1,70,0|8
188,116,103078,1,0
140,52,103228,2,0,B|103:84|107:118,1,70,2|0
189,117,103528,2,0,B|225:84|221:50,1,70,8|0
277,156,103828,6,0,B|331:178|379:155,1,105,2|0
379,155,104128,1,8
480,108,104278,2,0,B|440:128|432:196|456:232,1,140,0|8
248,316,104878,6,0,B|179:299|108:308,1,140,2|0
91,311,105253,1,0
74,316,105328,1,8
204,208,105628,6,0,B|244:196|280:164,1,70,2|0
200,124,105928,1,8
120,156,106078,2,0,B|36:124|4:68,1,140,2|0
8,75,106453,1,0
8,75,106528,1,8
336,136,106828,5,2
407,91,106978,1,0
369,168,107128,2,0,B|344:192|308:216,1,70,8|4
68,216,107578,5,0
88,296,107728,1,8
168,316,107878,1,0
224,252,108028,1,0
204,172,108178,1,8
124,144,108328,2,0,B|140:96|200:76|244:100,1,140,8|2
308,148,108778,5,0
388,28,108928,1,8
452,156,109078,1,0
312,64,109228,1,0
460,72,109378,1,8
376,194,109528,2,0,B|368:264,1,70,8|0
324,332,109828,6,0,B|404:332,1,70,2|0
244,276,110128,2,0,B|164:276,1,70,8|0
376,195,110428,2,0,B|456:195,1,70,0|8
176,112,110728,2,0,B|96:112,1,70,8|0
124,260,111028,5,4
124,260,111178,2,0,B|152:240|196:236,1,70,0|8
388,124,111478,1,0
388,124,111628,2,0,B|360:144|316:148,1,70,4|0
200,120,111928,1,8
256,196,112078,1,0
256,196,112153,1,0
256,196,112228,6,0,B|296:260|296:260|328:296|368:296,1,140,4|8
428,260,112678,1,0
388,124,112828,5,0
364,204,112978,1,0
428,260,113128,2,0,B|472:240|472:240|496:192|484:136,1,140,8|2
296,76,113728,6,0,B|248:96|248:96|232:140,1,70,8|0
256,268,114028,2,0,B|275:219|275:219|256:177,1,70
188,176,114328,2,0,B|148:204|148:204|100:192|80:140,1,140,8|2
172,284,114928,5,8
256,268,115078,1,0
188,176,115228,2,0,B|144:176|120:152,1,70,0|0
268,104,115528,2,0,B|352:108|404:164,2,140,8|2|8
184,92,116278,1,2
256,244,116578,1,0
340,256,116728,2,0,B|380:264|412:292,1,70,8|2
200,308,117028,6,0,B|120:304|72:248,1,140,4|8
192,224,117478,2,0,B|124:180|111:108,1,140,0|0
272,260,117928,1,8
280,176,118078,5,0
284,156,118153,1,0
292,136,118228,2,0,B|308:56|396:16,1,140,2|8
360,184,118678,2,0,B|413:122|510:132,1,140,0|0
484,130,119128,5,8
448,224,119278,1,0
408,312,119428,1,2
256,240,119728,5,8
236,160,119878,1,0
216,80,120028,1,0
200,176,120178,1,2
116,100,120328,6,0,B|80:84|44:88,1,70,8|0
116,280,120628,2,0,B|152:296|188:292,1,70,4|0
300,136,120928,2,0,B|260:140|231:161,1,70,4|0
324,288,121228,2,0,B|363:283|392:262,1,70,4|0
440,68,121528,2,0,B|408:116|408:116|416:164|464:180,1,140,2|4
300,136,122128,6,0,B|288:96|248:76,1,70,8|0
180,52,122428,1,2
152,188,122578,1,0
120,112,122728,1,8
92,248,122878,1,0
152,304,123028,6,0,B|196:316|196:316|240:300|260:252,1,140,2|4
344,244,123478,1,0
344,160,123628,2,0,B|300:172|300:172|256:156|236:108,2,140,2|4|0
424,132,124378,1,2
444,124,124453,1,0
464,116,124528,1,4
360,80,124678,1,0
376,232,124828,6,0,B|324:248|324:248|300:300,1,105,0|2
288,328,125128,1,4
432,292,125278,1,0
128,288,125428,6,0,B|180:272|180:272|212:224|212:224|212:176,1,140,8|4
128,200,125878,2,0,B|84:184|84:184|72:136|96:84,1,140,8|8
172,120,126328,1,4
300,228,126628,6,0,B|300:192|300:192|336:152|400:160,1,140,2|8
476,180,127078,1,0
416,240,127228,1,2
408,260,127303,1,0
412,280,127378,1,0
476,180,127528,2,0,B|488:124|460:96,1,70,8|0
392,80,127828,5,8
348,152,127978,1,8
292,72,128128,1,8
232,168,128278,1,8
168,60,128428,1,8
96,180,128578,1,0
176,280,128728,5,8
176,280,128803,1,8
176,280,128878,1,8
176,280,128953,1,8
176,280,129028,1,4
340,252,129328,1,2
184,192,129628,1,4
332,164,129928,5,2
256,124,130078,1,0
184,84,130228,1,4
412,152,130528,1,4
120,284,130828,1,4
184,192,130978,1,0
248,264,131128,1,2
292,192,131278,1,0
332,344,131428,6,0,B|308:304|324:268|324:268|348:256|368:224,1,140,4|8
292,192,131878,1,0
168,112,132028,2,0,B|175:146|203:170,1,70,0|0
367,225,132328,1,8
275,27,132628,6,0,B|244:24|216:36|216:36|248:56|260:100,1,140,2|8
201,161,133078,1,0
144,224,133228,2,0,B|156:268|188:288|188:288|160:300|128:296,1,140,2|8
44,284,133678,1,0
68,204,133828,6,0,B|92:168|72:120,1,70,2|0
144,224,134128,2,0,B|185:211|201:162,1,70,8|0
107,69,134428,2,0,B|67:51|23:79,1,70,2|0
195,179,134728,2,0,B|234:196|278:168,1,70,8|0
39,71,135028,2,0,B|4:96|4:152|4:152|32:196,1,140,4|8
180,272,135628,5,2
348,248,135928,1,2
196,176,136228,2,0,B|160:148|160:148|116:108|136:60,1,140,4|8
210,27,136678,1,0
258,95,136828,2,0,B|289:112|325:116,1,70
328,200,137128,1,8
328,200,137278,6,0,B|264:248|304:324,1,140,2|0
368,272,137728,1,8
416,204,137878,2,0,B|416:124|331:110,1,140,2|0
328,200,138328,2,0,B|288:224|228:208,1,70,8|0
176,200,138628,5,4
12,160,138928,1,8
84,120,139078,1,4
140,280,139378,1,4
8,240,139678,1,4
92,204,139828,5,0
176,200,139978,1,0
176,200,140053,1,0
176,200,140128,1,0
260,196,140278,1,0
260,196,140353,1,0
260,196,140428,1,0
288,276,140578,5,2
241,118,140728,1,8
404,156,140878,1,2
336,104,141028,6,0,B|328:52|280:20|232:28,1,140,4|8
240,116,141478,1,0
336,104,141628,2,0,B|392:96|432:76,1,70
480,52,141928,1,8
492,135,142078,1,0
472,216,142228,5,2
308,252,142528,1,8
464,312,142828,1,2
376,168,143128,1,8
348,340,143278,5,2
348,340,143353,1,0
348,340,143428,2,0,B|276:336|216:292,1,140,4|8
164,44,144028,2,0,B|236:48|296:92,1,140,2|8
376,168,144478,5,4
123,196,144778,1,0
208,180,144928,2,0,B|244:181|261:217,1,70,8|0
75,127,145228,2,0,B|58:94|81:62,1,70,8|0
88,268,145528,2,0,B|67:298|28:295,1,70,8|8
36,312,145753,1,8
48,324,145828,6,0,B|84:333|116:358,1,70,4|2
196,364,146128,2,0,B|195:286|271:257,1,140,8|2
304,180,146578,1,0
240,124,146728,2,0,B|180:177|114:125,1,140,8|2
178,70,147178,2,0,B|201:42|241:42,1,70,0|8
323,48,147478,1,0
377,144,147628,1,0
405,65,147778,1,2
459,159,147928,2,0,B|480:189|491:222,1,70,8|8
391,302,148228,6,0,B|348:317|296:301|296:301|268:266,1,140,4|0
93,307,148678,2,0,B|136:292|188:308|188:308|216:343,1,140,4|0
215,342,149128,1,4
268,266,149278,1,0
226,192,149428,6,0,B|148:204|116:161|116:112,1,140,4|2
325,202,150028,2,0,B|403:190|435:233|435:282,1,140,4|2
268,266,150478,1,4
176,140,160078,6,0,B|220:188|308:180,1,140,4|0
388,168,160528,1,8
336,104,160678,1,0
296,208,160828,5,2
420,184,160978,1,0
336,88,161128,1,8
296,208,161278,2,0,B|292:256|268:284|268:284|236:304|184:288,1,140,2|0
188,212,161728,6,0,B|144:200|96:212,1,70,8|0
36,288,162028,2,0,B|80:300|128:288,1,70,0|2
188,212,162328,1,8
256,300,162478,1,4
336,88,162778,6,0,B|392:100,5,35,2|0|8|0|0|0
404,104,163228,5,10
400,132,163303,1,0
392,160,163378,1,0
308,312,163528,1,10
304,292,163603,1,0
300,272,163678,1,8
248,132,163828,1,2
240,120,163903,1,0
228,112,163978,1,0
216,108,164053,1,0
204,104,164128,1,8
192,104,164203,1,0
180,104,164278,1,8
168,108,164353,1,0
156,116,164428,6,0,B|104:144|120:204|120:204|88:264,1,140,4|8
148,328,164878,2,0,B|192:252|192:252|220:252|244:228,1,140,4|0
316,196,165328,5,8
188,180,165478,1,0
388,239,165628,5,8
312,280,165778,1,0
464,196,165928,2,0,B|496:224|504:280,1,70,8|4
312,280,166378,6,0,B|280:252|272:196,1,70,2|8
160,268,166678,2,0,B|146:227|167:175,1,70,0|0
52,180,166978,2,0,B|60:138|104:103,2,70,8|8|2
160,200,167428,5,4
175,206,167503,1,0
190,213,167578,1,0
205,220,167653,1,0
220,226,167728,1,8
235,233,167803,1,0
250,240,167878,1,0
265,247,167953,1,0
280,253,168028,2,0,B|304:308,3,35,2|0|8|0
312,296,168328,2,0,B|348:248,3,35,8|0|2|0
344,248,168628,5,4
356,232,168703,1,0
368,212,168778,1,0
380,192,168853,1,0
392,172,168928,1,8
404,152,169003,1,0
416,132,169078,1,0
428,112,169153,1,0
436,92,169228,2,0,B|424:48,3,35,2|0|8|0
404,48,169528,2,0,B|356:76,3,35,8|0|2|0
352,76,169828,5,4
328,84,169903,1,0
304,96,169978,1,0
280,104,170053,1,0
256,112,170128,2,0,B|220:120|168:96,1,70,8|0
256,272,170428,2,0,B|292:264|344:288,1,70,8|0
184,204,170728,1,8
328,180,170878,1,8
256,272,171028,5,4
256,112,171328,1,2
336,260,171628,1,2
176,124,171928,1,2
340,164,172228,6,0,B|388:188|456:172,1,105,4|0
440,104,172828,1,8
300,104,173128,1,0
240,232,173428,6,0,B|216:288|164:308,1,105,2|0
104,276,174028,1,8
240,232,174328,1,0
368,292,174628,6,0,B|380:248|372:212,1,70,2|0
428,92,175228,2,0,B|421:117|433:161,1,70,8|0
292,172,175828,1,2
368,292,176128,1,0
220,104,176428,5,8
225,245,176728,1,2
88,272,177028,6,0,B|48:236|48:172,1,105,4|0
48,108,177628,1,8
156,260,177928,1,0
380,312,178228,6,0,B|329:341|278:325,1,105,2|0
212,304,178828,1,8
384,240,179128,1,0
236,132,179428,6,0,B|251:97|283:83,1,70,2|0
444,204,180028,2,0,B|418:234|385:240,1,70,8|0
200,168,180628,6,0,B|184:132|204:104,1,52.4999984353781,4|8
168,264,180928,2,0,B|184:300|164:328,1,52.4999984353781,0|8
96,188,181228,2,0,B|71:157|83:125,1,52.4999984353781,2|8
268,248,181528,2,0,B|296:276|276:308|324:348,1,104.999996870756,8|2
448,232,182128,5,8
372,264,182278,1,0
184,252,182578,1,2
264,224,182728,1,8
340,188,182878,1,0
460,112,183028,6,0,B|400:116|400:116|388:100|388:100|316:108,1,140,2|4
244,120,183478,1,0
52,272,183628,2,0,B|112:268|112:268|124:284|124:284|196:276,1,140,2|4
268,264,184078,1,0
324,200,184228,6,0,B|408:212|432:312,1,140,2|4
348,324,184678,1,0
268,352,184828,2,0,B|208:352|172:292,1,105,2|0
156,268,185128,1,4
164,184,185278,1,0
240,224,185428,2,0,B|320:224|368:148,1,140,8|4
308,92,185878,2,0,B|380:72|460:92,1,140,8|8
444,172,186328,1,4
308,92,186628,6,0,B|264:80|224:88,1,70,2|0
168,220,186928,2,0,B|212:232|252:224,1,70,8|0
376,296,187378,6,0,B|340:324|296:324,1,70,0|8
172,252,187678,2,0,B|208:224|252:224,1,70,0|2
320,216,187978,1,0
356,140,188128,2,0,B|372:108|356:72,1,70,8|8
232,36,188428,5,0
280,104,188578,1,0
220,160,188728,1,0
208,172,188803,1,0
192,180,188878,1,0
176,184,188953,1,0
160,184,189028,6,0,B|112:216|120:260,2,78.7499976530672,4|2|8
216,260,189628,2,0,B|216:304|252:328,2,78.7499976530672,8|2|8
308,252,190228,1,4
376,76,191128,5,0
376,76,191203,1,0
376,76,191278,1,0
376,76,191353,1,0
376,76,191428,2,0,B|308:68|304:96|236:80,1,140,2|2
128,56,192628,1,2
152,164,193228,1,2
248,224,193828,2,0,B|296:240|356:220,1,105,2|0
351,221,194428,2,0,B|384:200|424:204,1,70,2|0
404,280,195028,1,2
216,332,195628,6,0,B|180:316|144:312,2,70,2|0|2
288,244,196828,2,0,B|328:220|348:188,1,70,2|0
340,198,197428,2,0,B|376:184|412:188,1,70,2|0
449,199,197878,1,2
260,120,198478,5,0
260,120,198628,1,2
168,84,198928,1,0
168,84,199078,2,0,B|128:80|100:40,2,70,2|2|2
136,208,200428,6,0,B|112:268|160:280|136:348,2,140,0|2|0
192,80,202228,1,2
256,48,202528,2,0,B|300:40|336:56,1,70,0|2
392,76,203128,1,0
452,116,203428,2,0,B|476:184|456:256,1,140,2|2
408,304,204328,1,0
408,304,204478,1,2
304,296,204928,2,0,B|276:228,1,70,0|2
251,166,205528,1,0
191,129,205828,6,0,B|139:153|79:121,1,105,2|0
148,60,206428,2,0,B|200:36|260:68,1,105,2|0
249,62,207028,1,2
312,92,207328,1,0
312,92,207478,1,2
376,124,207778,1,0
376,124,207928,1,0
440,156,208228,6,0,B|484:180|484:260|436:280,1,140,4|0
276,268,208828,1,0
392,216,209128,1,0
332,324,209428,1,0
312,200,209728,1,0
396,288,210028,1,0
276,268,210328,1,0
392,216,210628,5,4
248,92,211078,1,4
204,276,211528,1,4
64,56,211828,5,2
124,124,212128,1,2
196,176,212428,2,0,B|228:200|264:188,1,70,2|2
396,292,213028,6,0,B|400:248|400:248|344:228|348:160,1,140,4|8
432,168,213478,1,0
264,192,213628,2,0,B|268:244|304:276,1,70
332,104,213928,6,0,B|304:24|208:40,1,140,8|2
144,68,214378,1,0
112,84,214453,1,0
80,100,214528,2,0,B|72:152|128:180,1,70,8|0
256,168,214828,2,0,B|214:135|162:169,1,70,2|0
108,288,215128,2,0,B|157:268|153:206,1,70,8|0
236,248,215428,5,2
348,260,215578,1,0
384,264,215653,1,0
420,268,215728,1,8
336,192,215878,1,0
288,292,216028,5,2
420,268,216178,1,0
336,192,216328,1,8
404,120,216478,1,2
248,140,216628,6,0,B|197:173|209:224|209:224|264:212,2,140,4|8|2
84,248,217528,2,0,B|135:215|123:164|123:164|68:176,1,140,4|0
52,96,217978,6,0,B|152:72,1,70,2|8
84,248,218278,1,0
164,228,218428,2,0,B|264:204,1,70,2|0
208,308,218728,1,8
304,284,218878,2,0,B|384:280|428:216,1,140,2|0
432,136,219328,1,8
356,32,219478,6,0,B|319:103|352:173,1,140,2|0
276,208,219928,2,0,B|256:164|200:160,1,70,8|0
144,144,220228,5,4
144,312,220528,1,8
144,312,220678,1,4
308,280,220978,2,0,B|360:252|348:200,1,70,4|8
464,280,221278,6,0,B|416:260|416:200|420:148,1,140,12|2
419,157,221728,1,8
420,72,221878,1,8
420,72,221953,1,8
420,72,222028,1,8
324,192,222178,5,8
336,168,222253,1,8
340,140,222328,1,8
336,112,222403,1,8
324,88,222478,1,8
300,72,222553,1,8
272,68,222628,6,0,B|216:64|192:124|120:64,1,140,4|8
264,144,223078,1,2
324,192,223228,2,0,B|360:217|397:216,1,70,0|2
200,192,223528,2,0,B|164:217|127:216,1,70,8|0
60,252,223828,5,2
56,280,223903,1,0
60,308,223978,1,0
172,300,224128,1,8
200,192,224278,1,0
132,240,224428,5,2
240,276,224578,1,0
408,164,224728,5,8
300,200,224878,1,0
384,272,225028,2,0,B|432:304|424:268|424:268|444:232|488:208,1,140,4|8
320,96,225628,1,8
124,100,225928,1,8
72,164,226078,6,0,B|32:236|88:320,1,140,4|0
208,164,226528,2,0,B|172:172|148:204,1,70,8|0
312,260,226828,2,0,B|284:236|240:240,1,70,8|0
172,280,227128,1,8
248,332,227278,1,8
248,332,227353,1,8
248,332,227428,1,4
356,204,227728,6,0,B|408:208|408:208|448:180,1,70,8|2
288,148,228028,2,0,B|236:152|236:152|200:127|200:127|124:132,1,140,0|8
72,144,228478,1,0
68,228,228628,6,0,B|156:204|200:276,1,140,4|8
444,228,229078,2,0,B|356:204|312:276,1,140,4|0
256,324,229528,1,8
256,240,229678,5,8
256,204,229753,1,8
256,168,229828,2,0,B|256:128|224:88,1,70,4|0
172,48,230128,1,8
336,200,230278,6,0,B|348:168|336:112,1,70,4|0
320,48,230578,1,0
412,240,230728,6,0,B|436:208|440:168,1,70,4|0
440,92,231028,1,4
256,196,231328,2,0,B|256:252,4,35
72,92,231928,1,2
152,112,232078,6,0,B|156:156|96:196|52:176,1,140,4|2
72,92,232528,2,0,B|76:52|112:40,1,70,8|0
152,112,232828,2,0,B|228:112|208:144|288:144,1,140,2|8
368,124,233278,5,2
368,124,233578,1,0
348,204,233728,2,0,B|396:232|392:280|392:280|352:312,2,140,8|4|8
368,124,234478,2,0,B|320:96|324:48|324:48|364:16,1,140,4|0
244,60,234928,6,0,B|228:92|184:96,1,70,8|0
160,176,235228,2,0,B|96:176|96:176|108:180|108:180|44:180,1,140,2|8
84,252,235678,1,2
84,252,235978,2,0,B|128:308,1,70,0|8
204,272,236278,2,0,B|248:272|264:236,1,70,8|0
84,252,236578,2,0,B|40:252|24:288,1,70,0|8
204,272,236878,6,0,B|240:336|328:324,1,140,4|0
396,284,237328,2,0,B|444:292|476:320,1,70,8|0
328,244,237628,2,0,B|292:160|360:108,1,140,2|8
420,68,238078,5,2
420,68,238378,1,0
424,152,238528,2,0,B|408:184|368:196,1,70,8|0
350,116,238828,2,0,B|304:68|220:80,1,140,2|8
144,120,239278,5,2
144,120,239578,1,0
80,176,239728,1,8
48,252,239878,2,0,B|40:304|16:328,2,70,0|2|0
80,176,240328,1,8
304,160,240478,6,0,B|324:112|324:112|352:136|388:96|404:128,1,140,4|0
204,200,240928,2,0,B|176:264,1,70,4|0
175,264,241153,1,0
175,264,241228,1,4
240,60,241378,2,0,B|220:108|220:108|192:84|156:124|140:92,1,140,0|4
20,212,241978,5,0
20,212,242128,2,0,B|48:284,1,70,8|0
72,144,242428,2,0,B|104:72|104:72|136:64|160:36,1,140,2|8
36,24,242878,5,2
36,24,243178,1,2
223,96,243328,2,0,B|204:124|168:136,1,70,8|0
296,160,243628,2,0,B|336:100|428:92,1,140,2|8
408,216,244078,5,2
408,216,244378,1,0
384,300,244528,1,8
464,280,244678,1,0
328,236,244828,2,0,B|284:268|288:336|332:364,1,140,2|8
204,312,245278,5,0
204,312,245428,2,0,B|160:240,1,70
76,160,245728,1,8
200,180,245878,1,8
88,236,246028,1,8
148,124,246178,1,6
360,228,246478,6,0,B|436:198|419:114,1,140,4|0
406,32,246928,1,8
360,228,247228,2,0,B|283:257|300:341,1,140,2|8
370,308,247678,2,0,B|254:232,1,140,4|0
185,180,248128,1,8
185,180,248428,2,0,B|113:136|145:56,1,140,2|8
217,100,248878,6,0,B|265:120|273:164,1,70,4|0
185,180,249178,1,0
253,228,249328,2,0,B|302:213|336:242,1,70,8|0
352,309,249628,2,0,B|376:264|421:261,1,70,2|0
253,228,249928,2,0,B|223:270|178:269,1,70,8|4
129,220,250228,5,0
66,163,250378,1,0
66,163,250528,2,0,B|66:91|66:91|70:103|70:103|70:43,1,140,8|8
154,35,250978,1,8
154,35,251053,1,8
154,35,251128,2,0,B|190:59|230:51,1,70,8|4
312,72,251428,6,0,B|392:60,1,70,0|2
244,152,251728,2,0,B|164:164,1,70,8|0
328,56,252028,2,0,B|408:44,1,70,8|0
232,168,252328,2,0,B|152:180,1,70,8|4
162,178,252628,1,0
28,280,252778,5,2
104,316,252928,1,8
104,316,253078,2,0,B|192:296|264:320,1,140,2|0
324,336,253528,2,0,B|344:340|364:336,2,35
256,192,253828,5,4
184,72,254278,1,4
328,72,254728,1,4
256,192,254803,12,0,259228
