osu file format v14

[General]
AudioFilename: Drum&BassMisun - Eli Eli (Maduk Remix).mp3
AudioLeadIn: 0
PreviewTime: -1
Countdown: 0
SampleSet: None
StackLeniency: 0.7
Mode: 0
LetterboxInBreaks: 1
WidescreenStoryboard: 0

[Editor]
DistanceSpacing: 1.5
BeatDivisor: 4
GridSize: 4
TimelineZoom: 1

[Metadata]
Title:Eli Eli (Maduk Remix)
TitleUnicode:Eli Eli (Maduk Remix)
Artist:Misun
ArtistUnicode:Misun
Creator:Tyl
Version:cupcakes
Source:
Tags:
BeatmapID:765816
BeatmapSetID:346994

[Difficulty]
HPDrainRate:6
CircleSize:4
OverallDifficulty:8.5
ApproachRate:9.3
SliderMultiplier:1.4
SliderTickRate:1

[Events]
//Background and Video events
0,0,"anime-girl-locked-in-chains.jpg",0,0
//Break Periods
2,135964,154975
//Storyboard Layer 0 (Background)
//Storyboard Layer 1 (Fail)
//Storyboard Layer 2 (Pass)
//Storyboard Layer 3 (Foreground)
//Storyboard Sound Samples

[TimingPoints]
235,352.941176470588,4,2,0,100,1,0
28470,-90.9090909090909,4,2,0,100,0,0
34117,-83.3333333333333,4,2,0,100,0,0
39764,-76.9230769230769,4,2,0,100,0,0
43117,-74.0740740740741,4,2,0,100,0,0
43646,-71.4285714285714,4,2,0,100,0,0
44176,-68.9655172413793,4,2,0,100,0,0
44705,-66.6666666666667,4,2,0,100,0,0
45058,-64.5161290322581,4,2,0,100,0,0
45158,-133.333333333333,4,2,0,100,0,0
45411,-133.333333333333,4,2,0,75,0,0
56705,-133.333333333333,4,3,0,50,0,0
57058,-133.333333333333,4,2,0,30,0,0
57411,-133.333333333333,4,3,0,55,0,0
57764,-133.333333333333,4,2,0,30,0,0
58117,-133.333333333333,4,3,0,60,0,0
58470,-133.333333333333,4,2,0,30,0,0
58823,-133.333333333333,4,3,0,65,0,0
59176,-133.333333333333,4,2,0,30,0,0
59529,-133.333333333333,4,3,0,100,0,0
59882,-133.333333333333,4,2,0,30,0,0
60234,-133.333333333333,4,3,0,70,0,0
60587,-133.333333333333,4,2,0,30,0,0
60940,-133.333333333333,4,3,0,75,0,0
61293,-133.333333333333,4,2,0,32,0,0
61646,-133.333333333333,4,3,0,80,0,0
61999,-133.333333333333,4,2,0,30,0,0
62352,-100,4,3,0,80,0,0
62529,-100,4,2,0,30,0,0
62705,-100,4,3,0,80,0,0
62882,-100,4,2,0,30,0,0
63058,-100,4,3,0,80,0,0
63234,-100,4,2,0,30,0,0
63411,-100,4,3,0,80,0,0
63587,-100,4,2,0,30,0,0
63764,-100,4,3,0,80,0,0
63940,-100,4,2,0,30,0,0
64117,-100,4,3,0,80,0,0
64293,-100,4,2,0,30,0,0
64470,-100,4,3,0,80,0,0
64646,-100,4,2,0,30,0,0
64823,-100,4,3,0,80,0,0
64999,-100,4,2,0,30,0,0
65176,-62.5,4,3,0,90,0,0
66587,-62.5,4,3,0,95,0,0
67205,-62.5,4,3,0,99,0,0
67646,-62.5,4,3,0,100,0,0
67999,-62.5,4,3,0,100,0,1
79470,-62.5,4,2,0,100,0,0
79646,-62.5,4,3,0,100,0,0
79823,-62.5,4,2,0,100,0,0
80176,-62.5,4,3,0,100,0,0
80352,-62.5,4,2,0,100,0,0
81058,-62.5,4,3,0,100,0,0
81234,-62.5,4,2,0,100,0,0
81587,-62.5,4,3,0,100,0,0
81764,-62.5,4,2,0,100,0,0
82470,-62.5,4,3,0,100,0,0
82646,-62.5,4,2,0,100,0,0
82999,-62.5,4,3,0,100,0,0
83176,-62.5,4,2,0,100,0,0
83882,-62.5,4,3,0,100,0,0
84058,-62.5,4,2,0,100,0,0
84411,-62.5,4,3,0,100,0,0
85117,-62.5,4,2,0,100,0,0
85293,-62.5,4,3,0,100,0,0
85470,-62.5,4,2,0,100,0,0
85823,-62.5,4,3,0,100,0,0
85999,-62.5,4,2,0,100,0,0
86705,-62.5,4,3,0,100,0,0
86882,-62.5,4,2,0,100,0,0
87234,-62.5,4,3,0,100,0,0
87411,-62.5,4,2,0,100,0,0
87764,-62.5,4,3,0,100,0,0
87940,-62.5,4,2,0,100,0,0
88117,-62.5,4,3,0,100,0,0
88293,-62.5,4,2,0,100,0,0
88470,-62.5,4,3,0,100,0,0
88646,-62.5,4,2,0,100,0,0
88823,-62.5,4,3,0,100,0,0
88999,-62.5,4,2,0,100,0,0
89176,-62.5,4,3,0,100,0,0
90587,-55.5555555555556,4,3,0,100,0,0
96234,-52.6315789473684,4,3,0,100,0,0
110352,-66.6666666666667,4,3,0,100,0,0
110440,-66.6666666666667,4,2,0,100,0,0
110705,-66.6666666666667,4,3,0,100,0,0
110793,-66.6666666666667,4,2,0,100,0,0
111058,-66.6666666666667,4,3,0,100,0,0
111146,-66.6666666666667,4,2,0,100,0,0
111411,-66.6666666666667,4,3,0,100,0,0
111499,-66.6666666666667,4,2,0,100,0,0
111764,-66.6666666666667,4,3,0,100,0,0
111852,-66.6666666666667,4,2,0,100,0,0
112117,-66.6666666666667,4,3,0,100,0,0
112205,-66.6666666666667,4,2,0,100,0,0
112470,-50,4,3,0,100,0,0
112558,-50,4,2,0,100,0,0
112823,-50,4,3,0,100,0,0
113176,-76.9230769230769,4,3,0,100,0,0
125352,-66.6666666666667,4,3,0,100,0,0

[HitObjects]
303,136,22822,6,0,P|354:177|365:197,1,70
316,280,23175,1,0,0:0:0:0:
450,241,23352,2,0,P|462:205|463:166,1,70
332,188,23705,1,0,0:0:0:0:
448,40,23881,1,0,0:0:0:0:
448,40,24058,1,0,0:0:0:0:
163,144,24234,6,0,P|148:194|148:234,1,70
204,296,24587,1,0,0:0:0:0:
239,99,24764,2,0,P|309:100|334:112,1,70
236,200,25117,1,0,0:0:0:0:
460,304,25293,1,0,0:0:0:0:
460,304,25470,1,0,0:0:0:0:
394,75,25646,6,0,P|334:58|295:62,1,70
228,136,25999,1,0,0:0:0:0:
354,203,26175,2,0,P|399:252|407:282,1,70
272,288,26528,1,0,0:0:0:0:
472,112,26705,1,0,0:0:0:0:
472,112,26881,1,0,0:0:0:0:
113,78,27058,6,0,P|138:121|147:152,1,70
80,240,27411,1,0,0:0:0:0:
219,206,27587,2,0,P|266:222|319:223,1,70
240,108,27940,1,0,0:0:0:0:
360,332,28117,1,0,0:0:0:0:
360,332,28293,1,0,0:0:0:0:
348,107,28470,6,0,B|384:104|384:104|425:110,1,77.0000023498536
464,212,28822,1,0,0:0:0:0:
216,93,28999,2,0,B|207:133|207:133|175:192,1,77.0000023498536
88,56,29352,1,0,0:0:0:0:
178,300,29528,1,0,0:0:0:0:
178,300,29705,1,0,0:0:0:0:
328,205,29881,6,0,B|310:168|310:168|302:131,1,77.0000023498536
344,40,30234,1,0,0:0:0:0:
424,208,30411,2,0,B|429:254|429:254|419:303,1,77.0000023498536
340,352,30764,1,0,0:0:0:0:
231,73,30940,1,0,0:0:0:0:
231,73,31117,1,0,0:0:0:0:
79,267,31293,6,0,B|117:263|117:263|163:269,1,77.0000023498536
252,328,31646,1,0,0:0:0:0:
189,157,31822,2,0,B|145:146|145:146|106:119,1,77.0000023498536
231,73,32175,1,0,0:0:0:0:
139,315,32352,1,0,0:0:0:0:
139,315,32528,1,0,0:0:0:0:
367,226,32705,6,0,B|377:186|377:186|401:141,1,77.0000023498536
232,64,33058,1,0,0:0:0:0:
275,290,33234,2,0,B|231:284|231:284|186:256,1,77.0000023498536
276,176,33587,1,0,0:0:0:0:
444,201,33764,1,0,0:0:0:0:
232,64,33940,1,0,0:0:0:0:
190,45,34029,1,0,0:0:0:0:
148,63,34117,6,0,B|151:101|185:111|164:159,1,83.9999974365235
120,256,34470,1,0,0:0:0:0:
432,96,34646,2,0,L|330:89,1,83.9999974365235
276,176,34999,1,0,0:0:0:0:
80,48,35175,1,0,0:0:0:0:
80,48,35352,1,0,0:0:0:0:
276,176,35528,6,0,B|276:217|339:226|333:271,1,83.9999974365235
352,337,35881,1,0,0:0:0:0:
432,96,36058,2,0,L|349:84,1,83.9999974365235
247,132,36411,1,0,0:0:0:0:
482,243,36587,1,0,0:0:0:0:
482,243,36764,1,0,0:0:0:0:
311,334,36940,6,0,B|270:311|248:386|209:333,1,83.9999974365235
172,236,37293,1,0,0:0:0:0:
327,217,37470,2,0,L|419:226,1,83.9999974365235
360,100,37822,1,0,0:0:0:0:
112,300,37999,1,0,0:0:0:0:
112,300,38175,1,0,0:0:0:0:
400,232,38352,6,0,B|420:192|365:167|395:122,1,83.9999974365235
470,94,38705,1,0,0:0:0:0:
305,299,38881,2,0,L|388:303,1,83.9999974365235
320,188,39234,1,0,0:0:0:0:
104,320,39411,1,0,0:0:0:0:
120,116,39587,1,0,0:0:0:0:
135,77,39675,1,0,0:0:0:0:
171,55,39764,6,0,P|216:40|297:60,1,90.9999958343508
224,168,40117,1,0,0:0:0:0:
372,61,40293,2,0,P|400:96|419:138,1,90.9999958343508
388,248,40646,1,0,0:0:0:0:
192,128,40822,1,0,0:0:0:0:
192,128,40999,1,0,0:0:0:0:
127,324,41175,6,0,P|174:341|247:334,1,90.9999958343508
288,256,41528,1,0,0:0:0:0:
104,231,41705,2,0,P|55:296|45:331,1,90.9999958343508
188,264,42058,1,0,0:0:0:0:
44,48,42234,1,0,0:0:0:0:
44,48,42411,1,0,0:0:0:0:
312,180,42587,6,0,P|375:179|442:158,1,90.9999958343508
312,84,42940,1,0,0:0:0:0:
98,260,43117,2,0,P|205:272|229:287,1,94.5000003604889
147,351,43470,1,0,0:0:0:0:
332,252,43646,2,0,P|384:198|386:140,1,97.9999970092774
312,84,43999,5,0,0:0:0:0:
207,284,44175,2,0,P|263:332|326:345,1,101.500003097534
384,280,44528,1,0,0:0:0:0:
122,152,44705,2,0,P|100:224|105:267,1,105.000004005432
346,189,45058,2,0,P|393:146|408:85,1,108.500000827789
85,252,45411,5,0,0:0:0:0:
304,95,46117,1,0,0:0:0:0:
93,146,46822,2,0,P|80:197|92:271,1,108.500000827789
218,150,47528,2,0,P|255:113|304:95,1,105.000004005432
418,250,48234,5,0,0:0:0:0:
418,250,48940,1,0,0:0:0:0:
121,329,49646,2,0,P|120:270|139:207,1,105.000004005432
324,71,50352,2,0,P|370:120|382:178,1,105.000004005432
224,259,51058,5,0,0:0:0:0:
387,126,51764,1,0,0:0:0:0:
139,87,52470,2,0,P|110:131|107:202,1,105.000004005432
310,160,53175,2,0,P|368:200|396:250,1,105.000004005432
189,313,53881,1,0,0:0:0:0:
189,313,54587,1,0,0:0:0:0:
128,128,55293,6,0,B|160:128|160:128|192:80|192:80|224:128|224:128|240:128|240:128|256:128|256:128|288:176|288:176|320:128|320:128|352:128|352:128|352:128,1,315.000012016297
218,205,56705,5,0,0:0:0:0:
265,54,57058,1,0,0:0:0:0:
468,200,57411,5,0,0:0:0:0:
421,351,57764,1,0,0:0:0:0:
241,126,58117,5,0,0:0:0:0:
90,79,58470,1,0,0:0:0:0:
324,248,58822,5,0,0:0:0:0:
475,295,59175,1,0,0:0:0:0:
186,289,59528,6,0,B|150:244|150:244|136:198,1,105.000004005432
392,36,60234,2,0,P|433:84|449:143,1,105.000004005432
68,96,60940,6,0,B|113:60|113:60|159:46,1,105.000004005432
432,144,61646,2,0,P|384:185|325:201,1,105.000004005432
224,52,62352,6,0,P|161:37|125:45,1,70
162,142,62705,2,0,P|104:171|81:200,1,70
385,338,63058,6,0,P|400:275|392:239,1,70
295,276,63411,2,0,P|265:218|236:195,1,70
38,263,63764,6,0,P|71:275|106:278,1,70
100,173,64117,2,0,P|133:161|162:142,1,70
332,48,64470,6,0,P|352:76|364:109,1,70
469,103,64823,2,0,P|466:137|454:170,1,70
214,277,65175,5,0,0:0:0:0:
292,111,65352,1,0,0:0:0:0:
366,252,65528,5,0,0:0:0:0:
168,148,65705,1,0,0:0:0:0:
179,343,65881,5,0,0:0:0:0:
320,157,66058,1,0,0:0:0:0:
87,201,66234,5,0,0:0:0:0:
344,305,66411,1,0,0:0:0:0:
124,233,66587,5,0,0:0:0:0:
87,201,66675,1,0,0:0:0:0:
74,153,66763,1,0,0:0:0:0:
83,105,66851,1,0,0:0:0:0:
113,66,66939,1,0,0:0:0:0:
158,48,67028,1,0,0:0:0:0:
208,50,67116,1,0,0:0:0:0:
240,85,67204,5,0,0:0:0:0:
283,109,67292,1,0,0:0:0:0:
333,110,67381,1,0,0:0:0:0:
382,108,67469,1,0,0:0:0:0:
426,128,67557,1,0,0:0:0:0:
418,168,67645,5,0,0:0:0:0:
222,273,67999,6,0,P|135:246|107:202,1,112
240,85,68352,1,0,0:0:0:0:
306,218,68529,1,0,0:0:0:0:
312,273,68617,1,0,0:0:0:0:
318,329,68705,1,0,0:0:0:0:
472,212,68882,1,0,0:0:0:0:
188,168,69058,2,0,P|129:146|91:105,1,112
368,40,69411,6,0,P|423:43|474:67,1,112
456,288,69764,1,0,0:0:0:0:
276,152,69940,1,0,0:0:0:0:
318,329,70117,2,0,P|238:287|218:248,1,112
92,139,70470,2,0,B|129:86|129:86|190:46,1,112
368,236,70823,6,0,P|436:226|497:186,1,112
276,50,71176,1,0,0:0:0:0:
172,202,71352,1,0,0:0:0:0:
154,255,71440,1,0,0:0:0:0:
153,310,71528,1,0,0:0:0:0:
323,264,71705,1,0,0:0:0:0:
86,116,71882,2,0,B|142:118|142:118|241:101,1,112
402,122,72234,5,0,0:0:0:0:
243,239,72411,1,0,0:0:0:0:
430,250,72587,1,0,0:0:0:0:
301,108,72764,1,0,0:0:0:0:
351,334,72940,1,0,0:0:0:0:
141,212,73117,1,0,0:0:0:0:
345,193,73293,2,0,P|427:175|485:181,1,112
152,32,73646,6,0,P|99:111|97:168,1,112
64,288,73999,1,0,0:0:0:0:
267,263,74176,1,0,0:0:0:0:
317,241,74264,1,0,0:0:0:0:
345,193,74352,1,0,0:0:0:0:
164,92,74529,1,0,0:0:0:0:
267,263,74705,2,0,P|332:296|404:296,1,112
335,142,75058,5,0,0:0:0:0:
210,310,75234,1,0,0:0:0:0:
411,278,75411,1,0,0:0:0:0:
243,118,75587,1,0,0:0:0:0:
270,351,75764,1,0,0:0:0:0:
425,153,75940,1,0,0:0:0:0:
197,197,76117,1,0,0:0:0:0:
142,186,76205,1,0,0:0:0:0:
98,152,76293,1,0,0:0:0:0:
75,102,76381,1,0,0:0:0:0:
78,46,76469,5,0,0:0:0:0:
37,254,76646,1,0,0:0:0:0:
206,69,76823,1,0,0:0:0:0:
178,240,76999,1,0,0:0:0:0:
161,292,77087,1,0,0:0:0:0:
142,345,77175,1,0,0:0:0:0:
322,226,77352,1,0,0:0:0:0:
98,152,77529,1,0,0:0:0:0:
267,227,77705,1,0,0:0:0:0:
322,226,77793,1,0,0:0:0:0:
378,225,77881,5,0,0:0:0:0:
206,69,78058,1,0,0:0:0:0:
161,302,78234,1,0,0:0:0:0:
322,226,78411,1,0,0:0:0:0:
101,147,78587,1,0,0:0:0:0:
310,57,78764,1,0,0:0:0:0:
243,219,78940,1,0,0:0:0:0:
237,246,79028,1,0,0:0:0:0:
232,274,79116,1,0,0:0:0:0:
227,301,79204,1,0,0:0:0:0:
222,329,79292,5,0,0:0:0:0:
379,221,79470,1,0,0:0:0:0:
196,122,79646,2,0,P|152:184|149:257,1,112
222,329,79999,1,0,0:0:0:0:
379,221,80176,2,0,P|387:142|361:61,1,112
299,29,80529,1,0,0:0:0:0:
312,325,80705,5,0,0:0:0:0:
312,325,80882,1,0,0:0:0:0:
172,231,81058,2,0,P|108:188|42:179,1,112
88,304,81411,1,0,0:0:0:0:
188,77,81587,2,0,P|286:118|323:160,1,112
308,224,81940,1,0,0:0:0:0:
472,52,82117,5,0,0:0:0:0:
472,52,82293,1,0,0:0:0:0:
372,296,82470,2,0,P|301:288|236:320,1,112
139,340,82823,1,0,0:0:0:0:
256,140,82999,2,0,B|291:97|291:97|312:29,1,112
196,48,83352,1,0,0:0:0:0:
257,315,83529,5,0,0:0:0:0:
257,315,83705,1,0,0:0:0:0:
349,60,83882,2,0,P|395:130|401:198,1,112
344,248,84234,1,0,0:0:0:0:
149,116,84411,2,0,B|225:98|225:98|258:99,1,112
344,248,84764,1,0,0:0:0:0:
331,301,84852,1,0,0:0:0:0:
318,355,84940,5,0,0:0:0:0:
448,279,85117,1,0,0:0:0:0:
228,86,85293,2,0,P|102:83|70:95,1,112
32,176,85646,1,0,0:0:0:0:
327,271,85823,2,0,P|371:237|397:188,1,112
328,92,86176,1,0,0:0:0:0:
129,331,86352,5,0,0:0:0:0:
129,331,86529,1,0,0:0:0:0:
86,98,86705,2,0,B|126:57|126:57|175:28,1,112
171,163,87058,1,0,0:0:0:0:
328,92,87234,2,0,B|376:68|376:68|433:54,1,112
469,159,87587,1,0,0:0:0:0:
243,331,87764,5,0,0:0:0:0:
288,188,87940,1,0,0:0:0:0:
78,272,88117,2,0,P|95:213|130:168,1,112
328,92,88470,1,0,0:0:0:0:
204,72,88646,1,0,0:0:0:0:
337,258,88823,2,0,P|265:264|227:253,1,112
90,47,89176,5,0,0:0:0:0:
90,47,89352,1,0,0:0:0:0:
112,312,89529,1,0,0:0:0:0:
336,148,89705,1,0,0:0:0:0:
92,184,89882,1,0,0:0:0:0:
306,333,90058,1,0,0:0:0:0:
252,64,90234,1,0,0:0:0:0:
112,312,90587,6,0,L|266:295,1,125.999996154785
159,210,90940,1,0,0:0:0:0:
352,118,91117,1,0,0:0:0:0:
405,123,91205,1,0,0:0:0:0:
452,149,91293,1,0,0:0:0:0:
458,266,91470,1,0,0:0:0:0:
174,80,91646,1,0,0:0:0:0:
174,80,91823,1,0,0:0:0:0:
336,268,91999,6,0,L|192:280,1,125.999996154785
112,312,92352,1,0,0:0:0:0:
272,152,92529,1,0,0:0:0:0:
317,123,92617,1,0,0:0:0:0:
346,78,92705,1,0,0:0:0:0:
230,44,92882,1,0,0:0:0:0:
461,293,93058,1,0,0:0:0:0:
461,293,93234,1,0,0:0:0:0:
444,40,93411,6,0,L|284:32,1,125.999996154785
411,138,93764,1,0,0:0:0:0:
223,205,93940,1,0,0:0:0:0:
173,223,94028,1,0,0:0:0:0:
120,217,94116,1,0,0:0:0:0:
188,102,94293,1,0,0:0:0:0:
286,344,94470,1,0,0:0:0:0:
286,344,94646,1,0,0:0:0:0:
456,240,94823,6,0,L|444:115,2,125.999996154785
292,108,95352,1,0,0:0:0:0:
292,108,95441,1,0,0:0:0:0:
292,108,95529,2,0,L|308:248,1,125.999996154785
136,340,95882,2,0,L|160:176,1,125.999996154785
448,68,96234,6,0,B|384:60|384:60|280:76,1,132.999996448517
427,168,96587,1,0,0:0:0:0:
252,296,96764,1,0,0:0:0:0:
196,289,96852,1,0,0:0:0:0:
149,258,96940,1,0,0:0:0:0:
258,188,97117,1,0,0:0:0:0:
54,85,97293,1,0,0:0:0:0:
54,85,97470,1,0,0:0:0:0:
436,226,97646,6,0,B|404:180|404:180|336:144,1,132.999996448517
313,261,97999,1,0,0:0:0:0:
164,144,98176,1,0,0:0:0:0:
196,98,98264,1,0,0:0:0:0:
246,71,98352,1,0,0:0:0:0:
354,203,98529,1,0,0:0:0:0:
211,302,98705,1,0,0:0:0:0:
199,127,98882,1,0,0:0:0:0:
299,287,99058,6,0,B|353:331|353:331|426:362,1,132.999996448517
436,216,99411,1,0,0:0:0:0:
221,179,99587,1,0,0:0:0:0:
165,186,99675,1,0,0:0:0:0:
113,209,99763,1,0,0:0:0:0:
211,302,99940,1,0,0:0:0:0:
166,39,100117,1,0,0:0:0:0:
166,39,100293,1,0,0:0:0:0:
64,224,100470,6,0,B|40:296|40:296|36:364,2,132.999996448517
216,80,100999,1,0,0:0:0:0:
216,80,101087,1,0,0:0:0:0:
216,80,101176,2,0,B|212:148|212:148|196:216,1,132.999996448517
344,328,101529,2,0,B|348:264|348:264|392:180,1,132.999996448517
212,72,101882,6,0,P|112:104|68:148,1,132.999996448517
48,240,102234,1,0,0:0:0:0:
212,212,102411,1,0,0:0:0:0:
267,201,102499,1,0,0:0:0:0:
322,212,102587,1,0,0:0:0:0:
246,312,102764,1,0,0:0:0:0:
444,272,102940,2,0,P|472:176|448:96,1,132.999996448517
304,128,103293,6,0,P|192:136|132:164,1,132.999996448517
112,276,103646,1,0,0:0:0:0:
256,52,103823,1,0,0:0:0:0:
312,49,103911,1,0,0:0:0:0:
368,56,103999,1,0,0:0:0:0:
458,136,104176,1,0,0:0:0:0:
192,216,104352,2,0,P|104:156|76:116,1,132.999996448517
356,156,104705,6,0,P|352:240|316:312,1,132.999996448517
208,340,105058,1,0,0:0:0:0:
216,128,105234,1,0,0:0:0:0:
236,75,105322,1,0,0:0:0:0:
269,29,105410,1,0,0:0:0:0:
356,156,105587,1,0,0:0:0:0:
128,176,105764,2,0,P|68:136|24:72,1,132.999996448517
308,54,106117,6,0,B|352:48|352:48|396:60|396:60|484:64,2,132.999996448517
76,228,106646,1,0,0:0:0:0:
76,228,106734,1,0,0:0:0:0:
76,228,106823,2,0,B|112:240|112:240|172:228|172:228|252:232,1,132.999996448517
436,316,107176,2,0,B|400:312|400:312|332:336|332:336|272:324,1,132.999996448517
148,88,107529,5,0,0:0:0:0:
148,88,107705,1,0,0:0:0:0:
220,316,107882,1,0,0:0:0:0:
296,148,108058,1,0,0:0:0:0:
319,95,108146,1,0,0:0:0:0:
345,45,108234,1,0,0:0:0:0:
112,264,108411,1,0,0:0:0:0:
320,256,108587,2,0,L|464:232,1,132.999996448517
380,52,108940,5,0,0:0:0:0:
380,52,109117,1,0,0:0:0:0:
168,180,109293,1,0,0:0:0:0:
348,164,109470,1,0,0:0:0:0:
408,168,109558,1,0,0:0:0:0:
464,175,109646,1,0,0:0:0:0:
284,332,109823,1,0,0:0:0:0:
232,64,109999,2,0,L|84:84,1,132.999996448517
151,284,110352,5,0,0:0:0:0:
189,289,110440,1,0,0:0:0:0:
228,285,110528,1,0,0:0:0:0:
265,271,110616,1,0,0:0:0:0:
297,249,110704,1,0,0:0:0:0:
323,219,110793,1,0,0:0:0:0:
340,184,110881,1,0,0:0:0:0:
348,145,110969,1,0,0:0:0:0:
352,111,111058,6,0,L|345:41,1,52.5000020027161
272,32,111234,2,0,L|277:84,1,52.5000020027161
209,125,111411,2,0,L|202:55,1,52.5000020027161
128,50,111587,2,0,L|133:102,1,52.5000020027161
80,161,111764,5,0,0:0:0:0:
105,214,111852,1,0,0:0:0:0:
144,258,111940,1,0,0:0:0:0:
194,290,112028,1,0,0:0:0:0:
250,307,112116,1,0,0:0:0:0:
309,308,112205,1,0,0:0:0:0:
366,293,112293,1,0,0:0:0:0:
417,264,112381,1,0,0:0:0:0:
457,221,112470,6,0,L|476:154,1,70
338,168,112646,2,0,L|268:207,1,70
282,61,112823,1,0,0:0:0:0:
96,320,113176,6,0,B|72:280|72:280|48:200,1,90.9999958343508
120,120,113529,1,0,0:0:0:0:
200,240,113705,1,0,0:0:0:0:
237,265,113793,1,0,0:0:0:0:
281,275,113881,1,0,0:0:0:0:
325,268,113969,1,0,0:0:0:0:
364,244,114057,1,0,0:0:0:0:
472,32,114234,1,0,0:0:0:0:
472,32,114411,1,0,0:0:0:0:
276,192,114587,6,0,B|224:184|224:184|160:204,1,90.9999958343508
92,308,114940,1,0,0:0:0:0:
120,120,115117,1,0,0:0:0:0:
143,81,115205,1,0,0:0:0:0:
179,55,115293,1,0,0:0:0:0:
223,44,115381,1,0,0:0:0:0:
268,50,115469,1,0,0:0:0:0:
380,332,115646,1,0,0:0:0:0:
380,332,115823,1,0,0:0:0:0:
172,284,115999,6,0,B|124:280|124:280|60:256,1,90.9999958343508
32,176,116352,1,0,0:0:0:0:
240,136,116529,1,0,0:0:0:0:
285,129,116617,1,0,0:0:0:0:
330,123,116705,1,0,0:0:0:0:
272,232,116882,1,0,0:0:0:0:
124,68,117058,1,0,0:0:0:0:
108,272,117234,1,0,0:0:0:0:
104,317,117322,1,0,0:0:0:0:
100,362,117410,5,0,0:0:0:0:
208,312,117587,1,0,0:0:0:0:
32,176,117764,1,0,0:0:0:0:
219,115,117940,1,0,0:0:0:0:
261,97,118028,1,0,0:0:0:0:
303,80,118116,1,0,0:0:0:0:
180,32,118293,1,0,0:0:0:0:
183,275,118470,1,0,0:0:0:0:
208,312,118558,1,0,0:0:0:0:
243,338,118646,1,0,0:0:0:0:
288,349,118734,1,0,0:0:0:0:
331,345,118823,6,0,B|376:320|376:320|424:256,1,90.9999958343508
464,64,119176,1,0,0:0:0:0:
248,204,119352,1,0,0:0:0:0:
203,195,119440,1,0,0:0:0:0:
164,173,119528,1,0,0:0:0:0:
134,138,119616,1,0,0:0:0:0:
118,96,119704,1,0,0:0:0:0:
376,52,119882,1,0,0:0:0:0:
376,52,120058,1,0,0:0:0:0:
420,152,120234,6,0,B|400:200|400:200|388:264,1,90.9999958343508
468,352,120587,1,0,0:0:0:0:
284,224,120764,1,0,0:0:0:0:
240,210,120852,1,0,0:0:0:0:
195,211,120940,1,0,0:0:0:0:
152,225,121028,1,0,0:0:0:0:
116,253,121116,1,0,0:0:0:0:
264,348,121293,1,0,0:0:0:0:
264,348,121470,1,0,0:0:0:0:
100,148,121646,6,0,B|116:100|116:100|152:40,1,90.9999958343508
244,40,121999,1,0,0:0:0:0:
220,296,122176,1,0,0:0:0:0:
183,323,122264,1,0,0:0:0:0:
140,337,122352,1,0,0:0:0:0:
95,335,122440,1,0,0:0:0:0:
53,319,122528,1,0,0:0:0:0:
208,180,122705,1,0,0:0:0:0:
128,64,122882,1,0,0:0:0:0:
83,63,122970,1,0,0:0:0:0:
43,84,123058,5,0,0:0:0:0:
120,200,123234,1,0,0:0:0:0:
244,40,123411,1,0,0:0:0:0:
284,240,123587,1,0,0:0:0:0:
304,278,123675,1,0,0:0:0:0:
341,304,123763,5,0,0:0:0:0:
460,240,123940,1,0,0:0:0:0:
252,88,124118,1,0,0:0:0:0:
196,84,124206,1,0,0:0:0:0:
146,110,124294,1,0,0:0:0:0:
115,158,124382,1,0,0:0:0:0:
113,214,124470,5,0,0:0:0:0:
320,216,124646,1,0,0:0:0:0:
244,40,124823,1,0,0:0:0:0:
164,344,124999,1,0,0:0:0:0:
164,344,125176,1,0,0:0:0:0:
328,304,125352,2,0,P|396:256|400:196,1,105.000004005432
244,40,125705,1,0,0:0:0:0:
244,40,125882,5,0,0:0:0:0:
107,265,126058,2,0,P|147:337|199:345,1,105.000004005432
320,184,126411,1,0,0:0:0:0:
80,112,126587,1,0,0:0:0:0:
252,344,126764,1,0,0:0:0:0:
248,80,126940,1,0,0:0:0:0:
40,284,127117,1,0,0:0:0:0:
252,252,127293,6,0,B|320:256|320:256|380:276,1,105.000004005432
456,348,127646,1,0,0:0:0:0:
320,184,127823,6,0,B|252:180|252:180|192:160,1,105.000004005432
116,88,128176,1,0,0:0:0:0:
116,88,128352,1,0,0:0:0:0:
188,288,128529,1,0,0:0:0:0:
272,132,128705,5,0,0:0:0:0:
76,184,128882,1,0,0:0:0:0:
308,264,129058,1,0,0:0:0:0:
180,60,129234,1,0,0:0:0:0:
136,336,129411,1,0,0:0:0:0:
136,336,129587,1,0,0:0:0:0:
308,264,129764,2,0,B|388:276|388:276|436:260,1,105.000004005432
372,152,130117,5,0,0:0:0:0:
184,264,130293,1,0,0:0:0:0:
252,40,130470,5,0,0:0:0:0:
328,336,130646,1,0,0:0:0:0:
328,336,130823,1,0,0:0:0:0:
164,180,130999,5,0,0:0:0:0:
472,44,131176,1,0,0:0:0:0:
472,44,131352,1,0,0:0:0:0:
372,256,131529,6,0,B|304:256|304:256|252:284,1,105.000004005432
176,344,131882,1,0,0:0:0:0:
220,80,132058,2,0,B|275:47|275:47|343:43,1,105.000004005432
40,268,132411,5,0,0:0:0:0:
398,156,132587,1,0,0:0:0:0:
398,156,132764,1,0,0:0:0:0:
256,192,132940,12,0,135764,0:0:0:0:
256,192,155529,12,0,158352,0:0:0:0:
256,192,159058,5,0,0:0:0:0:
