osu file format v13

[General]
AudioFilename: MissTitannia-Wada Kouji- Butterfly Piano Version.mp3
AudioLeadIn: 0
PreviewTime: -1
Countdown: 0
SampleSet: None
StackLeniency: 0.7
Mode: 0
LetterboxInBreaks: 1
WidescreenStoryboard: 0

[Editor]
DistanceSpacing: 1.2
BeatDivisor: 4
GridSize: 4
TimelineZoom: 1

[Metadata]
Title:Butterfly (Piano Version)
TitleUnicode:Butterfly (Piano Version)
Artist:MissTitannia
ArtistUnicode:MissTitannia
Creator:MissTitannia
Version:
Source:
Tags:misstitannia osu!idol cover digimon butterfly wada kouji
BeatmapID:551215
BeatmapSetID:238327

[Difficulty]
HPDrainRate:6
CircleSize:4
OverallDifficulty:4
ApproachRate:6
SliderMultiplier:0.800000005960468
SliderTickRate:2

[Events]
//Background and Video events
0,0,"Digimon.Adventures.full.1283126.jpg",0,0
//Break Periods
2,19482,22605
//Storyboard Layer 0 (Background)
//Storyboard Layer 1 (Fail)
//Storyboard Layer 2 (Pass)
//Storyboard Layer 3 (Foreground)
//Storyboard Sound Samples
//Background Colour Transformations
3,100,243,179,251

[TimingPoints]
51316.3170731707,406.782926829271,4,2,0,27,1,0

[Colours]
Combo1 : 240,217,255
Combo2 : 183,255,235
Combo3 : 85,200,255
Combo4 : 210,252,180
Combo5 : 20,128,235

[HitObjects]
256,192,2193,5,0,0:0:0:0:
144,60,3071,5,0,0:0:0:0:
104,104,3217,1,0,0:0:0:0:
80,160,3364,1,0,0:0:0:0:
132,240,3803,1,0,0:0:0:0:
196,304,4242,1,0,0:0:0:0:
312,304,4535,1,0,0:0:0:0:
256,192,5339,5,0,0:0:0:0:
256,192,6730,1,0,0:0:0:0:
388,232,7608,5,0,0:0:0:0:
356,284,7754,1,0,0:0:0:0:
320,328,7900,1,0,0:0:0:0:
216,336,8339,1,0,0:0:0:0:
128,268,9071,1,0,0:0:0:0:
252,88,11451,6,0,B|200:48|148:32|80:56,1,180.000001341105,0|0,0:0|0:0,2:2:0:0:
72,152,12570,1,0,0:0:0:0:
144,232,12977,1,0,0:0:0:0:
216,152,13485,1,0,0:0:0:0:
256,80,13790,2,0,B|316:52|376:56|432:96,1,180.000001341105
244,128,15621,6,0,B|184:120|156:184|208:236|264:200|280:168|236:124,1,220.000001639129
452,240,16943,5,0,0:0:0:0:
388,292,17248,1,0,0:0:0:0:
264,312,17655,1,0,0:0:0:0:
152,184,18366,1,0,0:0:0:0:
252,48,19282,5,0,0:0:0:0:
232,48,23655,5,0,0:0:0:0:
136,92,23960,1,0,0:0:0:0:
80,184,24265,1,0,0:0:0:0:
256,288,24773,1,0,0:0:0:0:
340,220,25078,1,0,0:0:0:0:
388,128,25688,1,0,0:0:0:0:
280,112,25994,1,0,0:0:0:0:
56,228,26604,2,0,B|88:304|184:344|272:320,1,240.00000178814,0|0,0:0|0:0,0:0:0:0:
144,64,28231,5,0,0:0:0:0:
92,176,28536,1,0,0:0:0:0:
276,264,29044,1,0,0:0:0:0:
376,232,29350,1,0,0:0:0:0:
400,132,29655,1,0,0:0:0:0:
336,64,29960,1,0,0:0:0:0:
256,96,30265,1,0,0:0:0:0:
176,144,30570,1,0,0:0:0:0:
444,220,30875,2,0,B|376:232|384:296|308:312|248:248,1,220.000001639129
64,56,32604,5,0,0:0:0:0:
116,120,32909,1,0,0:0:0:0:
176,60,33214,1,0,0:0:0:0:
232,124,33519,1,0,0:0:0:0:
280,60,33824,2,0,B|392:56|352:132|432:148,1,180.000001341105
404,248,35044,1,0,0:0:0:0:
304,292,35350,1,0,0:0:0:0:
192,288,35655,1,0,0:0:0:0:
408,156,36265,2,0,B|360:80|304:152|268:72|196:76,1,220.000001639129,0|0,0:0|0:0,0:0:0:0:
256,192,37485,12,0,39824,0:0:0:0:
260,208,41960,6,0,B|320:176|288:96|200:100|204:176|240:220|240:224,1,200.000001490117
64,52,43282,5,0,0:0:0:0:
256,320,43587,1,0,0:0:0:0:
424,48,43892,1,0,0:0:0:0:
260,176,44197,1,0,0:0:0:0:
160,216,44502,1,0,0:0:0:0:
280,288,45112,1,0,0:0:0:0:
368,256,45417,1,0,0:0:0:0:
424,88,46028,1,0,0:0:0:0:
316,76,47248,6,0,P|272:40|224:88,1,120.00000089407
212,136,48163,2,0,P|256:188|204:232,1,140.000001043082
208,276,49180,2,0,P|256:328|304:272,1,160.000001192094
340,192,50299,1,0,0:0:0:0:
112,96,50807,1,0,0:0:0:0:
60,300,51926,5,0,0:0:0:0:
256,304,52231,1,0,0:0:0:0:
432,304,52536,2,0,B|368:240|444:184|360:88|280:128,1,260.000001937152
420,52,54367,5,0,0:0:0:0:
256,52,54672,1,0,0:0:0:0:
72,52,54977,2,0,B|112:104|48:152|116:188,1,140.000001043082,0|0,0:0|0:0,0:0:0:0:
104,181,56096,2,0,P|140:249|208:241,1,140.000001043082,0|0,0:0|0:0,0:0:0:0:
256,192,57519,12,0,59756,0:0:0:0:
248,188,61384,5,0,0:0:0:0:
92,56,61689,1,0,0:0:0:0:
248,188,61994,1,0,0:0:0:0:
352,56,62299,6,0,P|396:64|408:96,1,80.0000005960468
407,93,62807,2,0,P|456:112|452:168,1,100.000000745059,0|0,0:0|0:0,0:0:0:0:
460,155,63418,2,0,P|488:192|464:220,1,80.0000005960468
472,215,63926,2,0,B|440:344|352:48|344:328|292:272|220:200,1,300.000002235175
188,192,65960,5,0,0:0:0:0:
256,248,66265,1,0,0:0:0:0:
320,192,66570,1,0,0:0:0:0:
256,132,66875,1,0,0:0:0:0:
100,192,67180,1,0,0:0:0:0:
256,340,67485,1,0,0:0:0:0:
428,192,67791,1,0,0:0:0:0:
256,40,68096,1,0,0:0:0:0:
100,192,68401,2,0,B|184:176|184:272|216:288|260:300|332:316|372:232,1,320.000002384187
256,192,70638,5,0,0:0:0:0:
448,328,70943,1,0,0:0:0:0:
256,192,71248,1,0,0:0:0:0:
72,84,71553,6,0,P|92:36|136:56,1,100.000000745059
129,46,72163,2,0,P|160:88|176:64,1,100.000000745059
175,65,72774,2,0,P|220:40|244:72,1,100.000000745059
244,72,73384,2,0,B|268:152|400:36|420:260,1,280.000002086164
48,336,75621,5,0,0:0:0:0:
52,264,76130,2,0,P|92:272|108:312,1,80.0000005960468,0|0,0:0|0:0,0:0:0:0:
140,236,76740,1,0,0:0:0:0:
144,164,77045,2,0,P|200:176|212:228,1,100.000000745059
240,128,77858,1,0,0:0:0:0:
224,56,78163,2,0,P|268:48|312:112,1,120.00000089407
388,56,78977,1,0,0:0:0:0:
396,144,79282,2,0,B|404:324|220:320|220:320,1,280.000002086164
256,192,80808,12,0,83045,0:0:0:0:
260,188,83147,5,0,0:0:0:0:
260,188,83655,1,0,0:0:0:0:
268,180,84265,1,0,0:0:0:0:
280,168,84875,1,0,0:0:0:0:
352,100,85180,1,0,0:0:0:0:
260,56,85486,2,0,B|168:12|232:144|148:136,1,160.000001192094
155,136,86401,2,0,B|104:156|164:240|80:244,1,140.000001043082
88,243,87214,2,0,B|48:336|136:208|128:296,1,100.000000745059
208,288,87825,1,0,0:0:0:0:
360,160,88333,1,0,0:0:0:0:
252,136,88638,1,0,0:0:0:0:
72,244,89248,1,0,0:0:0:0:
232,304,89553,1,0,0:0:0:0:
376,240,89757,2,0,B|412:112|340:96|312:140|292:228,1,240.00000178814
132,136,91791,5,0,0:0:0:0:
312,264,92096,1,0,0:0:0:0:
364,140,92401,1,0,0:0:0:0:
188,264,92706,1,0,0:0:0:0:
248,56,93214,2,0,L|248:212,1,140.000001043082
248,196,94028,1,0,0:0:0:0:
248,264,94333,1,0,0:0:0:0:
248,264,94638,1,0,0:0:0:0:
60,60,95452,5,0,0:0:0:0:
140,88,95960,2,0,P|196:168|244:112,1,200.000001490117
243,112,97079,1,0,0:0:0:0:
292,52,97181,2,0,P|372:52|336:164,1,220.000001639129,0|0,0:0|0:0,0:0:0:0:
353,160,98401,1,0,0:0:0:0:
352,280,98909,1,0,0:0:0:0:
320,256,99215,1,0,0:0:0:0:
280,228,99520,1,0,0:0:0:0:
240,200,99825,1,0,0:0:0:0:
204,176,100028,1,0,0:0:0:0:
172,136,100333,1,0,0:0:0:0:
168,96,100638,1,0,0:0:0:0:
196,60,100943,1,0,0:0:0:0:
240,40,101147,2,0,B|304:40|396:72|320:196|144:284,1,380.000002831222,0|0,0:0|0:0,0:0:0:0:
153,279,103181,1,0,0:0:0:0:
256,188,103689,5,0,0:0:0:0:
160,184,104401,2,0,P|256:304|196:108,1,620.000004619363
203,101,107655,1,0,0:0:0:0:
272,192,108062,1,0,0:0:0:0:
272,192,108367,1,0,0:0:0:0:
256,192,109181,12,0,109587,0:0:0:0:
88,192,109994,5,0,0:0:0:0:
88,32,110299,1,0,0:0:0:0:
88,324,110604,1,0,0:0:0:0:
256,192,110910,1,0,0:0:0:0:
336,264,111316,1,0,0:0:0:0:
312,272,111418,1,0,0:0:0:0:
288,280,111520,1,0,0:0:0:0:
264,284,111621,1,0,0:0:0:0:
180,284,111926,1,0,0:0:0:0:
108,188,112333,2,0,B|216:216|256:152|348:204|348:204|348:208,1,240.00000178814
343,201,113655,2,0,B|276:128|392:108|280:36,1,180.000001341105,0|0,0:0|0:0,0:0:0:0:
100,40,114876,5,0,0:0:0:0:
104,316,115486,1,0,0:0:0:0:
256,316,115689,1,0,0:0:0:0:
416,316,115994,1,0,0:0:0:0:
416,316,116299,1,0,0:0:0:0:
256,192,117316,12,0,119452,0:0:0:0:
80,328,119655,6,0,B|100:172|268:272|256:128|256:128,1,280.000002086164
256,128,121994,6,0,B|352:40|460:72|452:192|384:308|248:352|244:352|136:284|84:180|76:100|164:48|256:132,1,780.000005811456
