osu file format v12

[General]
AudioFilename: 08. Hush (Party Ver.).mp3
AudioLeadIn: 0
PreviewTime: 64404
Countdown: 0
SampleSet: None
StackLeniency: 0.7
Mode: 0
LetterboxInBreaks: 1
WidescreenStoryboard: 1

[Editor]
Bookmarks: 64404
DistanceSpacing: 1.1
BeatDivisor: 4
GridSize: 32

[Metadata]
Title:Hush (Party Ver.)
TitleUnicode:Hush (Party Ver.)
Artist:Miss A
ArtistUnicode:Miss A
Creator:poporitolo
Version:Insane Step 1
Source:Miss A
Tags:Miss A Hush Party Version JYP Kpop
BeatmapID:332580
BeatmapSetID:130885

[Difficulty]
HPDrainRate:5
CircleSize:5
OverallDifficulty:4
ApproachRate:7
SliderMultiplier:1.40000000596046
SliderTickRate:1

[Events]
//Background and Video events
Video,0,"Miss a Hush.avi"
0,0,"2r5gvgk.jpg",0,0
//Break Periods
2,94604,111122
2,157460,175407
//Storyboard Layer 0 (Background)
//Storyboard Layer 1 (Fail)
//Storyboard Layer 2 (Pass)
//Storyboard Layer 3 (Foreground)
//Storyboard Sound Samples
//Background Colour Transformations
3,100,0,0,0

[TimingPoints]
16310,476.183544303797,4,2,0,50,1,0

[Colours]
Combo1 : 79,109,113
Combo2 : 171,155,131
Combo3 : 87,98,138
Combo4 : 146,126,146

[HitObjects]
256,32,16310,2,0,B|448:0|544:160|480:192|480:192,1,315.000001341103
480,224,17500,1,0,0:0:0:0:
448,256,17619,1,0,0:0:0:0:
416,288,17738,2,0,P|352:320|256:320,1,140.000000596046
192,288,18690,1,0,0:0:0:0:
96,320,18929,1,0,0:0:0:0:
128,224,19167,1,0,0:0:0:0:
64,64,20119,6,0,B|320:32|288:192|192:192,1,315.000001341103
160,192,21309,1,0,0:0:0:0:
128,192,21428,1,0,0:0:0:0:
96,192,21548,2,0,P|64:256|96:320,1,140.000000596046
192,320,22500,1,0,0:0:0:0:
288,288,22738,1,0,0:0:0:0:
224,224,22976,1,0,0:0:0:0:
480,32,23928,6,2,B|384:64|480:192|320:192|320:128|256:64,1,315.000001341103
224,64,25119,1,0,0:0:0:0:
192,64,25238,1,0,0:0:0:0:
160,64,25357,2,0,B|128:32|64:64|64:128,1,140.000000596046
64,224,26309,1,0,0:0:0:0:
160,256,26547,1,0,0:0:0:0:
96,320,26786,1,0,0:0:0:0:
352,96,27738,5,0,0:0:0:0:
160,96,28214,1,0,0:0:0:0:
352,288,28690,1,0,0:0:0:0:
160,288,29166,1,0,0:0:0:0:
320,192,29643,1,8,0:0:0:0:
192,192,29881,1,8,0:0:0:0:
256,128,30119,1,8,0:0:0:0:
256,256,30357,1,8,0:0:0:0:
224,160,30595,1,12,0:0:0:0:
288,160,30714,1,12,0:0:0:0:
224,224,30833,1,12,0:0:0:0:
288,224,30952,1,12,0:0:0:0:
256,192,31071,2,4,L|96:192,1,140.000000596046
192,96,32024,5,0,0:0:0:0:
192,96,32262,1,0,0:0:0:0:
224,160,32500,1,0,0:0:0:0:
288,192,32738,1,0,0:0:0:0:
352,160,32976,2,0,L|384:96,1,70.000000298023
352,160,33452,1,0,0:0:0:0:
192,160,35833,5,0,0:0:0:0:
256,128,36071,2,0,L|256:224,1,70.000000298023
320,256,36547,1,0,0:0:0:0:
256,192,36785,1,0,0:0:0:0:
256,128,37023,1,0,0:0:0:0:
256,128,37262,1,0,0:0:0:0:
128,288,39642,5,0,0:0:0:0:
192,224,39881,1,0,0:0:0:0:
256,160,40119,1,0,0:0:0:0:
320,224,40357,1,0,0:0:0:0:
384,288,40595,1,0,0:0:0:0:
288,256,40833,2,0,L|192:256,1,70.000000298023
256,256,43452,5,0,0:0:0:0:
320,192,43690,1,0,0:0:0:0:
256,128,43928,1,0,0:0:0:0:
352,96,44166,1,0,0:0:0:0:
288,160,44404,1,0,0:0:0:0:
224,224,44642,2,0,L|128:224,1,70.000000298023
192,224,47261,5,0,0:0:0:0:
256,160,47500,1,0,0:0:0:0:
192,224,47738,1,0,0:0:0:0:
256,160,47976,1,0,0:0:0:0:
256,160,48214,1,0,0:0:0:0:
192,224,48452,2,0,B|192:288|256:288,1,70.000000298023
128,320,51071,5,0,0:0:0:0:
128,320,51309,2,0,L|96:256,2,70.000000298023
128,320,52023,1,0,0:0:0:0:
96,256,52261,1,0,0:0:0:0:
96,256,52499,1,0,0:0:0:0:
320,32,54880,1,0,0:0:0:0:
256,96,55118,2,0,L|192:160,1,70.000000298023
320,160,55594,1,0,0:0:0:0:
128,96,56785,5,0,0:0:0:0:
128,160,57023,2,0,L|128:256,2,70.000000298023
128,96,57737,2,0,L|224:96,1,70.000000298023
192,64,58214,1,0,0:0:0:0:
96,32,58690,6,0,L|192:32,1,70.000000298023
96,64,59166,1,0,0:0:0:0:
96,96,59404,2,0,L|192:96,1,70.000000298023
256,192,60118,6,0,L|192:128,1,70.000000298023
256,192,60595,1,0,0:0:0:0:
256,192,60833,2,0,L|320:256,1,70.000000298023
256,192,61309,1,0,0:0:0:0:
256,192,61547,2,0,L|192:128,1,70.000000298023
256,192,62023,12,0,64166,0:0:0:0:
352,192,65833,6,0,L|256:192,1,70.000000298023
160,192,66309,2,0,L|256:192,1,70.000000298023
256,288,66785,2,0,L|256:192,1,70.000000298023
256,192,67261,1,0,0:0:0:0:
256,192,67499,1,0,0:0:0:0:
160,192,67737,6,0,L|256:192,1,70.000000298023
352,192,68214,2,0,L|256:192,1,70.000000298023
256,96,68690,2,0,L|256:192,1,70.000000298023
256,192,69166,1,0,0:0:0:0:
256,192,69404,1,0,0:0:0:0:
192,160,69642,5,0,0:0:0:0:
128,128,70118,1,0,0:0:0:0:
64,96,70594,2,0,P|32:192|32:256,1,140.000000596046
64,288,71309,1,0,0:0:0:0:
96,320,71547,2,0,P|128:352|224:320,1,140.000000596046
288,288,72499,1,0,0:0:0:0:
320,256,72737,2,0,P|352:192|288:160,1,140.000000596046
224,64,73690,5,0,0:0:0:0:
192,96,73809,1,0,0:0:0:0:
160,64,73928,1,0,0:0:0:0:
128,96,74047,1,0,0:0:0:0:
128,160,74404,5,0,0:0:0:0:
160,192,74523,1,0,0:0:0:0:
192,160,74642,1,0,0:0:0:0:
224,192,74761,1,0,0:0:0:0:
256,128,75118,2,0,L|352:128,1,70.000000298023
384,64,75594,5,0,0:0:0:0:
416,96,75713,1,0,0:0:0:0:
384,128,75832,1,0,0:0:0:0:
352,96,75951,1,0,0:0:0:0:
352,192,76309,5,0,0:0:0:0:
320,224,76428,1,0,0:0:0:0:
352,256,76547,1,0,0:0:0:0:
384,224,76666,1,0,0:0:0:0:
320,224,77023,2,0,L|224:224,1,70.000000298023
96,224,77499,5,0,0:0:0:0:
96,192,77618,1,0,0:0:0:0:
128,192,77737,1,0,0:0:0:0:
128,160,77856,1,0,0:0:0:0:
128,96,78214,5,0,0:0:0:0:
128,64,78333,1,0,0:0:0:0:
96,64,78452,1,0,0:0:0:0:
96,32,78571,1,0,0:0:0:0:
192,32,78928,2,0,L|288:32,1,70.000000298023
320,160,81070,6,0,L|224:160,1,70.000000298023
192,96,81546,2,0,L|288:96,1,70.000000298023
320,32,82022,2,0,L|224:32,1,70.000000298023
160,32,82498,1,0,0:0:0:0:
128,64,82736,1,0,0:0:0:0:
64,128,82975,6,0,L|0:192,1,70.000000298023
128,160,83451,2,0,L|128:256,1,70.000000298023
192,128,83927,2,0,L|256:192,1,70.000000298023
192,224,84403,1,0,0:0:0:0:
160,256,84641,1,0,0:0:0:0:
192,320,84880,5,0,0:0:0:0:
256,288,85356,1,0,0:0:0:0:
320,224,85832,2,0,P|256:160|224:96,1,140.000000596046
224,64,86547,1,0,0:0:0:0:
256,32,86785,2,0,P|352:32|416:64,1,140.000000596046
448,128,87737,1,0,0:0:0:0:
416,160,87975,2,0,L|320:192,1,70.000000298023
320,192,88451,1,0,0:0:0:0:
160,160,88927,5,0,0:0:0:0:
192,128,89046,1,0,0:0:0:0:
160,96,89165,1,0,0:0:0:0:
128,64,89284,1,0,0:0:0:0:
160,160,89641,5,0,0:0:0:0:
128,192,89760,1,0,0:0:0:0:
160,224,89879,1,0,0:0:0:0:
192,256,89998,1,0,0:0:0:0:
256,192,90355,2,0,L|320:128,1,70.000000298023
320,224,90832,5,0,0:0:0:0:
352,256,90951,1,0,0:0:0:0:
384,224,91070,1,0,0:0:0:0:
416,192,91189,1,0,0:0:0:0:
320,224,91546,5,0,0:0:0:0:
352,256,91665,1,0,0:0:0:0:
320,288,91784,1,0,0:0:0:0:
288,320,91903,1,0,0:0:0:0:
256,256,92260,2,0,L|256:160,1,70.000000298023
224,128,92737,5,0,0:0:0:0:
192,160,92856,1,0,0:0:0:0:
160,160,92975,1,0,0:0:0:0:
128,128,93094,1,0,0:0:0:0:
224,128,93451,5,0,0:0:0:0:
192,160,93570,1,0,0:0:0:0:
192,192,93689,1,0,0:0:0:0:
224,224,93808,1,0,0:0:0:0:
320,320,94166,2,0,L|416:320,1,70.000000298023
416,32,112022,5,0,0:0:0:0:
416,64,112260,2,0,L|320:96,1,70.000000298023
416,128,112737,1,0,0:0:0:0:
416,160,112975,1,0,0:0:0:0:
416,192,113213,2,0,L|320:224,1,70.000000298023
96,32,115832,5,0,0:0:0:0:
96,64,116070,2,0,L|192:96,1,70.000000298023
96,128,116547,1,0,0:0:0:0:
96,160,116785,1,0,0:0:0:0:
96,192,117023,2,0,L|192:224,1,70.000000298023
320,320,119641,6,0,P|352:288|384:288,1,70.000000298023
288,288,120118,1,0,0:0:0:0:
256,256,120356,1,0,0:0:0:0:
224,288,120594,1,0,0:0:0:0:
192,320,120832,2,0,P|160:288|128:288,1,70.000000298023
160,224,121546,6,0,L|64:192,1,70.000000298023
160,160,122022,1,0,0:0:0:0:
160,128,122260,1,0,0:0:0:0:
160,96,122498,2,0,L|256:64,1,70.000000298023
160,32,122975,1,0,0:0:0:0:
416,192,123451,6,0,L|320:192,1,70.000000298023
288,192,123927,1,0,0:0:0:0:
320,160,124165,1,0,0:0:0:0:
320,224,124403,1,0,0:0:0:0:
256,192,124879,12,0,126546,0:0:0:0:
256,192,127260,5,0,0:0:0:0:
256,160,127498,1,0,0:0:0:0:
256,128,127736,2,0,L|352:160,1,70.000000298023
256,128,128213,1,0,0:0:0:0:
256,256,128689,6,0,L|192:288,1,70.000000298023
256,224,129165,2,0,L|320:256,1,70.000000298023
256,192,129641,2,0,L|192:224,1,70.000000298023
256,160,130117,1,0,0:0:0:0:
256,128,130355,1,0,0:0:0:0:
224,128,130594,6,0,L|160:64,1,70.000000298023
256,96,131070,2,0,L|256:0,1,70.000000298023
288,128,131546,2,0,L|352:64,1,70.000000298023
256,160,132022,1,0,0:0:0:0:
256,192,132260,1,0,0:0:0:0:
320,160,132498,5,0,0:0:0:0:
384,128,132974,1,0,0:0:0:0:
448,96,133450,2,0,P|480:160|448:224,1,140.000000596046
448,256,134165,1,0,0:0:0:0:
416,288,134403,2,0,L|256:288,1,140.000000596046
64,288,135355,1,0,0:0:0:0:
32,256,135593,2,0,P|32:192|64:96,1,140.000000596046
96,64,136546,5,0,0:0:0:0:
128,96,136665,1,0,0:0:0:0:
160,128,136784,1,0,0:0:0:0:
160,96,136903,1,0,0:0:0:0:
192,160,137260,1,0,0:0:0:0:
224,192,137379,1,0,0:0:0:0:
256,224,137498,1,0,0:0:0:0:
224,224,137617,1,0,0:0:0:0:
320,192,137974,2,0,L|416:192,1,70.000000298023
448,128,138451,5,0,0:0:0:0:
416,160,138570,1,0,0:0:0:0:
448,192,138689,1,0,0:0:0:0:
416,224,138808,1,0,0:0:0:0:
352,192,139165,1,0,0:0:0:0:
320,160,139284,1,0,0:0:0:0:
288,192,139403,1,0,0:0:0:0:
256,160,139522,1,0,0:0:0:0:
256,256,139879,2,0,L|160:256,1,70.000000298023
192,224,140355,5,0,0:0:0:0:
224,192,140474,1,0,0:0:0:0:
256,160,140593,1,0,0:0:0:0:
256,128,140712,1,0,0:0:0:0:
256,192,141069,1,0,0:0:0:0:
256,224,141189,1,0,0:0:0:0:
288,256,141307,1,0,0:0:0:0:
320,256,141426,1,0,0:0:0:0:
384,192,141783,2,0,L|352:96,1,70.000000298023
288,256,143927,6,0,L|352:192,1,70.000000298023
224,256,144403,2,0,L|160:192,1,70.000000298023
256,192,144879,2,0,L|256:288,1,70.000000298023
256,192,145355,1,0,0:0:0:0:
256,192,145593,1,0,0:0:0:0:
288,128,145831,6,0,L|256:224,1,70.000000298023
224,128,146307,2,0,L|256:224,1,70.000000298023
256,192,146783,2,0,L|256:288,1,70.000000298023
256,320,147259,1,0,0:0:0:0:
256,288,147497,1,0,0:0:0:0:
256,256,147736,5,0,0:0:0:0:
256,192,148212,1,0,0:0:0:0:
224,128,148689,2,0,B|160:96|160:96|224:64,1,140.000000596046
256,32,149403,1,0,0:0:0:0:
288,64,149641,2,0,B|352:96|352:96|288:128|288:128,1,140.000000596046
288,192,150593,1,0,0:0:0:0:
256,192,150831,1,0,0:0:0:0:
224,192,151069,2,0,L|320:192,1,70.000000298023
448,224,151784,5,0,0:0:0:0:
448,256,151903,1,0,0:0:0:0:
448,288,152022,1,0,0:0:0:0:
480,320,152141,1,0,0:0:0:0:
448,224,152498,1,0,0:0:0:0:
448,256,152617,1,0,0:0:0:0:
448,288,152736,1,0,0:0:0:0:
416,320,152855,1,0,0:0:0:0:
320,320,153212,2,0,L|224:320,1,70.000000298023
192,288,153688,5,0,0:0:0:0:
160,256,153807,1,0,0:0:0:0:
128,224,153926,1,0,0:0:0:0:
96,256,154045,1,0,0:0:0:0:
192,288,154403,1,0,0:0:0:0:
160,256,154521,1,0,0:0:0:0:
128,224,154640,1,0,0:0:0:0:
160,192,154759,1,0,0:0:0:0:
256,96,155117,2,0,L|192:160,1,70.000000298023
96,192,155593,5,0,0:0:0:0:
128,192,155712,1,0,0:0:0:0:
128,160,155831,1,0,0:0:0:0:
96,160,155950,1,0,0:0:0:0:
192,192,156307,1,0,0:0:0:0:
224,224,156426,1,0,0:0:0:0:
192,256,156545,1,0,0:0:0:0:
160,224,156664,1,0,0:0:0:0:
64,288,157022,2,0,L|0:224,1,70.000000298023
256,256,176307,6,0,L|192:320,1,70.000000298023
256,160,176783,2,0,L|320:224,1,70.000000298023
256,64,177260,2,0,L|192:128,1,70.000000298023
256,64,177736,1,0,0:0:0:0:
256,64,177974,1,0,0:0:0:0:
256,64,178212,6,0,L|192:0,1,70.000000298023
256,160,178688,2,0,L|320:96,1,70.000000298023
256,256,179165,2,0,L|192:192,1,70.000000298023
256,352,179641,1,0,0:0:0:0:
256,352,179879,1,0,0:0:0:0:
128,288,180117,5,0,0:0:0:0:
64,224,180593,1,0,0:0:0:0:
0,160,181069,2,0,P|32:96|96:96,1,140.000000596046
128,128,181784,1,0,0:0:0:0:
256,192,182140,12,0,183569,0:0:0:0:
288,288,183926,6,0,L|352:224,1,70.000000298023
224,224,184402,2,0,L|160:160,1,70.000000298023
128,128,184879,2,0,L|192:64,1,70.000000298023
256,32,185355,1,0,0:0:0:0:
256,32,185593,1,0,0:0:0:0:
320,96,185831,6,0,L|384:160,1,70.000000298023
256,160,186307,2,0,L|192:224,1,70.000000298023
320,224,186784,2,0,L|384:288,1,70.000000298023
448,352,187260,1,0,0:0:0:0:
448,352,187498,1,0,0:0:0:0:
384,352,187736,5,0,0:0:0:0:
448,288,188212,1,0,0:0:0:0:
512,192,188688,2,0,P|480:128|416:128,1,140.000000596046
384,160,189403,1,0,0:0:0:0:
256,192,189759,12,0,191426,0:0:0:0:
224,192,192021,5,0,0:0:0:0:
256,192,192259,2,0,L|352:192,2,70.000000298023
224,192,192974,1,0,0:0:0:0:
160,192,193450,6,0,L|256:192,1,70.000000298023
352,192,193926,2,0,L|256:192,1,70.000000298023
256,96,194402,2,0,L|256:192,1,70.000000298023
256,192,194878,1,0,0:0:0:0:
256,192,195116,1,0,0:0:0:0:
352,192,195354,6,0,L|256:192,1,70.000000298023
160,192,195831,2,0,L|256:192,1,70.000000298023
256,288,196307,2,0,L|256:192,1,70.000000298023
256,192,196783,1,0,0:0:0:0:
256,192,197021,1,0,0:0:0:0:
320,224,197259,5,0,0:0:0:0:
384,256,197735,1,0,0:0:0:0:
448,288,198211,2,0,P|480:192|480:128,1,140.000000596046
448,96,198926,1,0,0:0:0:0:
416,64,199164,2,0,P|384:32|288:64,1,140.000000596046
192,128,200354,2,0,P|160:192|256:224,1,175.000000745057
288,320,201307,5,0,0:0:0:0:
320,288,201426,1,0,0:0:0:0:
352,320,201545,1,0,0:0:0:0:
384,288,201664,1,0,0:0:0:0:
384,224,202021,1,0,0:0:0:0:
352,192,202140,1,0,0:0:0:0:
320,224,202259,1,0,0:0:0:0:
288,192,202378,1,0,0:0:0:0:
256,256,202735,2,0,L|160:256,1,70.000000298023
128,288,203211,5,0,0:0:0:0:
96,320,203330,1,0,0:0:0:0:
64,288,203449,1,0,0:0:0:0:
96,256,203568,1,0,0:0:0:0:
96,192,203926,1,0,0:0:0:0:
128,160,204045,1,0,0:0:0:0:
96,128,204164,1,0,0:0:0:0:
64,160,204283,1,0,0:0:0:0:
160,160,204640,2,0,L|256:160,1,70.000000298023
352,160,205116,5,0,0:0:0:0:
352,192,205235,1,0,0:0:0:0:
320,192,205354,1,0,0:0:0:0:
320,224,205473,1,0,0:0:0:0:
384,256,205831,5,0,0:0:0:0:
384,288,205950,1,0,0:0:0:0:
416,288,206069,1,0,0:0:0:0:
416,320,206188,1,0,0:0:0:0:
352,352,206545,2,0,L|256:352,1,70.000000298023
278,124,208688,6,0,L|210:192,1,70.000000298023
142,169,209164,2,0,L|210:101,1,70.000000298023
188,33,209640,2,0,L|120:101,1,70.000000298023
74,146,210116,1,0,0:0:0:0:
74,191,210354,1,0,0:0:0:0:
74,282,210593,6,0,L|74:373,1,70.000000298023
142,259,211069,2,0,L|210:327,1,70.000000298023
165,192,211545,2,0,L|256:192,1,70.000000298023
233,259,212021,1,0,0:0:0:0:
233,305,212259,1,0,0:0:0:0:
301,327,212498,5,0,0:0:0:0:
323,259,212974,1,0,0:0:0:0:
323,169,213450,2,0,P|233:169|165:146,1,140.000000596046
142,124,214165,1,0,0:0:0:0:
142,78,214403,2,0,P|210:10|278:-11,1,140.000000596046
346,10,215355,1,0,0:0:0:0:
346,56,215593,2,0,L|301:146,1,70.000000298023
301,146,216069,1,0,0:0:0:0:
165,237,216545,5,0,0:0:0:0:
165,192,216664,1,0,0:0:0:0:
120,192,216783,1,0,0:0:0:0:
74,191,216902,1,0,0:0:0:0:
165,237,217259,5,0,0:0:0:0:
165,282,217378,1,0,0:0:0:0:
210,282,217497,1,0,0:0:0:0:
256,282,217616,1,0,0:0:0:0:
256,192,217973,2,0,L|256:101,1,70.000000298023
323,169,218450,5,0,0:0:0:0:
369,169,218569,1,0,0:0:0:0:
369,124,218688,1,0,0:0:0:0:
369,78,218807,1,0,0:0:0:0:
323,169,219164,5,0,0:0:0:0:
369,169,219283,1,0,0:0:0:0:
369,214,219402,1,0,0:0:0:0:
369,259,219521,1,0,0:0:0:0:
301,237,219878,2,0,L|233:169,1,70.000000298023
188,169,220355,5,0,0:0:0:0:
188,214,220474,1,0,0:0:0:0:
165,237,220593,1,0,0:0:0:0:
120,237,220712,1,0,0:0:0:0:
224,237,221069,5,0,0:0:0:0:
224,192,221188,1,0,0:0:0:0:
246,169,221307,1,0,0:0:0:0:
292,169,221426,1,0,0:0:0:0:
320,256,221784,2,0,L|249:275,1,70.000000298023
160,192,222497,1,8,0:0:0:0:
352,192,222973,1,8,0:0:0:0:
256,288,223449,1,8,0:0:0:0:
256,224,223687,1,8,0:0:0:0:
256,160,223926,1,8,0:0:0:0:
320,96,224402,1,8,0:0:0:0:
192,96,224878,1,8,0:0:0:0:
256,192,225354,1,12,0:0:0:0:
224,128,225592,1,12,0:0:0:0:
288,128,225830,1,12,0:0:0:0:
