osu file format v12

[General]
AudioFilename: Sachika Misawa - Unite TV Size.mp3
AudioLeadIn: 2000
PreviewTime: 50805
Countdown: 0
SampleSet: Normal
StackLeniency: 0.7
Mode: 2
LetterboxInBreaks: 0

[Editor]
DistanceSpacing: 1
BeatDivisor: 4
GridSize: 4

[Metadata]
Title:Unite (TV Size)
TitleUnicode:ユナイト (TV Size)
Artist:Misawa Sachika
ArtistUnicode:三澤 紗千香
Creator:Zeroarg
Version:Rain
Source:Accel World
Tags:ending lolcubes DakeDekaane Natsu Xinely ishimaru94
BeatmapID:262510
BeatmapSetID:98431

[Difficulty]
HPDrainRate:7
CircleSize:4
OverallDifficulty:9
ApproachRate:9
SliderMultiplier:2
SliderTickRate:1

[Events]
//Background and Video events
0,0,"BG.jpg",0,0
Video,0,"Unite(TV Size).avi"
//Break Periods
//Storyboard Layer 0 (Background)
//Storyboard Layer 1 (Fail)
//Storyboard Layer 2 (Pass)
//Storyboard Layer 3 (Foreground)
//Storyboard Sound Samples
//Background Colour Transformations
3,100,163,162,255

[TimingPoints]
61,319.148936170213,4,1,0,77,1,0
61,-133.333333333333,4,1,0,77,0,0
8678,-100,4,1,0,77,0,0
51124,-100,4,1,0,85,0,1
72826,-100,4,1,0,77,0,0
73360,300,4,1,0,77,1,0
74103,319.148936170213,4,1,0,77,1,0

[Colours]
Combo1 : 128,0,64
Combo2 : 255,0,0
Combo3 : 255,0,128

[HitObjects]
352,128,61,2,0,L|440:128,1,75.0000028610231
159,128,539,2,0,L|84:128,1,75.0000028610231
440,132,1018,1,0,0:0:0:0:
288,128,1178,1,0,0:0:0:0:
76,236,1497,1,0,0:0:0:0:
224,236,1656,2,0,L|72:236,2,150.000005722046
480,236,2614,6,0,L|328:236,2,150.000005722046,0|0|0,0:0|0:0|0:0,0:0:0:0:
204,240,3571,1,0,0:0:0:0:
52,240,3731,1,0,0:0:0:0:
204,240,4050,1,0,0:0:0:0:
52,240,4209,1,0,0:0:0:0:
348,100,4529,2,0,L|424:100,2,75.0000028610231
52,240,5167,1,0,0:0:0:0:
204,240,5326,1,0,0:0:0:0:
392,232,5646,6,0,L|472:232,1,75.0000028610231
228,232,6124,2,0,L|308:232,1,75.0000028610231
204,240,6603,1,0,0:0:0:0:
52,240,6763,1,0,0:0:0:0:
392,152,7082,2,0,L|312:152,1,75.0000028610231
52,240,7561,1,0,0:0:0:0:
204,240,7720,1,0,0:0:0:0:
456,64,8039,1,0,0:0:0:0:
80,60,8199,1,0,0:0:0:0:
164,296,8837,5,0,0:0:0:0:
92,296,8917,1,0,0:0:0:0:
24,296,8997,1,0,0:0:0:0:
304,304,9316,5,0,0:0:0:0:
308,224,9475,1,0,0:0:0:0:
464,304,9635,1,0,0:0:0:0:
464,224,9795,1,0,0:0:0:0:
40,228,9954,1,0,0:0:0:0:
40,312,10114,1,0,0:0:0:0:
168,132,10273,2,0,L|268:132,3,100
376,48,10912,1,0,0:0:0:0:
256,48,11231,2,0,P|152:48|68:116,1,200
372,192,11869,1,0,0:0:0:0:
272,192,12029,2,0,L|392:192,2,100
484,308,12667,5,0,0:0:0:0:
36,316,12986,1,0,0:0:0:0:
484,308,13305,1,0,0:0:0:0:
184,316,13624,1,0,0:0:0:0:
336,316,13784,1,0,0:0:0:0:
180,216,14103,5,0,0:0:0:0:
424,84,14422,1,0,0:0:0:0:
424,168,14582,1,0,0:0:0:0:
188,168,14741,1,0,0:0:0:0:
192,92,14901,1,0,0:0:0:0:
388,256,15220,1,0,0:0:0:0:
32,76,15539,2,0,L|132:76,3,100
356,80,16337,1,0,0:0:0:0:
60,184,16656,5,0,0:0:0:0:
196,184,16816,1,0,0:0:0:0:
336,192,16975,1,0,0:0:0:0:
480,192,17135,1,0,0:0:0:0:
136,272,17454,1,0,0:0:0:0:
272,272,17614,1,0,0:0:0:0:
396,268,17773,1,0,0:0:0:0:
196,348,18092,1,0,0:0:0:0:
340,348,18252,1,0,0:0:0:0:
484,352,18412,1,0,0:0:0:0:
36,260,18731,1,0,0:0:0:0:
472,268,19209,5,0,0:0:0:0:
72,344,19529,2,0,L|176:344,1,100
72,116,19848,1,0,0:0:0:0:
224,200,20167,1,0,0:0:0:0:
396,200,20486,1,0,0:0:0:0:
224,304,20805,1,0,0:0:0:0:
64,308,21124,1,0,0:0:0:0:
224,200,21443,2,0,L|428:200,1,200
340,128,22082,1,0,0:0:0:0:
168,128,22401,1,0,0:0:0:0:
344,220,22720,1,0,0:0:0:0:
136,232,23039,1,0,0:0:0:0:
40,256,23358,5,0,0:0:0:0:
68,304,23518,1,0,0:0:0:0:
88,332,23678,1,0,0:0:0:0:
412,344,23837,1,0,0:0:0:0:
444,304,23997,1,0,0:0:0:0:
472,280,24156,1,0,0:0:0:0:
252,232,24316,1,0,0:0:0:0:
440,112,24635,6,0,L|236:112,1,200
40,152,25273,1,0,0:0:0:0:
240,184,25592,2,0,L|440:184,1,200
248,304,26231,1,0,0:0:0:0:
448,308,26550,1,0,0:0:0:0:
248,304,26869,1,0,0:0:0:0:
48,308,27188,1,0,0:0:0:0:
256,192,27507,2,0,L|44:192,1,200
160,320,28146,6,0,L|60:320,1,100
384,320,28624,2,0,L|484:320,1,100
100,140,29103,1,0,0:0:0:0:
180,120,29183,1,0,0:0:0:0:
256,92,29263,1,0,0:0:0:0:
180,60,29342,1,0,0:0:0:0:
100,40,29422,1,0,0:0:0:0:
484,200,29741,6,0,L|376:200,2,100
84,200,30380,1,0,0:0:0:0:
312,292,30699,1,0,0:0:0:0:
36,192,31018,2,0,L|236:192,1,200
48,284,31656,1,0,0:0:0:0:
264,276,31975,1,0,0:0:0:0:
468,200,32295,2,0,L|244:196,1,200
456,272,32933,1,0,0:0:0:0:
264,280,33252,1,0,0:0:0:0:
48,280,33571,5,0,0:0:0:0:
348,120,33890,2,0,L|148:120,1,200
352,204,34529,1,0,0:0:0:0:
152,280,34848,2,0,L|256:280,1,100
20,280,35326,1,0,0:0:0:0:
348,320,35646,1,0,0:0:0:0:
228,320,35965,1,0,0:0:0:0:
476,320,36124,1,0,0:0:0:0:
344,60,36284,1,0,0:0:0:0:
412,60,36443,1,0,0:0:0:0:
484,60,36603,1,0,0:0:0:0:
148,116,36763,6,0,L|40:116,1,100
148,116,37082,1,0,0:0:0:0:
288,192,37401,1,0,0:0:0:0:
492,196,37561,1,0,0:0:0:0:
104,312,37880,1,0,0:0:0:0:
360,260,38199,2,0,L|56:260,1,300
36,152,38837,1,0,0:0:0:0:
108,92,38917,1,0,0:0:0:0:
192,48,38997,1,0,0:0:0:0:
284,64,39076,1,0,0:0:0:0:
360,104,39156,1,0,0:0:0:0:
424,168,39236,1,0,0:0:0:0:
404,284,39316,6,0,L|504:284,2,100
84,284,39954,2,0,L|184:284,1,100
412,204,40433,1,0,0:0:0:0:
160,196,40752,2,0,L|364:196,1,200
476,100,41390,2,0,L|368:100,1,100
128,96,41869,1,0,0:0:0:0:
476,100,42188,1,0,0:0:0:0:
248,164,42507,2,0,L|360:164,1,100
160,236,42986,1,0,0:0:0:0:
16,160,43305,2,0,L|216:160,1,200
480,248,43943,6,0,L|380:248,1,100
140,252,44422,1,0,0:0:0:0:
380,332,44741,1,0,0:0:0:0:
240,184,45061,2,0,L|132:184,1,100
384,184,45539,1,0,0:0:0:0:
40,248,45858,2,0,L|352:248,1,300
56,120,46656,5,0,0:0:0:0:
256,124,46975,1,0,0:0:0:0:
456,120,47295,1,0,0:0:0:0:
168,124,47614,1,0,0:0:0:0:
372,124,47933,1,0,0:0:0:0:
56,120,48252,1,0,0:0:0:0:
256,192,48571,12,0,49688,0:0:0:0:
152,132,49848,6,0,L|52:132,3,100
464,128,50646,1,0,0:0:0:0:
288,272,50805,6,0,L|388:272,2,100
152,192,51443,2,0,L|76:112,1,100
360,192,51763,2,0,L|428:119,1,100
152,192,52082,2,0,L|76:112,1,100
400,132,52401,1,0,0:0:0:0:
100,132,52720,1,0,0:0:0:0:
400,132,53039,1,0,0:0:0:0:
100,132,53358,1,0,0:0:0:0:
248,128,53518,5,0,0:0:0:0:
100,132,53678,1,0,0:0:0:0:
400,132,53997,1,0,0:0:0:0:
100,132,54316,1,0,0:0:0:0:
300,136,54635,2,0,L|200:136,1,100
492,200,55114,2,0,L|292:200,1,200
480,320,55752,1,0,0:0:0:0:
288,324,55912,6,0,P|384:280|388:176,1,200
256,104,56550,1,0,0:0:0:0:
356,228,56869,2,0,L|248:228,2,100
120,320,57348,6,0,P|40:260|264:112,1,500
380,304,58465,1,0,0:0:0:0:
184,300,58784,1,0,0:0:0:0:
40,300,58943,1,0,0:0:0:0:
184,300,59103,1,0,0:0:0:0:
40,300,59263,1,0,0:0:0:0:
240,296,59582,1,0,0:0:0:0:
440,304,59901,2,0,L|336:304,1,100
112,152,60380,5,0,0:0:0:0:
196,100,60459,1,0,0:0:0:0:
280,44,60539,1,0,0:0:0:0:
380,60,60619,1,0,0:0:0:0:
452,136,60699,1,0,0:0:0:0:
372,208,60779,1,0,0:0:0:0:
316,160,60858,1,0,0:0:0:0:
352,60,60938,1,0,0:0:0:0:
340,260,61018,5,0,0:0:0:0:
172,260,61178,1,0,0:0:0:0:
340,260,61337,1,0,0:0:0:0:
120,200,61656,2,0,L|43:123,1,100
344,192,61975,2,0,L|420:115,1,100
100,256,62295,1,0,0:0:0:0:
412,256,62614,1,0,0:0:0:0:
100,256,62933,1,0,0:0:0:0:
412,256,63252,1,0,0:0:0:0:
260,256,63571,1,0,0:0:0:0:
412,256,63731,5,0,0:0:0:0:
180,256,63890,1,0,0:0:0:0:
412,256,64209,1,0,0:0:0:0:
180,256,64529,1,0,0:0:0:0:
412,256,64848,1,0,0:0:0:0:
192,200,65007,2,0,L|492:200,1,300
92,136,65805,1,0,0:0:0:0:
312,136,66124,5,0,0:0:0:0:
164,232,66443,1,0,0:0:0:0:
432,224,66763,1,0,0:0:0:0:
192,300,67082,2,0,L|292:300,1,100
64,304,67561,6,0,P|180:108|432:128,1,500
144,224,68678,1,0,0:0:0:0:
368,224,68997,2,0,L|268:224,2,100
72,312,69475,1,0,0:0:0:0:
448,312,69794,1,0,0:0:0:0:
72,312,70114,1,0,0:0:0:0:
464,224,70592,6,0,L|364:224,2,100
32,220,71231,2,0,L|136:220,2,100
256,156,71869,1,0,0:0:0:0:
104,72,72507,1,0,0:0:0:0:
408,72,72667,1,0,0:0:0:0:
104,72,72826,1,0,0:0:0:0:
408,72,72986,1,0,0:0:0:0:
40,336,73360,5,0,0:0:0:0:
88,248,73435,1,0,0:0:0:0:
144,172,73510,1,0,0:0:0:0:
212,100,73585,1,0,0:0:0:0:
308,104,73660,1,0,0:0:0:0:
372,180,73735,1,0,0:0:0:0:
436,256,73810,1,0,0:0:0:0:
480,344,73885,1,0,0:0:0:0:
256,312,74103,5,0,0:0:0:0:
256,228,74262,1,0,0:0:0:0:
56,304,74422,1,0,0:0:0:0:
56,220,74581,1,0,0:0:0:0:
60,128,74741,1,0,0:0:0:0:
360,112,75060,2,0,L|468:112,1,100
56,84,75539,5,0,0:0:0:0:
56,172,75698,1,0,0:0:0:0:
276,136,75858,1,0,0:0:0:0:
276,216,76017,1,0,0:0:0:0:
460,72,76337,2,0,P|404:72|278:134,1,200
88,264,76975,1,0,0:0:0:0:
188,264,77134,2,0,L|88:264,2,100
480,328,77773,5,0,0:0:0:0:
32,332,78092,1,0,0:0:0:0:
480,328,78411,1,0,0:0:0:0:
204,244,78730,2,0,L|320:244,1,100
88,136,79209,5,0,0:0:0:0:
460,120,79528,2,0,L|360:120,2,100
140,120,80166,1,0,0:0:0:0:
140,40,80326,1,0,0:0:0:0:
360,120,80485,1,0,0:0:0:0:
360,40,80645,1,0,0:0:0:0:
60,120,80805,1,0,0:0:0:0:
60,40,80964,1,0,0:0:0:0:
440,40,81124,1,0,0:0:0:0:
440,120,81283,1,0,0:0:0:0:
436,196,81443,1,0,0:0:0:0:
40,188,81762,5,0,0:0:0:0:
188,192,81922,1,0,0:0:0:0:
332,192,82081,1,0,0:0:0:0:
480,192,82241,1,0,0:0:0:0:
40,280,82560,1,0,0:0:0:0:
200,280,82720,1,0,0:0:0:0:
360,280,82879,1,0,0:0:0:0:
40,360,83198,1,0,0:0:0:0:
240,356,83358,1,0,0:0:0:0:
440,352,83517,1,0,0:0:0:0:
40,360,83837,1,0,0:0:0:0:
440,352,84156,1,0,0:0:0:0:
256,192,84315,12,0,88145,0:0:0:0:
