osu file format v12

[General]
AudioFilename: Sachika Misawa - Unite TV Size.mp3
AudioLeadIn: 2000
PreviewTime: 50805
Countdown: 0
SampleSet: None
StackLeniency: 0.7
Mode: 0
LetterboxInBreaks: 0
WidescreenStoryboard: 0

[Editor]
DistanceSpacing: 1.5
BeatDivisor: 4
GridSize: 4

[Metadata]
Title:Unite (TV Size)
TitleUnicode:ユナイト (TV Size)
Artist:Misawa Sachika
ArtistUnicode:三澤 紗千香
Creator:Zeroarg
Version:Natsu moe cute kaway diff desu
Source:Accel World
Tags:ending lolcubes DakeDekaane Natsu Xinely ishimaru94
BeatmapID:286236
BeatmapSetID:98431

[Difficulty]
HPDrainRate:7
CircleSize:4
OverallDifficulty:7
ApproachRate:9
SliderMultiplier:2.2
SliderTickRate:1

[Events]
//Background and Video events
0,0,"BG.jpg",0,0
Video,0,"Unite(TV Size).avi"
//Break Periods
//Storyboard Layer 0 (Background)
//Storyboard Layer 1 (Fail)
//Storyboard Layer 2 (Pass)
//Storyboard Layer 3 (Foreground)
//Storyboard Sound Samples
//Background Colour Transformations
3,100,163,162,255

[TimingPoints]
61,319.148936170213,4,2,1,70,1,0
61,-133.333333333333,4,2,1,70,0,0
8678,-100,4,2,1,75,0,0
38997,-100,4,1,1,65,0,0
39635,-100,4,2,1,75,0,0
51124,-100,4,2,1,85,0,1
72826,-100,4,2,0,75,0,0
73360,300,4,3,0,75,1,0
74103,319.148936170213,4,2,1,75,1,0
84315,-100,4,2,1,60,0,0
84954,-100,4,2,1,50,0,0
85592,-100,4,2,1,40,0,0
86230,-100,4,2,1,30,0,0
86868,-100,4,2,1,20,0,0
87188,-100,4,2,1,10,0,0
87507,-100,4,2,1,5,0,0

[Colours]
Combo1 : 128,0,64
Combo2 : 255,0,0
Combo3 : 255,0,128

[HitObjects]
256,192,61,1,4,0:0:0:0:
352,100,220,2,0,P|316:76|264:72,1,82.5000031471254,2|0,0:0|0:0,0:0:0:0:
180,112,539,1,0,0:0:0:0:
256,192,699,2,0,P|292:216|336:220,1,82.5000031471254,8|0,0:0|0:0,0:0:0:0:
424,172,1018,1,2,0:0:0:0:
168,32,1178,6,0,P|120:60|104:96,1,82.5000031471254,2|0,0:0|0:0,0:0:0:0:
92,188,1497,1,0,0:0:0:0:
88,328,1656,2,0,P|136:300|152:264,1,82.5000031471254,8|0,0:0|0:0,0:0:0:0:
92,188,1975,1,8,0:0:0:0:
98,71,2135,2,0,P|150:35|168:32,1,82.5000031471254
276,32,2454,1,8,0:0:0:0:
432,108,2614,5,0,0:0:0:0:
472,208,2773,2,0,L|500:288,1,82.5000031471254,2|0,0:0|0:0,0:0:0:0:
436,372,3092,1,0,0:0:0:0:
392,272,3252,2,0,L|364:194,1,82.5000031471254,8|0,0:0|0:0,0:0:0:0:
328,92,3571,2,0,P|284:124|264:164,1,82.5000031471254
176,296,3890,5,0,0:0:0:0:
80,316,4050,1,0,0:0:0:0:
108,220,4209,2,0,P|112:164|92:128,1,82.5000031471254,2|0,0:0|0:0,0:0:0:0:
76,44,4529,1,8,0:0:0:0:
164,88,4688,2,0,P|186:98|242:95,1,82.5000031471254,2|0,0:0|0:0,0:0:0:0:
336,60,5007,1,0,0:0:0:0:
464,16,5167,5,4,0:0:0:0:
464,16,5326,2,0,L|440:112,1,82.5000031471254,2|0,0:0|0:0,0:0:0:0:
416,192,5646,1,0,0:0:0:0:
384,284,5805,2,0,P|336:280|296:252,1,82.5000031471254,8|0,0:0|0:0,0:0:0:0:
248,196,6124,1,2,0:0:0:0:
204,112,6284,1,0,0:0:0:0:
156,36,6443,6,0,L|72:92,1,82.5000031471254,8|0,0:0|0:0,0:0:0:0:
8,128,6763,2,0,P|40:160|92:172,1,82.5000031471254,2|0,0:0|0:0,0:0:0:0:
164,188,7082,1,8,0:0:0:0:
108,260,7241,2,0,P|84:287|73:331,1,82.5000031471254,2|0,0:0|0:0,0:0:0:0:
164,324,7561,1,0,0:0:0:0:
264,328,7720,6,0,P|253:284|229:256,1,82.5000031471254,2|0,0:0|0:0,0:0:0:0:
164,188,8039,1,0,0:0:0:0:
76,160,8199,2,0,P|172:96|256:176,1,247.500009441376,2|0,0:0|0:0,0:0:0:0:
264,328,8837,5,0,1:0:0:0:
264,328,8917,1,8,1:0:0:0:
264,328,8997,2,0,P|320:320|356:276,1,110,4|0,0:0|0:0,0:0:0:0:
392,144,9316,2,0,P|336:152|300:196,1,110,8|0,0:0|0:0,0:0:0:0:
212,236,9635,2,0,P|268:228|304:184,1,110,2|0,0:0|0:0,0:0:0:0:
340,52,9954,2,0,P|284:60|248:104,1,110,8|0,0:0|0:0,0:0:0:0:
264,328,10273,6,0,L|148:352,1,110,2|0,0:0|0:0,0:0:0:0:
40,288,10592,2,0,L|147:265,1,110,8|0,0:0|0:0,0:0:0:0:
276,228,10912,2,0,P|272:168|239:133,1,110,2|0,0:0|0:0,0:0:0:0:
112,100,11231,2,0,P|140:52|188:20,1,110,8|0,0:0|0:0,0:0:0:0:
327,21,11550,6,0,P|372:52|400:100,1,110,2|0,0:0|0:0,0:0:0:0:
432,228,11869,1,8,0:0:0:0:
308,176,12029,1,0,0:0:0:0:
320,308,12188,1,2,0:0:0:0:
200,248,12348,1,0,0:0:0:0:
188,116,12507,2,0,P|232:80|284:72,1,110,8|0,0:0|0:0,0:0:0:0:
188,116,12826,6,0,P|144:152|92:160,1,110,2|0,0:0|0:0,0:0:0:0:
12,256,13146,2,0,P|44:300|100:316,1,110,8|0,0:0|0:0,0:0:0:0:
200,248,13465,2,0,P|228:204|292:192,1,110,2|0,0:0|0:0,0:0:0:0:
396,240,13784,2,0,P|428:180|420:128,1,110,8|0,0:0|0:0,0:0:0:0:
370,12,14103,6,0,L|316:108,1,110,2|0,0:0|0:0,0:0:0:0:
256,296,14422,1,8,0:0:0:0:
193,111,14582,1,0,0:0:0:0:
353,223,14741,1,2,0:0:0:0:
157,226,14901,1,0,0:0:0:0:
316,108,15061,1,8,0:0:0:0:
256,296,15220,1,0,0:0:0:0:
140,336,15380,6,0,P|84:316|56:268,1,110,2|0,0:0|0:0,0:0:0:0:
56,152,15699,2,0,P|82:111|138:91,1,110,8|0,0:0|0:0,0:0:0:0:
232,168,16018,2,0,P|280:169|329:135,1,110,2|0,0:0|0:0,0:0:0:0:
380,24,16337,2,0,P|428:60|444:116,1,110,8|0,0:0|0:0,0:0:0:0:
416,284,16656,6,0,L|304:320,1,110
192,348,16975,1,8,0:0:0:0:
224,232,17135,2,0,P|212:176|172:136,1,110,2|0,0:0|0:0,0:0:0:0:
60,100,17454,1,2,0:0:0:0:
84,220,17614,1,8,0:0:0:0:
176,140,17773,6,0,P|228:104|248:48,1,110,4|0,0:0|0:0,0:0:0:0:
128,32,18092,1,0,0:0:0:0:
384,32,18252,1,8,0:0:0:0:
476,112,18412,2,0,P|432:148|376:156,1,110,4|2,0:0|0:0,0:0:0:0:
268,108,18731,2,0,P|260:164|284:212,1,110,0|8,0:0|0:0,0:0:0:0:
376,288,19050,1,0,1:0:0:0:
376,288,19130,1,0,1:0:0:0:
376,288,19209,6,0,P|332:324|264:324,1,110,4|0,0:0|0:0,0:0:0:0:
176,296,19529,1,8,0:0:0:0:
104,216,19688,1,0,0:0:0:0:
132,108,19848,2,0,P|176:72|244:72,1,110,2|0,0:0|0:0,0:0:0:0:
308,140,20167,2,0,P|359:135|403:99,1,110,8|0,0:0|0:0,0:0:0:0:
231,155,20486,6,0,P|263:203|312:216,1,110,2|0,0:0|0:0,0:0:0:0:
251,296,20805,2,0,P|299:264|312:216,1,110,8|0,0:0|0:0,0:0:0:0:
392,276,21124,2,0,P|360:228|312:216,1,110,2|0,0:0|0:0,0:0:0:0:
372,135,21443,2,0,P|324:167|312:216,1,110,8|0,0:0|0:0,0:0:0:0:
444,156,21763,6,0,P|432:96|388:64,1,110,2|0,0:0|0:0,0:0:0:0:
284,68,22082,2,0,P|228:64|184:20,1,110,8|0,0:0|0:0,0:0:0:0:
80,16,22401,2,0,L|8:104,1,110,2|0,0:0|0:0,0:0:0:0:
28,212,22720,2,0,L|97:126,1,110,8|0,0:0|0:0,0:0:0:0:
172,44,23039,6,0,P|296:68|280:144,1,220,2|8,0:0|0:0,0:0:0:0:
216,216,23518,1,0,0:0:0:0:
108,244,23678,1,2,0:0:0:0:
44,332,23837,1,0,0:0:0:0:
148,368,23997,2,0,P|204:356|232:308,1,110,8|0,0:0|0:0,0:0:0:0:
256,56,24316,5,2,0:0:0:0:
356,100,24475,1,0,0:0:0:0:
444,32,24635,1,8,0:0:0:0:
492,132,24795,1,0,0:0:0:0:
404,200,24954,2,0,P|412:252|460:296,1,110,2|0,0:0|0:0,0:0:0:0:
368,364,25273,2,0,P|313:351|265:371,1,110,8|0,0:0|0:0,0:0:0:0:
156,368,25592,6,0,L|220:272,1,110,2|0,0:0|0:0,0:0:0:0:
264,176,25912,2,0,P|200:168|152:188,1,110,8|0,0:0|0:0,0:0:0:0:
72,248,26231,2,0,P|52:188|64:132,1,110,2|0,0:0|0:0,0:0:0:0:
148,80,26550,2,0,L|256:44,1,110,8|0,0:0|0:0,0:0:0:0:
360,20,26869,6,0,B|416:44|416:44|436:96,1,110,2|0,0:0|0:0,0:0:0:0:
408,196,27188,2,0,B|352:172|352:172|334:126,1,110,8|0,0:0|0:0,0:0:0:0:
252,45,27507,2,0,L|148:80,1,110,2|0,0:0|0:0,0:0:0:0:
43,117,27826,2,0,P|55:169|100:200,1,110,8|0,0:0|0:0,0:0:0:0:
356,264,28146,5,4,0:0:0:0:
188,144,28305,2,0,P|136:160|100:200,1,110,4|0,0:0|0:0,0:0:0:0:
72,308,28624,1,0,0:0:0:0:
176,276,28784,1,2,0:0:0:0:
176,276,28864,1,0,0:0:0:0:
176,276,28943,1,8,3:0:0:0:
276,232,29103,1,8,3:0:0:0:
376,180,29263,1,0,0:0:0:0:
376,180,29342,1,0,0:0:0:0:
376,180,29422,6,0,P|420:132|424:90,1,110,4|0,0:0|0:0,0:0:0:0:
344,12,29741,1,8,0:0:0:0:
256,80,29901,1,0,0:0:0:0:
168,12,30061,2,0,P|124:60|120:102,1,110,2|0,0:0|0:0,0:0:0:0:
176,196,30380,2,0,P|120:212|64:192,1,110,8|0,0:0|0:0,0:0:0:0:
256,80,30699,6,0,P|312:64|368:84,1,110,2|0,0:0|0:0,0:0:0:0:
400,176,31018,2,0,P|448:144|464:80,1,110,8|0,0:0|0:0,0:0:0:0:
308,156,31337,2,0,P|316:220|352:256,1,110,2|0,0:0|0:0,0:0:0:0:
448,288,31656,2,0,P|416:340|360:360,1,110,8|0,0:0|0:0,0:0:0:0:
152,308,31975,6,0,L|240:232,1,110,2|0,0:0|0:0,0:0:0:0:
308,156,32295,2,0,P|248:128|200:136,1,110,8|0,0:0|0:0,0:0:0:0:
96,148,32614,2,0,P|104:88|140:44,1,110,2|0,0:0|0:0,0:0:0:0:
240,28,32933,2,0,L|356:12,1,110,8|0,0:0|0:0,0:0:0:0:
460,8,33252,6,0,B|508:120|412:120|460:232,1,220,4|8,0:0|0:0,0:0:0:0:
504,320,33731,1,0,0:0:0:0:
396,320,33890,2,0,P|332:300|304:264,1,110,2|0,0:0|0:0,0:0:0:0:
256,168,34209,2,0,L|188:272,1,110,8|0,0:0|0:0,0:0:0:0:
132,352,34529,6,0,P|80:320|64:264,1,110,2|0,0:0|0:0,0:0:0:0:
64,164,34848,1,8,0:0:0:0:
168,128,35007,2,0,P|220:100|240:52,1,110,2|0,0:0|0:0,0:0:0:0:
348,56,35326,2,0,P|367:100|419:128,1,110,0|8,0:0|0:0,0:0:0:0:
419,255,35646,2,0,P|367:283|348:328,1,110,2|0,0:0|0:0,0:0:0:0:
248,372,35965,5,0,0:0:0:0:
148,324,36124,2,0,P|92:236|152:148,1,220,8|2,0:0|0:0,0:0:0:0:
256,120,36603,1,0,0:0:0:0:
348,64,36763,1,8,0:0:0:0:
256,4,36922,1,0,0:0:0:0:
255,121,37082,6,0,P|299:161|348:168,1,110,4|0,0:0|0:0,0:0:0:0:
444,116,37401,1,8,0:0:0:0:
348,168,37561,2,0,P|320:208|320:267,1,110,2|0,0:0|0:0,0:0:0:0:
392,352,37880,2,0,P|340:376|280:364,1,110,0|8,0:0|0:0,0:0:0:0:
151,311,38199,6,0,P|99:223|172:152,1,220,2|0,0:0|0:0,0:0:0:0:
280,176,38678,2,0,P|276:116|248:72,1,110,8|0,0:0|0:0,0:0:0:0:
224,244,38997,5,0,0:0:0:0:
275,261,39076,1,0,0:0:0:0:
327,247,39156,1,0,0:0:0:0:
364,207,39236,1,0,0:0:0:0:
372,153,39316,1,0,0:0:0:0:
320,56,39475,1,0,0:0:0:0:
320,56,39555,1,0,0:0:0:0:
320,56,39635,6,0,P|376:40|436:64,1,110,2|0,0:0|0:0,0:0:0:0:
372,152,39954,1,8,0:0:0:0:
320,56,40114,2,0,P|264:40|204:64,1,110,2|0,0:0|0:0,0:0:0:0:
71,179,40433,6,0,P|127:195|187:171,1,110,2|8,0:0|0:0,0:0:0:0:
268,121,40752,1,0,0:0:0:0:
245,229,40912,6,0,P|231:277|249:332,1,110
350,377,41231,1,8,0:0:0:0:
439,313,41390,1,0,0:0:0:0:
470,207,41550,2,0,L|497:78,1,110,2|0,0:0|0:0,0:0:0:0:
425,11,41869,2,0,L|402:118,1,110
365,274,42188,6,0,P|301:274|269:232,1,110,2|0,0:0|0:0,0:0:0:0:
234,138,42507,1,8,0:0:0:0:
174,44,42667,2,0,P|137:85|123:144,1,110,2|0,0:0|0:0,0:0:0:0:
176,233,42986,2,0,P|122:249|68:236,1,110,0|8,0:0|0:0,0:0:0:0:
234,138,43305,6,0,P|324:97|428:147,1,220
493,233,43784,1,8,0:0:0:0:
419,314,43943,1,0,0:0:0:0:
310,295,44103,2,0,P|300:239|329:189,1,110,2|0,0:0|0:0,0:0:0:0:
423,145,44422,2,0,P|379:103|325:89,1,110,8|0,0:0|0:0,0:0:0:0:
222,84,44741,6,0,L|136:163,1,110,2|0,0:0|0:0,0:0:0:0:
86,254,45061,1,8,0:0:0:0:
195,255,45220,2,0,L|312:255,1,110,2|0,0:0|0:0,0:0:0:0:
415,255,45539,2,0,P|412:189|383:148,1,110,0|8,0:0|0:0,0:0:0:0:
222,85,45858,6,0,P|143:94|213:164,1,220,4|0,0:0|0:0,0:0:0:0:
313,143,46337,1,8,0:0:0:0:
380,55,46497,1,0,0:0:0:0:
380,55,46576,1,0,3:0:0:0:
380,55,46656,2,0,P|418:94|424:148,1,110,0|0,3:0|0:0,0:0:0:0:
348,227,46975,2,0,L|250:282,1,110,8|0,0:0|0:0,0:0:0:0:
101,350,47295,6,0,P|17:289|59:189,1,220,4|8,0:0|0:0,0:0:0:0:
151,149,47773,1,0,0:0:0:0:
260,134,47933,2,0,P|314:118|342:59,1,110,2|0,0:0|0:0,0:0:0:0:
244,20,48252,1,8,0:0:0:0:
439,203,48412,6,0,P|423:292|302:299,1,220,4|0,0:0|0:0,0:0:0:0:
228,232,48890,2,0,P|183:265|170:319,1,110,8|0,0:0|0:0,0:0:0:0:
228,232,49209,2,0,P|273:199|286:145,1,110,2|0,0:0|0:0,0:0:0:0:
208,72,49529,2,0,P|256:36|316:40,1,110,8|0,0:0|0:0,0:0:0:0:
464,112,49848,5,2,0:0:0:0:
408,280,50007,1,2,0:0:0:0:
292,148,50167,1,2,0:0:0:0:
244,316,50326,6,0,P|200:344|140:344,1,110,2|0,0:0|0:0,0:0:0:0:
40,280,50646,1,2,0:0:0:0:
100,176,50805,2,0,P|144:148|204:148,1,110,8|0,0:0|0:0,0:0:0:0:
320,244,51124,6,0,P|360:204|368:148,1,110,4|0,0:0|0:0,0:0:0:0:
308,24,51443,2,0,P|268:64|260:120,1,110,8|0,0:0|0:0,0:0:0:0:
320,244,51763,2,0,P|280:284|224:292,1,110,2|0,0:0|0:0,0:0:0:0:
100,232,52082,2,0,P|140:192|196:184,1,110,8|0,0:0|0:0,0:0:0:0:
320,244,52401,6,0,L|424:172,1,110,2|0,0:0|0:0,0:0:0:0:
452,56,52720,2,0,L|361:118,1,110,8|0,0:0|0:0,0:0:0:0:
249,191,53039,2,0,P|197:167|192:120,1,110,2|0,0:0|0:0,0:0:0:0:
256,16,53358,1,8,0:0:0:0:
136,16,53518,1,0,0:0:0:0:
192,120,53678,6,0,P|186:167|134:191,1,110,2|0,0:0|0:0,0:0:0:0:
12,176,53997,2,0,P|12:232|60:284,1,110,8|0,0:0|0:0,0:0:0:0:
160,304,54316,2,0,L|276:324,1,110,2|0,0:0|0:0,0:0:0:0:
388,340,54635,1,8,0:0:0:0:
344,228,54795,1,0,0:0:0:0:
268,322,54954,5,2,0:0:0:0:
388,340,55114,1,0,0:0:0:0:
344,228,55273,2,0,L|304:120,1,110,8|0,0:0|0:0,0:0:0:0:
256,16,55592,2,0,P|196:40|176:96,1,110,2|0,0:0|0:0,0:0:0:0:
148,196,55912,2,0,L|116:320,1,110,8|0,0:0|0:0,0:0:0:0:
224,364,56231,6,0,L|251:257,1,110,4|0,0:0|0:0,0:0:0:0:
276,140,56550,2,0,P|332:148|368:192,1,110,8|0,0:0|0:0,0:0:0:0:
362,307,56869,1,2,0:0:0:0:
250,257,57029,2,0,P|198:241|170:181,1,110,0|8,0:0|0:0,0:0:0:0:
177,74,57348,6,0,P|123:75|74:115,2,110,2|0|0,0:0|0:0|0:0,0:0:0:0:
276,140,57826,2,0,P|330:139|379:99,1,110,8|0,0:0|0:0,0:0:0:0:
460,20,58146,2,0,L|484:148,1,110,2|0,0:0|0:0,0:0:0:0:
500,248,58465,2,0,P|456:288|400:280,1,110,8|0,0:0|0:0,0:0:0:0:
312,212,58784,6,0,P|264:208|220:248,1,110,2|0,0:0|0:0,0:0:0:0:
168,344,59103,1,8,0:0:0:0:
96,260,59263,2,0,L|24:160,1,110,2|0,0:0|0:0,0:0:0:0:
60,64,59582,2,0,L|124:153,1,110,0|8,0:0|0:0,0:0:0:0:
188,244,59901,6,0,P|292:220|288:120,1,220,4|0,0:0|0:0,0:0:0:0:
212,48,60380,1,8,0:0:0:0:
316,16,60539,1,0,0:0:0:0:
316,16,60619,1,0,0:0:0:0:
316,16,60699,2,0,L|420:88,1,110,2|0,0:0|0:0,0:0:0:0:
500,140,61018,1,8,0:0:0:0:
400,188,61178,1,0,0:0:0:0:
256,268,61337,6,0,P|204:284|140:264,1,110,4|0,0:0|0:0,0:0:0:0:
256,116,61656,2,0,P|308:100|372:120,1,110,8|0,0:0|0:0,0:0:0:0:
180,192,61975,2,0,P|164:140|184:76,1,110,2|0,0:0|0:0,0:0:0:0:
332,192,62294,2,0,P|348:244|328:308,1,110,8|0,0:0|0:0,0:0:0:0:
160,344,62614,6,0,L|40:376,1,110,2|0,0:0|0:0,0:0:0:0:
152,268,62933,2,0,L|258:239,1,110,8|0,0:0|0:0,0:0:0:0:
120,200,63252,2,0,L|0:232,1,110,2|0,0:0|0:0,0:0:0:0:
108,120,63571,2,0,L|214:91,1,110,8|0,0:0|0:0,0:0:0:0:
352,56,63890,6,0,P|396:96|404:160,1,110,2|0,0:0|0:0,0:0:0:0:
360,280,64209,2,0,P|316:240|305:192,1,110,8|0,0:0|0:0,0:0:0:0:
352,56,64529,1,2,0:0:0:0:
212,85,64688,1,0,0:0:0:0:
212,85,64768,1,0,0:0:0:0:
212,85,64848,1,8,0:0:0:0:
306,192,65007,6,0,P|295:239|251:279,1,110,2|0,0:0|0:0,0:0:0:0:
147,317,65326,1,0,0:0:0:0:
50,263,65486,2,0,P|88:219|138:204,1,110,8|0,0:0|0:0,0:0:0:0:
236,159,65805,2,0,P|267:101|261:50,1,110,2|0,0:0|0:0,0:0:0:0:
369,26,66124,2,0,P|389:63|447:95,1,110,8|0,0:0|0:0,0:0:0:0:
492,195,66443,6,0,P|461:253|467:304,1,110,4|0,0:0|0:0,0:0:0:0:
359,328,66762,2,0,P|338:290|280:258,1,110,8|0,0:0|0:0,0:0:0:0:
170,245,67082,1,2,0:0:0:0:
65,212,67241,2,0,P|36:152|52:102,1,110,0|8,0:0|0:0,0:0:0:0:
139,52,67561,6,0,P|238:88|336:36,1,220,2|0,0:0|0:0,0:0:0:0:
438,4,68039,2,0,P|438:63|409:114,1,110,8|0,0:0|0:0,0:0:0:0:
325,171,68358,2,0,P|342:223|388:258,1,110,2|0,0:0|0:0,0:0:0:0:
317,345,68678,2,0,P|269:318|211:324,1,110
113,364,68997,6,0,P|71:324|64:269,1,110,2|0,0:0|0:0,0:0:0:0:
95,169,69316,1,8,0:0:0:0:
182,103,69475,2,0,L|278:40,1,110,2|0,0:0|0:0,0:0:0:0:
382,67,69795,2,0,L|290:127,1,110,0|8,0:0|0:0,0:0:0:0:
148,252,70114,6,0,P|226:326|329:286,1,220,4|0,0:0|0:0,0:0:0:0:
424,252,70592,2,0,P|388:204|336:188,1,110,8|0,0:0|0:0,0:0:0:0:
232,172,70912,5,0,1:0:0:0:
179,163,70991,1,0,1:0:0:0:
149,118,71071,1,0,1:0:0:0:
162,66,71151,1,0,1:0:0:0:
208,40,71231,2,0,L|328:20,1,110,8|0,0:0|0:0,0:0:0:0:
424,4,71550,5,4,0:0:0:0:
424,112,71709,1,0,0:0:0:0:
424,224,71869,2,0,P|344:272|240:216,1,220,8|2,0:0|0:0,0:0:0:0:
188,120,72348,1,0,0:0:0:0:
120,32,72507,1,0,0:0:0:0:
52,120,72667,1,0,0:0:0:0:
120,204,72826,5,4,0:0:0:0:
392,204,72986,2,0,P|424:148|416:92,1,110,4|0,0:0|0:0,0:0:0:0:
256,32,73360,5,0,0:0:0:0:
170,117,73510,1,0,0:0:0:0:
256,203,73660,1,0,0:0:0:0:
340,116,73810,1,0,0:0:0:0:
340,116,74103,6,0,P|399:119|444:160,1,110,4|0,0:0|0:0,0:0:0:0:
504,236,74422,1,8,0:0:0:0:
444,328,74581,1,0,0:0:0:0:
336,340,74741,2,0,P|277:337|232:296,1,110,2|0,0:0|0:0,0:0:0:0:
152,240,75060,1,0,0:0:0:0:
256,204,75220,1,0,0:0:0:0:
256,56,75379,6,0,L|144:44,1,110,2|0,0:0|0:0,0:0:0:0:
256,128,75698,2,0,L|365:116,1,110,8|0,0:0|0:0,0:0:0:0:
256,204,76017,2,0,L|144:192,1,110,2|0,0:0|0:0,0:0:0:0:
256,276,76336,2,0,L|365:264,1,110,8|0,0:0|0:0,0:0:0:0:
476,252,76656,6,0,P|496:192|480:136,1,110,2|0,0:0|0:0,0:0:0:0:
424,56,76975,1,8,0:0:0:0:
320,28,77134,1,0,0:0:0:0:
212,52,77294,2,0,P|171:73|138:126,1,110,2|0,0:0|0:0,0:0:0:0:
168,232,77613,2,0,P|104:236|56:208,1,110
168,232,77932,6,0,P|232:228|271:248,1,110,2|0,0:0|0:0,0:0:0:0:
336,340,78251,1,8,0:0:0:0:
404,252,78411,1,0,0:0:0:0:
468,164,78571,2,0,P|448:108|400:72,1,110,8|0,0:0|0:0,0:0:0:0:
304,40,78890,1,8,0:0:0:0:
200,80,79049,1,0,0:0:0:0:
200,80,79129,1,0,0:0:0:0:
200,80,79209,6,0,L|88:140,1,110,4|0,0:0|0:0,0:0:0:0:
8,184,79528,2,0,P|36:232|96:252,1,110,8|0,0:0|0:0,0:0:0:0:
188,216,79847,2,0,L|292:156,1,110,2|0,0:0|0:0,0:0:0:0:
376,100,80167,1,8,0:0:0:0:
472,48,80326,6,0,P|500:104|488:164,1,110,2|0,0:0|0:0,0:0:0:0:
424,236,80645,1,0,0:0:0:0:
328,288,80805,2,0,L|224:352,1,110,8|0,0:0|0:0,0:0:0:0:
128,368,81124,2,0,P|80:324|80:260,1,110,2|0,0:0|0:0,0:0:0:0:
160,212,81443,2,0,P|132:156|88:128,1,110,8|0,0:0|0:0,0:0:0:0:
8,60,81763,6,0,L|132:40,1,110,2|0,0:0|0:0,0:0:0:0:
228,32,82082,1,8,0:0:0:0:
336,16,82241,2,0,P|380:64|380:124,1,110,2|0,0:0|0:0,0:0:0:0:
296,268,82560,1,0,0:0:0:0:
168,376,82720,1,8,0:0:0:0:
136,216,82879,1,0,0:0:0:0:
296,268,83039,5,2,0:0:0:0:
168,376,83198,1,0,0:0:0:0:
136,216,83358,1,8,0:0:0:0:
296,268,83517,6,0,P|324:216|320:160,1,110,4|0,0:0|0:0,0:0:0:0:
232,28,83837,2,0,P|204:80|205:129,1,110,4|0,0:0|0:0,0:0:0:0:
296,268,84156,1,4,0:0:0:0:
256,192,84235,12,0,87506,0:0:0:0:
