osu file format v12

[General]
AudioFilename: Sachika Misawa - Unite TV Size.mp3
AudioLeadIn: 2000
PreviewTime: 50805
Countdown: 0
SampleSet: Normal
StackLeniency: 0.7
Mode: 0
LetterboxInBreaks: 0
WidescreenStoryboard: 1

[Editor]
DistanceSpacing: 1.5
BeatDivisor: 4
GridSize: 4

[Metadata]
Title:Unite (TV Size)
TitleUnicode:ユナイト (TV Size)
Artist:Misawa Sachika
ArtistUnicode:三澤 紗千香
Creator:Zeroarg
Version:Insane
Source:Accel World
Tags:ending lolcubes DakeDekaane Natsu Xinely ishimaru94
BeatmapID:322272
BeatmapSetID:98431

[Difficulty]
HPDrainRate:7
CircleSize:4
OverallDifficulty:7
ApproachRate:9
SliderMultiplier:1.75
SliderTickRate:1

[Events]
//Background and Video events
0,0,"BG.jpg",0,0
Video,0,"Unite(TV Size).avi"
//Break Periods
//Storyboard Layer 0 (Background)
//Storyboard Layer 1 (Fail)
//Storyboard Layer 2 (Pass)
//Storyboard Layer 3 (Foreground)
//Storyboard Sound Samples
//Background Colour Transformations
3,100,163,162,255

[TimingPoints]
61,319.148936170213,4,1,0,77,1,0
61,-133.333333333333,4,1,0,77,0,0
8997,-100,4,1,0,77,0,0
51124,-100,4,1,0,85,0,1
72826,-100,4,1,0,77,0,0
73360,300,4,1,0,77,1,0
74103,319.148936170213,4,1,0,77,1,0
84315,-100,4,1,0,5,0,0

[Colours]
Combo1 : 128,0,64
Combo2 : 255,0,0
Combo3 : 255,0,128

[HitObjects]
44,96,61,5,0,0:0:0:0:
44,96,220,2,0,P|108:96|148:144,1,131.25000500679
76,212,699,1,0,0:0:0:0:
256,292,1018,1,0,0:0:0:0:
256,292,1177,2,0,P|320:272|352:216,1,131.25000500679
256,192,1656,1,0,0:0:0:0:
412,72,1975,1,0,0:0:0:0:
412,72,2134,2,0,P|348:92|316:148,1,131.25000500679
404,192,2614,5,0,0:0:0:0:
464,272,2773,2,0,P|430:326|368:344,1,131.25000500679
288,288,3252,1,0,0:0:0:0:
100,236,3571,1,0,0:0:0:0:
56,148,3731,2,0,P|72:84|128:60,1,131.25000500679
224,64,4209,1,0,0:0:0:0:
192,260,4529,2,0,P|212:232|224:196,1,65.6250025033952
364,64,5007,1,0,0:0:0:0:
364,64,5167,6,0,P|372:92|372:132,1,65.6250025033952
388,324,5646,1,0,0:0:0:0:
388,324,5806,1,0,0:0:0:0:
280,192,6124,2,0,L|233:145,1,65.6250025033952
392,76,6603,2,0,L|460:76,1,65.6250025033952
460,248,7082,2,0,L|392:248,1,65.6250025033952
244,332,7561,2,0,L|176:332,1,65.6250025033952
256,180,8040,5,0,0:0:0:0:
256,180,8200,1,0,0:0:0:0:
48,268,8837,5,0,0:0:0:0:
68,292,8917,1,0,0:0:0:0:
108,312,8997,1,0,0:0:0:0:
336,320,9316,6,0,P|344:280|344:232,1,87.5
428,156,9635,2,0,P|405:122|371:88,1,87.5
139,89,9954,2,0,P|108:119|84:156,1,87.5
272,244,10273,2,0,P|256:204|248:152,1,87.5
361,46,10592,2,0,P|399:68|424:104,1,87.5
455,214,10912,1,0,0:0:0:0:
416,320,11071,1,0,0:0:0:0:
308,280,11231,2,0,P|223:271|161:211,1,175
260,152,11709,6,0,P|304:152|342:171,1,87.5
200,52,12029,1,0,0:0:0:0:
96,92,12188,1,0,0:0:0:0:
40,192,12348,1,0,0:0:0:0:
96,288,12507,1,0,0:0:0:0:
200,332,12667,1,0,0:0:0:0:
312,308,12826,6,0,P|348:288|376:244,1,87.5
476,192,13146,2,0,P|456:156|412:128,1,87.5
304,132,13465,2,0,P|267:156|246:193,1,87.5
236,204,13704,1,0,0:0:0:0:
228,228,13784,2,0,P|192:288|96:288,1,175
40,192,14263,5,0,0:0:0:0:
200,52,14422,1,0,0:0:0:0:
96,92,14581,1,0,0:0:0:0:
368,200,14741,2,0,L|456:176,1,85
296,276,15061,1,0,0:0:0:0:
188,308,15220,2,0,L|100:332,2,85
64,176,15699,1,0,0:0:0:0:
180,176,15858,1,0,0:0:0:0:
212,68,16018,2,0,P|256:64|304:68,1,87.5
448,176,16337,1,0,0:0:0:0:
332,176,16496,1,0,0:0:0:0:
260,264,16656,5,0,0:0:0:0:
144,260,16816,1,0,0:0:0:0:
260,264,16975,1,0,0:0:0:0:
376,264,17135,1,0,0:0:0:0:
196,124,17454,5,0,0:0:0:0:
108,52,17614,1,0,0:0:0:0:
196,124,17773,1,0,0:0:0:0:
412,48,18092,5,0,0:0:0:0:
324,120,18252,1,0,0:0:0:0:
412,48,18411,1,0,0:0:0:0:
404,276,18731,5,0,0:0:0:0:
256,332,19209,6,0,P|210:326|171:315,1,85
104,220,19529,2,0,P|132:192|168:164,1,85
324,56,19848,2,0,P|392:88|424:176,1,170
360,340,20326,1,0,0:0:0:0:
360,340,20486,2,0,L|340:256,1,85
212,296,20805,1,0,0:0:0:0:
104,220,20965,5,0,0:0:0:0:
104,220,21124,2,0,P|104:136|168:72,1,175
268,28,21603,1,0,0:0:0:0:
257,131,21763,2,0,P|276:168|310:194,1,85
448,176,22082,2,0,P|429:139|396:112,1,85
376,244,22401,2,0,P|409:269|428:306,1,85
296,328,22720,2,0,P|262:302|243:265,1,85
120,308,23039,1,0,0:0:0:0:
80,140,23199,2,0,P|80:184|108:224,1,87.5
204,172,23518,5,0,0:0:0:0:
324,116,23678,1,0,0:0:0:0:
324,116,23837,1,0,0:0:0:0:
316,224,23997,5,0,0:0:0:0:
424,296,24156,1,0,0:0:0:0:
424,296,24316,1,0,0:0:0:0:
76,328,24635,6,0,P|152:344|236:312,2,170
152,64,25592,2,0,L|152:240,2,175
304,280,26550,2,0,P|346:299|386:305,1,85
428,148,26869,2,0,P|399:179|379:216,1,85
488,80,27188,2,0,P|445:60|405:54,1,85
272,48,27507,1,0,0:0:0:0:
148,92,27667,1,0,0:0:0:0:
236,188,27826,1,0,0:0:0:0:
112,228,27986,1,0,0:0:0:0:
188,336,28146,1,0,0:0:0:0:
456,40,28784,5,0,0:0:0:0:
450,79,28864,1,0,0:0:0:0:
422,113,28943,1,0,0:0:0:0:
385,133,29023,1,0,0:0:0:0:
342,130,29103,1,0,0:0:0:0:
303,119,29183,1,0,0:0:0:0:
260,128,29263,1,0,0:0:0:0:
226,155,29342,1,0,0:0:0:0:
203,192,29422,6,0,B|203:288|112:320,1,170
76,204,29901,1,0,0:0:0:0:
280,296,30061,1,0,0:0:0:0:
392,288,30220,2,0,L|456:352,1,87.5
432,188,30539,1,0,0:0:0:0:
300,208,30699,2,0,P|300:156|280:116,1,87.5
176,52,31018,1,0,0:0:0:0:
132,144,31178,2,0,P|88:160|48:160,1,85
176,52,31497,2,0,P|220:36|260:36,1,85
376,68,31816,5,0,0:0:0:0:
476,132,31975,1,0,0:0:0:0:
376,68,32135,1,0,0:0:0:0:
380,200,32295,1,0,0:0:0:0:
452,308,32454,2,0,P|412:320|360:320,1,85
324,320,32693,1,0,0:0:0:0:
280,312,32773,2,0,P|240:296|204:268,1,85
100,192,33092,1,0,0:0:0:0:
136,64,33252,1,0,0:0:0:0:
228,160,33412,1,0,0:0:0:0:
356,132,33571,6,0,P|352:174|372:216,1,87.5
280,312,33890,1,0,0:0:0:0:
412,328,34050,1,0,0:0:0:0:
372,212,34209,1,0,0:0:0:0:
280,312,34369,1,0,0:0:0:0:
120,276,34529,6,0,P|92:208|144:136,1,170
260,208,35007,2,0,P|304:208|343:186,1,87.5
304,64,35326,2,0,P|260:64|221:86,1,87.5
340,188,35646,2,0,P|384:188|423:210,1,87.5
384,332,35965,2,0,P|340:332|301:310,1,87.5
208,152,36284,1,0,0:0:0:0:
224,288,36443,1,0,0:0:0:0:
288,152,36603,1,0,0:0:0:0:
208,48,36763,6,0,P|164:60|128:80,1,87.5
56,192,37082,1,0,0:0:0:0:
468,40,37401,1,0,0:0:0:0:
468,40,37561,1,0,0:0:0:0:
296,344,37880,1,0,0:0:0:0:
208,48,38199,2,0,B|260:100|316:56|396:56|436:160|324:160|396:284,1,350
372,304,38917,5,0,0:0:0:0:
336,328,38997,1,0,0:0:0:0:
296,348,39076,1,0,0:0:0:0:
252,348,39156,1,0,0:0:0:0:
208,344,39236,1,0,0:0:0:0:
164,336,39316,1,0,0:0:0:0:
128,316,39396,1,0,0:0:0:0:
96,288,39475,1,0,0:0:0:0:
68,160,39635,6,0,L|48:68,1,85
180,44,39954,1,0,0:0:0:0:
304,84,40114,2,0,L|324:176,1,85
196,212,40433,1,0,0:0:0:0:
448,144,40752,2,0,P|448:256|416:308,1,175
288,328,41231,1,0,0:0:0:0:
156,332,41390,5,0,0:0:0:0:
80,224,41550,2,0,P|107:203|160:177,1,87.5
268,244,41869,2,0,P|312:228|344:204,1,85
260,100,42188,2,0,P|301:85|344:78,1,87.5
420,184,42507,2,0,P|452:216|472:252,2,87.5
456,56,42986,5,0,0:0:0:0:
196,28,43305,2,0,P|116:108|116:176,1,175
80,292,43784,1,0,0:0:0:0:
112,164,43943,1,0,0:0:0:0:
192,268,44103,1,0,0:0:0:0:
256,152,44263,1,0,0:0:0:0:
332,44,44422,2,0,L|356:138,1,85
440,228,44741,6,0,P|406:295|312:316,1,175
192,268,45220,1,0,0:0:0:0:
192,268,45380,1,0,0:0:0:0:
112,164,45539,1,0,0:0:0:0:
332,44,45858,1,0,0:0:0:0:
192,268,46178,1,0,0:0:0:0:
112,164,46337,1,0,0:0:0:0:
192,60,46497,1,0,0:0:0:0:
332,44,46656,6,0,B|332:140|248:196,1,175
348,284,47135,1,0,0:0:0:0:
348,284,47215,1,0,0:0:0:0:
348,284,47295,2,0,L|387:208,1,85
456,92,47614,1,0,0:0:0:0:
456,92,47773,1,0,0:0:0:0:
332,44,47933,2,0,L|316:0,2,42.5
256,192,48332,12,0,49529,0:0:0:0:
316,276,49848,6,0,L|248:332,1,85
136,296,50167,1,0,0:0:0:0:
116,180,50326,2,0,P|124:116|195:44,1,170
288,148,50805,5,0,0:0:0:0:
408,96,50965,1,0,0:0:0:0:
288,148,51124,1,0,0:0:0:0:
316,276,51284,1,0,0:0:0:0:
444,244,51443,2,0,P|444:200|424:160,1,87.5
424,52,51763,2,0,P|393:82|378:123,1,87.5
268,196,52082,2,0,P|299:164|341:150,1,87.5
92,148,52401,6,0,P|92:192|112:232,1,87.5
268,196,52720,2,0,P|236:227|194:241,1,87.5
112,340,53039,2,0,P|142:309|157:268,1,87.5
268,196,53358,1,0,0:0:0:0:
352,92,53518,5,0,0:0:0:0:
352,92,53598,1,0,0:0:0:0:
352,92,53678,2,0,P|392:60|424:52,1,85
416,188,53997,2,0,P|440:224|456:264,1,85
320,260,54316,2,0,P|246:299|164:283,1,170
44,216,54795,5,0,0:0:0:0:
140,128,54954,1,0,0:0:0:0:
188,44,55114,1,0,0:0:0:0:
320,44,55273,1,0,0:0:0:0:
344,172,55433,1,0,0:0:0:0:
468,216,55592,1,0,0:0:0:0:
368,304,55752,1,0,0:0:0:0:
252,368,55912,6,0,B|216:288|216:288|216:196,1,175,0|0,0:0|0:0,0:0:0:0:
344,172,56390,1,0,0:0:0:0:
468,216,56550,2,0,B|456:152|456:152|496:124|508:56,2,175
368,304,57348,6,0,P|312:336|200:336,1,175,0|0,0:0|0:0,0:0:0:0:
164,212,57826,1,0,0:0:0:0:
164,212,57986,1,0,0:0:0:0:
144,80,58146,2,0,P|200:48|312:48,1,175
476,252,58784,5,0,0:0:0:0:
432,128,58943,1,0,0:0:0:0:
308,168,59103,1,0,0:0:0:0:
320,300,59263,2,0,L|408:336,1,87.5
156,320,59582,2,0,P|112:308|72:268,1,87.5
100,68,59901,2,0,P|176:68|248:140,1,175
376,144,60380,5,0,0:0:0:0:
408,176,60460,1,0,0:0:0:0:
428,216,60539,1,0,0:0:0:0:
416,260,60619,1,0,0:0:0:0:
384,292,60699,1,0,0:0:0:0:
340,300,60779,1,0,0:0:0:0:
300,280,60859,1,0,0:0:0:0:
264,256,60938,1,0,0:0:0:0:
224,244,61018,6,0,P|176:244|144:276,1,87.5
76,380,61337,1,0,0:0:0:0:
44,252,61497,1,0,0:0:0:0:
84,128,61656,2,0,L|148:64,1,87.5
296,68,61975,2,0,L|234:129,1,87.5
384,128,62295,2,0,L|448:64,1,87.5
452,324,62614,6,0,P|408:304|376:272,1,87.5
208,232,62933,2,0,P|247:249|280:278,1,87.5
144,320,63252,2,0,P|104:300|72:268,1,87.5
76,184,63571,5,0,0:0:0:0:
80,52,63731,1,0,0:0:0:0:
200,112,63890,2,0,L|272:40,1,87.5
420,56,64209,2,0,L|352:124,1,87.5
352,220,64529,2,0,L|444:220,1,87.5
364,328,64848,2,0,L|272:328,1,87.5
104,316,65167,1,0,0:0:0:0:
104,316,65326,2,0,P|80:224|80:140,2,175
236,324,66124,6,0,B|336:324|336:324|392:268,1,175
492,192,66602,1,0,0:0:0:0:
389,113,66763,2,0,B|336:60|336:60|236:60,2,175
292,200,67561,1,0,0:0:0:0:
228,312,67720,1,0,0:0:0:0:
104,272,67880,1,0,0:0:0:0:
164,156,68038,1,0,0:0:0:0:
240,48,68198,1,0,0:0:0:0:
388,112,68358,2,0,P|420:168|420:280,1,175
164,324,68996,5,0,0:0:0:0:
96,212,69155,1,0,0:0:0:0:
228,232,69315,1,0,0:0:0:0:
388,112,69475,6,0,P|376:64|340:32,1,87.5
428,188,69795,2,0,P|416:140|380:108,1,87.5
368,336,70113,2,0,P|428:276|428:188,1,175
300,164,70592,2,0,P|240:96|156:96,1,175
56,172,71071,1,0,0:0:0:0:
80,300,71231,2,0,P|120:328|164:328,1,87.5
288,304,71550,2,0,P|360:272|460:272,2,175
160,328,72348,5,0,0:0:0:0:
116,204,72507,1,0,0:0:0:0:
244,176,72667,1,0,0:0:0:0:
156,80,72826,2,0,P|120:56|68:52,2,87.5
344,96,73360,5,0,0:0:0:0:
376,84,73510,5,0,0:0:0:0:
384,112,73660,5,0,0:0:0:0:
360,120,73810,5,0,0:0:0:0:
