osu file format v12

[General]
AudioFilename: Sachika Misawa - Unite TV Size.mp3
AudioLeadIn: 2000
PreviewTime: 50805
Countdown: 0
SampleSet: Normal
StackLeniency: 0.7
Mode: 0
LetterboxInBreaks: 0
WidescreenStoryboard: 1

[Editor]
DistanceSpacing: 1.3
BeatDivisor: 4
GridSize: 4

[Metadata]
Title:Unite (TV Size)
TitleUnicode:ユナイト (TV Size)
Artist:Misawa Sachika
ArtistUnicode:三澤 紗千香
Creator:Zeroarg
Version:Hard
Source:Accel World
Tags:ending lolcubes DakeDekaane Natsu Xinely ishimaru94
BeatmapID:262649
BeatmapSetID:98431

[Difficulty]
HPDrainRate:6
CircleSize:4
OverallDifficulty:6
ApproachRate:8
SliderMultiplier:1.5
SliderTickRate:1

[Events]
//Background and Video events
0,0,"BG.jpg",0,0
Video,0,"Unite(TV Size).avi"
//Break Periods
//Storyboard Layer 0 (Background)
//Storyboard Layer 1 (Fail)
//Storyboard Layer 2 (Pass)
//Storyboard Layer 3 (Foreground)
//Storyboard Sound Samples
//Background Colour Transformations
3,100,163,162,255

[TimingPoints]
61,319.148936170213,4,1,0,77,1,0
61,-133.333333333333,4,1,0,77,0,0
8997,-100,4,1,0,77,0,0
51124,-100,4,1,0,85,0,1
72826,-100,4,1,0,77,0,0
73360,300,4,1,0,77,1,0
74103,319.148936170213,4,1,0,77,1,0
84315,-100,4,1,0,5,0,0

[Colours]
Combo1 : 128,0,64
Combo2 : 255,0,0
Combo3 : 255,0,128

[HitObjects]
40,192,61,2,0,L|96:192,1,56.2500021457673
184,336,539,1,0,0:0:0:0:
184,336,699,2,0,P|200:296|256:260,1,112.500004291535
328,216,1178,1,0,0:0:0:0:
312,48,1497,1,0,0:0:0:0:
312,48,1656,2,0,P|256:32|200:48,1,112.500004291535
204,44,2135,1,0,0:0:0:0:
84,160,2454,2,0,L|40:204,2,56.2500021457673
192,292,3092,6,0,L|160:338,1,56.2500021457673
324,292,3571,2,0,L|355:338,1,56.2500021457673
440,192,4050,1,0,0:0:0:0:
440,192,4209,2,0,P|408:148|355:125,1,112.500004291535
356,124,4688,1,0,0:0:0:0:
192,156,5007,1,0,0:0:0:0:
144,88,5167,1,0,0:0:0:0:
108,164,5326,2,0,P|92:220|108:276,1,112.500004291535
172,304,5805,1,0,0:0:0:0:
316,308,6124,5,0,0:0:0:0:
388,264,6284,1,0,0:0:0:0:
384,116,6603,1,0,0:0:0:0:
312,72,6763,1,0,0:0:0:0:
164,64,7082,1,0,0:0:0:0:
92,108,7242,1,0,0:0:0:0:
100,260,7561,1,0,0:0:0:0:
172,304,7721,1,0,0:0:0:0:
300,236,8039,5,0,0:0:0:0:
300,236,8199,1,0,0:0:0:0:
64,64,8837,2,0,L|47:41,2,28.1250010728836
60,240,9316,6,0,L|132:204,1,75
196,136,9635,1,0,0:0:0:0:
196,136,9795,1,0,0:0:0:0:
264,68,9954,2,0,L|348:68,1,75
400,144,10273,1,0,0:0:0:0:
400,144,10433,1,0,0:0:0:0:
344,224,10592,2,0,B|400:280,2,75
256,264,11071,1,0,0:0:0:0:
168,224,11231,2,0,B|112:280,2,75
352,160,11869,6,0,B|384:128|384:128|424:128,1,75
384,36,12188,2,0,B|352:68|352:68|312:68,1,75
132,116,12667,2,0,L|185:169,1,75
268,224,12986,2,0,L|212:280,1,75
120,300,13305,2,0,B|172:352|172:352|248:352,1,150
248,352,13784,1,0,0:0:0:0:
452,344,14103,1,0,0:0:0:0:
456,148,14422,6,0,B|428:176|428:176|392:176,1,75
344,92,14741,2,0,B|372:64|372:64|408:64,1,75
384,260,15220,2,0,P|384:296|360:336,1,75
308,252,15539,2,0,P|282:277|237:288,1,75
264,192,15858,2,0,P|228:192|188:168,1,75
276,116,16178,2,0,P|250:90|239:45,1,75
144,68,16497,5,0,0:0:0:0:
112,160,16657,1,0,0:0:0:0:
148,252,16816,1,0,0:0:0:0:
232,300,16975,1,0,0:0:0:0:
328,340,17135,6,0,L|400:204,1,150
384,104,17614,1,0,0:0:0:0:
304,168,17773,2,0,L|233:300,1,150
144,352,18252,1,0,0:0:0:0:
148,252,18412,2,0,L|220:116,1,150
400,52,19050,2,0,L|432:20,2,37.5
460,236,19529,5,0,0:0:0:0:
460,236,19688,2,0,B|304:236,1,150
216,264,20167,2,0,P|212:300|220:348,1,75
128,300,20486,2,0,P|122:262|126:225,1,75
120,128,20806,1,0,0:0:0:0:
300,56,21124,2,0,P|372:44|452:64,1,150
412,256,21763,1,0,0:0:0:0:
216,264,22082,2,0,P|168:216|168:136,1,150
296,264,22720,2,0,P|344:216|344:136,1,150
168,56,23358,6,0,L|88:80,1,75
172,140,23678,2,0,L|100:176,1,75
192,220,23997,2,0,L|132:280,1,75
236,292,24316,1,0,0:0:0:0:
388,296,24635,6,0,P|428:291|464:270,1,75
348,220,24954,2,0,P|374:188|384:148,1,75
256,180,25273,2,0,L|256:100,1,75
164,220,25592,2,0,P|138:188|128:148,1,75
124,292,25912,2,0,P|83:287|47:266,1,75
52,272,26231,5,0,0:0:0:0:
52,76,26550,1,0,0:0:0:0:
252,72,26869,1,0,0:0:0:0:
256,268,27188,1,0,0:0:0:0:
452,268,27507,1,0,0:0:0:0:
452,72,27826,1,0,0:0:0:0:
252,72,28146,1,0,0:0:0:0:
252,72,28305,1,0,0:0:0:0:
432,348,28784,6,0,L|460:388,3,37.5
432,348,29103,2,0,L|404:388,3,37.5
432,348,29422,6,0,P|361:329|328:264,1,150
392,192,29901,1,0,0:0:0:0:
464,124,30061,2,0,P|431:59|361:41,1,150
268,64,30539,1,0,0:0:0:0:
172,52,30699,2,0,P|164:92|172:128,1,75
268,148,31018,2,0,P|274:184|266:221,1,75
168,216,31337,2,0,P|160:256|168:292,1,75
264,308,31656,5,0,0:0:0:0:
360,324,31816,1,0,0:0:0:0:
456,328,31975,2,0,P|432:272|432:180,1,150
444,88,32454,1,0,0:0:0:0:
444,88,32614,2,0,P|408:76|364:80,1,75
324,164,32933,2,0,P|288:136|272:92,1,75
204,44,33252,2,0,P|164:52|132:80,1,75
84,156,33571,1,0,0:0:0:0:
100,252,33731,1,0,0:0:0:0:
132,344,33890,6,0,P|196:280|196:224,1,150
380,344,34529,2,0,P|316:280|316:224,1,150
315,224,35007,1,0,0:0:0:0:
464,224,35326,1,0,0:0:0:0:
464,224,35645,2,0,B|452:160|452:160|408:160|368:128,1,150
373,132,36124,1,0,0:0:0:0:
440,60,36284,2,0,L|496:4,2,75
344,48,36763,6,0,L|268:48,1,75
232,140,37082,2,0,B|184:140|184:140|152:192|92:192,1,150
100,192,37561,1,0,0:0:0:0:
96,88,37880,1,0,0:0:0:0:
96,284,38199,2,0,P|156:324|240:320,1,150
328,304,38678,2,0,P|364:284|388:252,1,75
296,216,38997,2,0,P|260:196|236:164,1,75
328,128,39316,2,0,P|364:108|388:76,1,75
292,52,39635,1,0,0:0:0:0:
292,52,39954,6,0,P|252:40|212:40,1,75
136,48,40433,1,0,0:0:0:0:
272,188,40752,2,0,P|338:158|412:164,2,150
272,284,41550,1,0,0:0:0:0:
272,284,41869,1,0,0:0:0:0:
108,192,42188,1,0,0:0:0:0:
228,64,42507,2,0,P|292:128|348:128,1,150
440,96,42986,1,0,0:0:0:0:
440,296,43305,2,0,P|372:228|192:296,1,300
156,196,44103,5,0,0:0:0:0:
156,196,44422,2,0,B|140:120|140:120|160:48,1,150
352,48,45061,1,0,0:0:0:0:
352,48,45220,2,0,B|372:118|372:118|356:194,1,150
172,256,45858,2,0,P|156:256|156:104,1,225
332,64,46656,1,0,0:0:0:0:
368,92,46975,1,0,0:0:0:0:
404,120,47295,2,0,P|376:184|320:240,1,150
192,240,47933,2,0,P|138:187|108:120,1,150
256,192,48571,12,0,49529,0:0:0:0:
400,328,49848,6,0,L|432:260,1,75
444,164,50168,1,0,0:0:0:0:
424,68,50327,1,0,0:0:0:0:
424,68,50487,2,0,P|352:44|276:68,1,150
196,108,50965,5,0,0:0:0:0:
144,192,51124,1,0,0:0:0:0:
88,272,51284,2,0,L|28:332,2,75
184,292,51763,2,0,P|220:308|268:308,1,75
316,232,52082,2,0,B|356:172|448:172,1,150
372,108,52561,1,0,0:0:0:0:
288,60,52720,2,0,P|248:40|216:40,1,75
224,140,53039,2,0,P|235:175|230:212,1,75
140,180,53358,5,0,0:0:0:0:
164,276,53518,1,0,0:0:0:0:
256,308,53678,1,0,0:0:0:0:
444,256,53997,1,0,0:0:0:0:
256,212,54316,1,0,0:0:0:0:
68,256,54635,1,0,0:0:0:0:
68,256,54795,2,0,P|68:184|110:120,1,150
184,60,55273,2,0,P|256:60|320:104,2,150,0|0|0,0:0|0:0|0:0,0:0:0:0:
110,121,56231,6,0,P|68:182|68:256,2,150
204,152,57029,1,0,0:0:0:0:
160,344,57347,6,0,P|228:316|256:248,1,150
352,344,57826,2,0,P|284:316|256:248,1,150
376,96,58465,2,0,P|444:124|472:192,1,150
432,280,58943,2,0,L|488:336,2,75
376,96,59582,1,0,0:0:0:0:
376,96,59901,1,0,0:0:0:0:
100,192,60380,6,0,L|72:232,3,37.5
116,256,60699,2,0,L|144:296,3,37.5
112,328,61018,6,0,P|180:328|240:268,1,150
264,180,61497,1,0,0:0:0:0:
312,96,61656,2,0,P|348:88|388:100,1,75
344,188,61975,2,0,P|375:207|394:244,1,75
296,260,62295,2,0,P|304:296|292:336,1,75
196,336,62614,5,0,0:0:0:0:
64,192,62933,1,0,0:0:0:0:
196,48,63252,1,0,0:0:0:0:
344,188,63571,1,0,0:0:0:0:
396,104,63731,1,0,0:0:0:0:
440,192,63890,2,0,P|426:265|374:317,1,150,0|0,0:0|0:0,0:0:0:0:
280,336,64369,1,0,0:0:0:0:
184,320,64529,2,0,P|197:246|249:194,1,150
184,120,65007,2,0,P|124:164|48:164,2,150,0|0|0,0:0|0:0|0:0,0:0:0:0:
256,48,65805,1,0,0:0:0:0:
256,244,66124,6,0,P|302:299|375:302,1,150
440,116,66763,1,0,0:0:0:0:
256,48,67082,2,0,P|176:48|124:100,1,150
80,180,67561,2,0,P|80:252|132:304,1,150
228,316,68039,1,0,0:0:0:0:
228,316,68199,1,0,0:0:0:0:
324,320,68358,6,0,P|364:308|392:280,1,75
392,188,68678,1,0,0:0:0:0:
392,188,68837,1,0,0:0:0:0:
392,100,68997,2,0,L|452:52,2,75
296,112,69475,1,0,0:0:0:0:
160,252,69795,1,0,0:0:0:0:
108,64,70114,1,0,0:0:0:0:
332,252,70592,6,0,P|404:252|460:308,2,150,0|0|0,0:0|0:0|0:0,0:0:0:0:
256,316,71390,1,0,0:0:0:0:
108,192,71709,1,0,0:0:0:0:
108,192,71869,1,0,0:0:0:0:
256,64,72188,1,0,0:0:0:0:
440,132,72507,5,0,0:0:0:0:
360,188,72667,1,0,0:0:0:0:
440,244,72826,1,0,0:0:0:0:
360,300,72986,1,0,0:0:0:0:
104,268,73385,6,0,P|19:246|97:111,1,300,0|0,0:0|0:0,0:0:0:0:
136,48,74103,6,0,P|172:32|208:32,1,75
304,32,74422,2,0,P|336:32|376:52,1,75
404,144,74741,1,0,0:0:0:0:
404,144,74900,1,0,0:0:0:0:
412,240,75060,6,0,P|382:262|344:276,1,75
256,240,75379,1,0,0:0:0:0:
256,240,75539,1,0,0:0:0:0:
164,272,75698,2,0,L|108:216,1,75
164,132,76017,1,0,0:0:0:0:
164,132,76176,1,0,0:0:0:0:
256,128,76337,2,0,L|256:203,1,75
348,132,76656,1,0,0:0:0:0:
436,304,76975,5,0,0:0:0:0:
436,304,77134,1,0,0:0:0:0:
340,300,77294,2,0,L|376:234,1,75
256,228,77614,2,0,L|256:303,1,75,0|0,0:0|0:0,0:0:0:0:
172,300,77932,2,0,L|135:234,1,75
156,140,78251,2,0,P|120:127|91:104,1,75
256,140,78571,1,0,0:0:0:0:
256,140,78730,1,0,0:0:0:0:
256,140,78890,1,0,0:0:0:0:
356,140,79049,2,0,P|391:127|420:104,1,75
232,56,79528,6,0,P|196:44|156:44,1,75
156,140,79848,2,0,L|88:173,2,75
256,140,80326,1,0,0:0:0:0:
356,140,80485,2,0,P|393:140|428:152,1,75
432,248,80805,2,0,P|396:236|359:235,1,75
348,324,81124,2,0,P|385:324|420:336,2,75
160,268,81762,6,0,B|84:268,2,75
256,244,82241,1,0,0:0:0:0:
148,80,82560,2,0,L|73:80,2,75
344,84,83198,2,0,L|419:84,2,75
348,280,83837,1,0,0:0:0:0:
152,276,84156,1,0,0:0:0:0:
256,192,84315,12,0,86868,0:0:0:0:
