osu file format v12

[General]
AudioFilename: Unite.mp3
AudioLeadIn: 2000
PreviewTime: 41493
Countdown: 0
SampleSet: Normal
StackLeniency: 0.7
Mode: 0
LetterboxInBreaks: 0
WidescreenStoryboard: 0

[Editor]
DistanceSpacing: 1
BeatDivisor: 4
GridSize: 4

[Metadata]
Title:Unite (TV Size)
TitleUnicode:ユナイト (TV Size)
Artist:Misawa Sachika
ArtistUnicode:三澤紗千香
Creator:Losertic
Version:Normal
Source:Accel World
Tags:アクセル・ワールド yunaito ending kuroyukihime wakeshima kanon
BeatmapID:253450
BeatmapSetID:94078

[Difficulty]
HPDrainRate:4
CircleSize:3
OverallDifficulty:4
ApproachRate:5
SliderMultiplier:1.19999990463257
SliderTickRate:1

[Events]
//Background and Video events
0,0,"Background-Unite.jpg",0,0
Video,0,"Video-Unite.avi"
//Break Periods
//Storyboard Layer 0 (Background)
//Storyboard Layer 1 (Fail)
//Storyboard Layer 2 (Pass)
//Storyboard Layer 3 (Foreground)
//Storyboard Sound Samples
//Background Colour Transformations
3,100,163,162,255

[TimingPoints]
642,319.148936170213,4,2,1,75,1,0
1280,-100,4,2,7,75,0,0
1360,-100,4,2,1,75,0,0
1439,-100,4,2,7,75,0,0
1519,-100,4,2,1,75,0,0
1918,-100,4,2,7,75,0,0
1998,-100,4,2,1,75,0,0
2237,-100,4,2,5,65,0,0
2317,-100,4,2,1,75,0,0
2397,-100,4,2,7,75,0,0
2636,-100,4,2,1,75,0,0
2716,-100,4,2,7,75,0,0
2796,-100,4,2,1,75,0,0
3195,-100,4,2,7,75,0,0
3274,-100,4,2,1,75,0,0
3833,-100,4,2,7,75,0,0
3913,-100,4,2,1,75,0,0
3993,-100,4,2,7,75,0,0
5269,-100,4,2,1,75,0,0
6386,-100,4,2,7,75,0,0
6466,-100,4,2,1,75,0,0
7024,-100,4,2,7,75,0,0
7104,-100,4,2,1,75,0,0
7663,-100,4,2,7,75,0,0
7982,-100,4,2,1,75,0,0
8301,-100,4,2,1,75,0,0
8381,-100,4,2,1,75,0,0
10695,-100,4,2,1,70,0,0
11173,-100,4,2,7,70,0,0
11253,-100,4,2,1,70,0,0
11493,-100,4,2,7,70,0,0
12211,-100,4,2,1,70,0,0
12450,-100,4,2,7,70,0,0
13487,-100,4,2,1,70,0,0
13727,-100,4,2,7,70,0,0
14445,-100,4,2,1,70,0,0
14684,-100,4,2,7,70,0,0
15083,-100,4,2,1,70,0,0
15163,-100,4,2,7,70,0,0
15243,-100,4,2,1,70,0,0
15322,-100,4,2,7,70,0,0
15642,-100,4,1,2,70,0,0
15721,-100,4,2,1,70,0,0
15961,-100,4,2,7,70,0,0
16360,-100,4,2,1,70,0,0
16599,-100,4,2,7,70,0,0
16998,-100,4,2,1,70,0,0
17237,-100,4,2,7,70,0,0
17955,-100,4,2,1,70,0,0
18195,-100,4,2,7,70,0,0
19232,-100,4,2,1,70,0,0
19471,-100,4,2,7,70,0,0
19790,-100,4,1,2,70,0,0
20429,-100,4,1,1,45,0,0
21067,-100,4,2,1,70,0,0
21386,-100,4,1,1,70,0,0
21466,-100,4,2,1,70,0,0
21705,-100,4,2,7,70,0,0
22024,-100,4,1,1,70,0,0
22344,-100,4,2,7,70,0,0
22423,-100,4,2,1,70,0,0
22663,-100,4,1,1,70,0,0
22982,-100,4,2,7,70,0,0
23301,-100,4,1,1,70,0,0
23381,-100,4,2,1,70,0,0
23620,-100,4,2,7,70,0,0
23700,-100,4,2,1,70,0,0
23939,-100,4,1,1,70,0,0
24259,-100,4,2,7,70,0,0
24578,-100,4,1,1,70,0,0
24657,-100,4,2,1,70,0,0
24897,-100,4,2,7,70,0,0
25216,-100,4,1,1,70,0,0
25535,-100,4,2,7,70,0,0
25615,-100,4,2,1,70,0,0
25854,-100,4,2,6,60,0,0
25934,-100,4,2,1,70,0,0
26493,-100,4,1,1,70,0,0
26572,-100,4,2,1,70,0,0
26652,-100,4,2,7,70,0,0
27290,-100,4,2,1,70,0,0
27769,-100,4,1,1,70,0,0
28088,-100,4,2,7,70,0,0
28407,-100,4,1,1,70,0,0
28487,-100,4,2,1,70,0,0
29046,-100,4,1,1,70,0,0
29126,-100,4,2,1,70,0,0
29524,-100,4,2,7,70,0,0
29844,-100,4,2,1,70,0,0
30163,-100,4,2,8,60,0,0
30243,-100,4,2,1,70,0,0
30322,-100,4,1,1,70,0,0
30961,-100,4,1,1,45,0,0
31040,-100,4,2,1,70,0,0
31280,-100,4,2,7,70,0,0
31599,-100,4,1,1,70,0,0
31679,-100,4,2,1,70,0,0
31759,-100,4,2,7,70,0,0
32157,-100,4,2,1,70,0,0
32876,-100,4,1,1,70,0,0
32955,-100,4,2,1,70,0,0
33195,-100,4,2,7,70,0,0
33514,-100,4,1,1,70,0,0
33594,-100,4,2,1,70,0,0
33833,-100,4,2,7,70,0,0
34152,-100,4,1,1,70,0,0
34232,-100,4,2,1,70,0,0
34312,-100,4,2,7,70,0,0
34711,-100,4,2,1,70,0,0
35429,-100,4,1,1,70,0,0
35509,-100,4,2,1,70,0,0
35748,-100,4,2,7,70,0,0
36067,-100,4,2,1,70,0,0
36705,-100,4,2,6,60,0,0
36785,-100,4,2,1,70,0,0
36865,-100,4,2,7,70,0,0
37264,-100,4,2,1,70,0,0
37503,-100,4,2,7,70,0,0
37982,-100,4,1,1,70,0,0
38301,-100,4,2,7,70,0,0
38381,-100,4,2,1,70,0,0
38620,-100,4,1,1,70,0,0
38939,-100,4,2,1,70,0,0
41493,-100,4,2,1,80,0,0
42290,-100,4,2,7,80,0,0
42370,-100,4,2,1,80,0,0
42450,-100,4,1,1,80,0,0
42769,-100,4,1,1,80,0,1
44046,-100,4,2,7,80,0,1
44365,-100,4,1,1,80,0,1
44684,-100,4,2,7,80,0,1
45003,-100,4,1,1,80,0,1
45961,-100,4,2,7,80,0,1
46280,-100,4,1,1,80,0,1
46439,-100,4,2,7,80,0,1
46519,-100,4,1,1,80,0,1
46759,-100,4,2,8,70,0,1
46838,-100,4,1,1,80,0,1
47237,-100,4,2,7,80,0,1
47556,-100,4,1,1,80,0,1
48514,-100,4,2,7,80,0,1
48594,-100,4,1,1,80,0,1
48673,-100,4,2,7,80,0,1
49471,-100,4,1,1,80,0,1
49790,-100,4,2,8,70,0,1
49870,-100,4,1,1,80,0,1
50429,-100,4,2,7,80,0,1
50509,-100,4,1,1,80,0,1
50748,-100,4,2,6,70,0,1
50828,-100,4,1,1,80,0,1
52024,-100,4,1,1,55,0,1
52104,-100,4,1,1,80,0,1
52344,-100,4,1,1,55,0,1
52743,-100,4,1,1,80,0,1
52982,-100,4,2,7,80,0,1
53301,-100,4,1,1,80,0,1
53620,-100,4,2,7,80,0,1
53700,-100,4,1,1,80,0,1
54259,-100,4,2,7,80,0,1
54578,-100,4,1,1,80,0,1
54897,-100,4,2,7,80,0,1
55216,-100,4,1,1,80,0,1
55535,-100,4,2,7,80,0,1
55854,-100,4,1,1,80,0,1
56173,-100,4,2,7,80,0,1
56253,-100,4,1,1,80,0,1
56493,-100,4,2,6,70,0,1
56572,-100,4,1,1,80,0,1
56652,-100,4,2,7,80,0,1
57769,-100,4,1,1,80,0,1
58727,-100,4,2,7,80,0,1
58806,-100,4,1,1,80,0,1
59046,-100,4,2,6,70,0,1
59126,-100,4,1,1,80,0,1
59205,-100,4,2,7,80,0,1
59684,-100,4,1,1,80,0,1
60003,-100,4,2,7,80,0,1
60322,-100,4,1,1,80,0,1
60642,-100,4,2,7,80,0,1
60961,-100,4,1,1,80,0,1
62237,-100,4,1,1,70,0,0
63195,-100,4,2,5,60,0,0
63274,-100,4,1,1,70,0,0
63514,-100,4,2,7,70,0,0
64152,-100,4,1,1,70,0,0
64312,-100,4,2,7,70,0,0
64471,-100,4,1,1,70,0,0
65145,319.148936170213,4,1,2,70,1,0
65748,319.148936170213,4,2,1,75,1,0
66386,-100,4,2,7,75,0,0
66466,-100,4,2,1,75,0,0
66545,-100,4,2,7,75,0,0
66865,-100,4,2,1,75,0,0
67662,-100,4,2,7,75,0,0
67742,-100,4,2,1,75,0,0
68301,-100,4,2,7,75,0,0
68380,-100,4,2,1,75,0,0
68939,-100,4,2,7,75,0,0
69019,-100,4,2,1,75,0,0
69099,-100,4,2,7,75,0,0
70455,-100,4,2,1,75,0,0
71492,-100,4,2,7,75,0,0
71572,-100,4,2,1,75,0,0
71652,-100,4,2,7,75,0,0
71971,-100,4,2,1,75,0,0
72130,-100,4,2,7,75,0,0
72450,-100,4,2,1,75,0,0
72769,-100,4,2,7,75,0,0
72849,-100,4,2,1,75,0,0
72928,-100,4,2,7,75,0,0
73008,-100,4,2,1,75,0,0

[Colours]
Combo1 : 0,0,215
Combo2 : 255,255,255
Combo3 : 33,1,126
Combo4 : 183,0,4

[HitObjects]
414,337,642,2,0,P|353:311|284:311,1,119.999990463257,4|8,0:0|0:0,0:0:0:0:
187,351,1280,2,0,P|156:372|133:379,2,59.9999952316285,4|2|8,0:0|0:0|0:0,0:0:0:0:
108,260,1918,2,0,P|72:188|96:84,1,179.999985694886,2|2,0:0|0:0,0:0:0:0:
61,40,2556,2,0,L|2:26,2,59.9999952316285,4|2|8,0:0|0:0|0:0,0:0:0:0:
180,57,3195,6,0,P|249:60|312:41,1,119.999990463257,6|8,0:0|0:0,0:0:0:0:
417,47,3833,2,0,L|464:101,1,59.9999952316285,6|2,0:0|0:0,0:0:0:0:
460,212,4312,1,4,0:0:0:0:
348,255,4631,1,4,0:0:0:0:
255,331,4950,1,2,0:0:0:0:
141,293,5269,2,0,B|108:288|108:288|80:274,1,59.9999952316285,0|8,0:0|0:0,0:0:0:0:
152,176,5748,5,4,0:0:0:0:
152,176,6067,2,0,P|123:121|128:47,2,119.999990463257,8|6|8,0:0|0:0|0:0,0:0:0:0:
237,92,7024,2,0,L|289:32,2,59.9999952316285,6|0|8,0:0|0:0|0:0,0:0:0:0:
152,176,7663,1,4,0:0:0:0:
248,247,7982,1,8,0:0:0:0:
360,206,8301,6,0,P|430:257|454:352,1,179.999985694886,8|8,0:0|0:0,0:0:0:0:
333,328,9099,2,0,L|205:328,1,119.999990463257,8|4,0:0|0:0,0:0:0:0:
113,260,9738,1,8,0:0:0:0:
131,141,10057,1,4,0:0:0:0:
228,212,10376,1,4,0:0:0:0:
343,244,10695,2,0,P|363:224|383:188,1,59.9999952316285,8|4,0:0|3:0,0:0:0:0:
316,96,11173,6,0,L|160:96,1,119.999990463257,6|2,0:0|0:0,0:0:0:0:
76,96,11812,1,6,0:0:0:0:
108,212,12131,2,0,L|236:212,1,119.999990463257,6|6,0:0|0:0,0:0:0:0:
344,188,12769,1,2,0:0:0:0:
444,124,13088,1,0,0:0:0:0:
464,244,13407,6,0,P|424:308|364:328,1,119.999990463257,6|6,0:0|0:0,0:0:0:0:
280,268,14046,1,6,0:0:0:0:
175,326,14365,2,0,P|137:311|93:247,1,119.999990463257,6|6,0:0|0:0,0:0:0:0:
52,136,15003,2,0,P|24:152|-4:176,2,59.9999952316285,6|4|4,0:0|0:0|0:0,0:0:0:0:
148,60,15642,2,0,P|204:60|240:112,1,119.999990463257
232,228,16280,6,0,P|328:188|333:179,1,119.999990463257,6|2,0:0|0:0,0:0:0:0:
432,114,16918,2,0,P|458:166|446:224,1,119.999990463257,2|6,0:0|0:0,0:0:0:0:
444,344,17556,1,6,0:0:0:0:
324,340,17876,2,0,L|188:340,1,119.999990463257,6|6,0:0|0:0,0:0:0:0:
100,280,18513,5,6,0:0:0:0:
32,176,18833,1,2,0:0:0:0:
64,60,19152,2,0,P|100:36|172:48,1,119.999990463257,6|4,0:0|0:0,0:0:0:0:
208,164,19790,1,8,0:0:0:0:
432,252,20428,5,8,0:0:0:0:
340,328,20747,1,8,0:0:0:0:
316,212,21067,1,8,0:0:0:0:
420,156,21387,6,0,P|364:104|323:93,1,119.999990463257,0|2,0:0|0:0,0:0:0:0:
228,164,22024,1,8,0:0:0:0:
128,96,22344,2,0,P|87:107|31:159,1,119.999990463257,6|8,0:0|0:0,0:0:0:0:
136,216,22982,1,4,0:0:0:0:
32,276,23301,6,0,P|88:328|129:339,2,119.999990463257,8|2|8,0:0|0:0|0:0,0:0:0:0:
136,216,24259,1,6,0:0:0:0:
188,108,24578,2,0,L|328:108,1,119.999990463257,8|2,0:0|0:0,0:0:0:0:
356,216,25216,1,8,0:0:0:0:
364,336,25535,6,0,P|448:284|448:144,1,239.999980926514,4|4,0:0|0:0,0:0:0:0:
356,84,26493,2,0,L|244:84,1,59.9999952316285,8|2,0:0|0:0,0:0:0:0:
176,104,26971,1,2,0:0:0:0:
100,196,27290,1,0,0:0:0:0:
164,296,27610,2,0,L|228:316,1,59.9999952316285,0|8,0:0|0:0,0:0:0:0:
340,332,28088,1,4,0:0:0:0:
424,248,28407,6,0,L|424:128,1,119.999990463257,8|4,0:0|0:0,0:0:0:0:
328,56,29046,2,0,L|328:116,1,59.9999952316285,0|4,0:0|0:0,0:0:0:0:
328,236,29524,1,2,0:0:0:0:
272,344,29844,2,0,P|208:280|212:196,1,179.999985694886,4|8,0:0|0:0,0:0:0:0:
436,108,30961,6,0,P|396:56|332:40,1,119.999990463257,8|2,0:0|0:0,0:0:0:0:
328,160,31599,2,0,L|280:212,1,59.9999952316285,8|2,0:0|0:0,0:0:0:0:
172,168,32078,2,0,P|132:208|132:272,1,119.999990463257,2|4,0:0|0:0,0:0:0:0:
297,336,32876,6,0,P|245:303|231:231,1,119.999990463257,8|2,0:0|0:0,0:0:0:0:
347,233,33514,2,0,P|383:181|379:125,1,119.999990463257,8|2,0:0|0:0,0:0:0:0:
261,150,34152,2,0,L|173:118,1,59.9999952316285,8|2,0:0|0:0,0:0:0:0:
119,43,34631,2,0,P|83:111|83:163,1,119.999990463257,2|4,0:0|0:0,0:0:0:0:
196,292,35429,6,0,P|256:308|316:292,1,119.999990463257,8|2,0:0|0:0,0:0:0:0:
376,192,36067,1,8,0:0:0:0:
256,196,36386,2,0,P|288:112|368:72,1,179.999985694886,4|6,0:0|0:0,0:0:0:0:
452,152,37184,2,0,P|476:132|496:112,2,59.9999952316285,4|0|4,0:0|0:0|0:0,0:0:0:0:
396,324,37982,1,8,0:0:0:0:
336,220,38301,2,0,B|356:196|316:140|352:100,1,119.999990463257,2|8,0:0|0:0,0:0:0:0:
256,192,38939,12,0,40854,0:0:0:0:
124,348,41493,6,0,L|124:288,1,59.9999952316285
124,227,41812,2,0,L|124:167,1,59.9999952316285
240,140,42290,2,0,P|269:144|295:159,1,59.9999952316285,2|0,0:0|0:0,0:0:0:0:
348,268,42769,6,0,P|416:324|472:320,1,119.999990463257,4|8,0:0|0:0,0:0:0:0:
448,208,43407,2,0,P|468:136|436:76,1,119.999990463257,0|8,0:0|0:0,0:0:0:0:
348,40,44046,1,2,0:0:0:0:
348,40,44365,2,0,P|264:108|224:104,1,119.999990463257,8|4,0:0|0:0,0:0:0:0:
152,164,45003,1,8,0:0:0:0:
44,220,45322,6,0,P|40:156|48:96,2,119.999990463257,4|8|6,0:0|0:0|0:0,0:0:0:0:
160,260,46280,1,8,0:0:0:0:
208,224,46439,2,0,B|264:228|276:151|276:151|384:175|432:72,1,299.999976158143,2|6,0:0|0:0,0:0:0:0:
316,36,47556,1,8,0:0:0:0:
200,60,47876,6,0,P|144:104|132:164,1,119.999990463257,4|0,0:0|0:0,0:0:0:0:
249,172,48514,2,0,L|308:216,1,59.9999952316285,6|6,0:0|0:0,0:0:0:0:
200,276,48992,1,2,0:0:0:0:
380,288,49471,2,0,P|460:236|424:108,1,239.999980926514,8|8,0:0|0:0,0:0:0:0:
308,100,50429,6,0,P|228:52|168:124,1,179.999985694886,6|4,0:0|0:0,0:0:0:0:
240,200,51227,1,4,0:0:0:0:
240,320,51546,1,4,0:0:0:0:
396,236,52024,2,0,P|468:256|508:232,1,119.999990463257,4|8,0:0|0:0,0:0:0:0:
448,128,52663,6,0,P|396:72|355:60,1,119.999990463257,8|2,0:0|0:0,0:0:0:0:
240,36,53301,1,8,0:0:0:0:
124,60,53621,2,0,P|84:72|32:128,1,119.999990463257,2|8,0:0|0:0,0:0:0:0:
140,178,54259,1,2,0:0:0:0:
233,253,54578,1,8,0:0:0:0:
328,180,54897,1,4,0:0:0:0:
328,180,55216,6,0,P|378:142|401:82,1,119.999990463257,8|6,0:0|0:0,0:0:0:0:
281,69,55854,1,8,0:0:0:0:
160,69,56174,2,0,P|102:136|109:239,1,179.999985694886,2|2,0:0|0:0,0:0:0:0:
212,177,56971,1,2,0:0:0:0:
480,44,57769,6,0,P|492:84|472:168,1,119.999990463257,8|4,0:0|0:0,0:0:0:0:
373,98,58408,1,8,0:0:0:0:
264,152,58727,2,0,B|304:208|272:260|272:260|312:316,1,179.999985694886,2|6,0:0|0:0,0:0:0:0:
167,201,59684,5,8,0:0:0:0:
75,125,60003,1,4,0:0:0:0:
15,229,60322,1,8,0:0:0:0:
107,305,60642,1,6,0:0:0:0:
167,201,60961,1,8,0:0:0:0:
167,201,61120,2,0,P|219:141|271:137,2,119.999990463257,8|8|4,0:0|0:0|0:0,0:0:0:0:
335,137,62237,6,0,P|371:143|423:203,1,119.999990463257,8|0,0:0|0:0,0:0:0:0:
316,260,62876,2,0,P|336:316|496:308,1,239.999980926514,0|4,0:0|0:0,0:0:0:0:
344,124,64152,6,0,L|295:89,1,59.9999952316285,0|2,0:0|0:0,0:0:0:0:
236,88,64471,2,0,L|187:122,1,59.9999952316285,8|8,0:0|0:0,0:0:0:0:
100,296,65145,2,0,L|149:331,2,59.9999952316285,8|8|4,0:0|0:0|3:0,0:0:0:0:
84,188,65748,6,0,P|68:128|104:64,1,119.999990463257,4|8,0:0|0:0,0:0:0:0:
208,48,66387,2,0,P|240:52|280:76,1,59.9999952316285,4|2,0:0|0:0,0:0:0:0:
376,108,66866,1,0,0:0:0:0:
368,228,67185,2,0,P|352:248|304:268,1,59.9999952316285,0|8,0:0|0:0,0:0:0:0:
208,296,67663,2,0,L|52:296,1,119.999990463257,4|8,0:0|0:0,0:0:0:0:
40,184,68302,6,0,L|160:184,1,119.999990463257,6|8,0:0|0:0,0:0:0:0:
148,64,68939,2,0,L|228:64,1,59.9999952316285,6|2,0:0|0:0,0:0:0:0:
328,76,69418,1,4,0:0:0:0:
392,176,69737,1,4,0:0:0:0:
328,280,70056,1,2,0:0:0:0:
212,308,70375,2,0,P|168:256|44:240,1,179.999985694886,2|4,0:0|0:0,0:0:0:0:
98,120,71173,5,8,0:0:0:0:
182,34,71492,2,0,L|251:19,1,59.9999952316285,4|2,0:0|0:0,0:0:0:0:
348,80,71971,2,0,P|376:108|380:156,1,59.9999952316285,0|2,0:0|0:0,0:0:0:0:
271,172,72450,1,8,0:0:0:0:
180,250,72769,2,0,P|152:222|146:203,2,59.9999952316285,4|2|8,0:0|0:0|0:0,0:0:0:0:
256,192,73407,12,4,75801,0:0:0:0:
